#VERSION:0.83;
#TITLE:Winter Horrorland;
#SUBTITLE:;
#ARTIST:Basset;
#TITLETRANSLIT:;
#SUBTITLETRANSLIT:;
#ARTISTTRANSLIT:;
#GENRE:Friday Night Funkin';
#ORIGIN:;
#CREDIT:;
#BANNER:Winter Horrorland.png;
#BACKGROUND:../bg.png;
#PREVIEWVID:;
#JACKET:Winter Horrorland-jacket.png;
#CDIMAGE:;
#DISCIMAGE:;
#LYRICSPATH:;
#CDTITLE:../cdtitle.png;
#MUSIC:Winter Horrorland.ogg;
#OFFSET:1.509000;
#SAMPLESTART:9.055000;
#SAMPLELENGTH:15.000000;
#SELECTABLE:YES;
#BPMS:0.000=159.000;
#STOPS:;
#DELAYS:;
#WARPS:;
#TIMESIGNATURES:0.000=4=4;
#TICKCOUNTS:0.000=4;
#COMBOS:0.000=1;
#SPEEDS:0.000=1.000=0.000=0;
#SCROLLS:0.000=1.000;
#FAKES:;
#LABELS:0.000=Song Start;
#BGCHANGES: -1.000=Winter Horrorland.avi=1.000=0=0=0=StretchNoLoop====,
99999=-nosongbg-=1.000=0=0=0 // don't automatically add -songbackground-
;
#KEYSOUNDS:;
#ATTACKS:
;

//---------------dance-single - ----------------
#NOTEDATA:;
#CHARTNAME:;
#STEPSTYPE:dance-single;
#DESCRIPTION:;
#CHARTSTYLE:;
#DIFFICULTY:Hard;
#METER:11;
#RADARVALUES:0.413696,0.556233,0.037609,0.248217,0.000000,385.000000,380.000000,5.000000,33.000000,0.000000,0.000000,0.000000,0.000000,0.000000,0.413696,0.556233,0.037609,0.248217,0.000000,385.000000,380.000000,5.000000,33.000000,0.000000,0.000000,0.000000,0.000000,0.000000;
#CREDIT:led_light;
#NOTES:
0000
0000
0000
0000
,
0000
0000
0000
0000
,
0000
0000
0000
0000
,
0000
0000
0000
0000
,
0000
0000
0000
0000
,
0000
0000
0000
0000
,
0000
0000
0000
0000
,
0000
1000
0100
0010
,
0002
0000
2003
0000
,
3000
0001
0100
0010
,
1000
0000
0000
0001
0100
0000
0010
0000
,
1000
0001
0010
0100
,
2000
0000
3002
0000
,
0003
1000
0010
0100
,
0001
0000
0000
1000
0010
0000
0100
0000
,
0001
0010
1000
0010
,
0001
0000
0000
1000
0100
0010
0100
0010
,
0001
0000
1000
0001
0010
0100
0010
0100
,
2000
0000
3000
1000
0010
0100
0010
0000
,
1000
0100
0001
0100
,
1000
0000
0000
0001
0010
0100
0010
0100
,
1000
0000
0001
1000
0100
0010
0100
0010
,
0002
0000
0003
0001
0100
0010
0100
0000
,
0000
0001
0010
0100
1000
0000
0000
0001
,
0000
1000
0010
0110
,
0000
0001
0010
0100
1000
0000
0001
0000
,
1000
0000
0000
0000
,
0000
1000
0100
0010
0001
0000
0000
1000
,
0000
0001
0100
0110
,
0000
1000
0100
0010
0001
0000
1000
0000
,
0001
0000
0000
0000
,
1000
0000
0100
0000
0001
0100
0001
0100
,
1000
0002
0023
0230
,
2300
0000
3020
0000
0031
0010
0001
0010
,
0000
1000
0001
1000
0000
0000
0000
0000
,
0001
0000
0010
0000
1000
0010
1000
0010
,
0002
1003
0200
0310
,
0002
0000
0203
0000
0310
1000
0100
0001
,
0000
0100
0000
0010
0100
0000
0000
0000
,
0100
1000
0000
1000
0100
1000
0001
0100
,
0010
1000
0010
0000
0010
0001
0010
0000
,
0000
1000
0000
1000
0010
1000
0001
0010
,
0100
1000
0100
0000
0100
0001
0100
0000
,
0100
1000
0001
0000
0010
0000
0010
0000
,
0100
1000
0010
0000
0001
0010
1000
0000
,
0010
0100
0000
0001
0000
0010
0000
0200
,
0000
0000
0300
0000
,
1000
1000
0001
0000
0100
0001
0100
0010
,
0000
0010
1000
0001
0010
0100
0010
0001
,
2000
0000
3100
0000
0002
0000
0103
1000
,
0000
0000
0000
0100
0010
0100
0010
0000
,
0000
0001
1000
0000
0010
0010
1000
0100
,
0000
0010
0001
1000
0001
0100
0010
1000
,
0002
0000
0023
0000
2030
0000
3010
0001
,
0000
0000
0000
0010
0100
0010
0100
0000
,
1000
0001
1000
0001
0010
0001
0010
0001
,
0100
0001
0100
0001
1000
0010
1000
0010
,
0100
0001
0100
0001
1000
0100
1000
0100
,
1000
0001
1000
0001
0100
0010
0100
0010
,
2000
0000
3001
0010
0100
1000
0100
0000
,
2000
3010
0002
0013
,
1000
0000
0000
0100
0000
0000
0010
0000
,
0002
0000
2003
0000
,
3000
1000
0100
0010
0001
0000
0000
1000
,
0000
0001
0100
0110
,
0000
1000
0100
0010
0001
0000
1000
0000
,
0001
0000
0000
0000
,
0000
0001
0010
0100
1000
0000
0000
0001
,
0000
1000
0020
0130
,
0000
0001
0010
0100
1000
0000
0001
0000
,
1000
0100
0000
0000
,
0010
0001
0000
0001
0010
0001
1000
0010
,
0100
0001
0100
0000
0100
1000
0100
0000
,
0000
0001
0000
0001
0100
0001
1000
0100
,
0010
0001
0010
0000
0010
1000
0010
0000
,
0010
0001
1000
0000
0100
0000
0100
0000
,
0010
0001
0100
0000
1000
0100
0001
0000
,
0100
0010
0000
1000
0000
0100
0000
0020
,
0000
0000
0030
0000
,
0100
1000
0001
0000
0001
0100
0010
0000
,
2000
3100
0002
0103
,
1000
0001
0000
0001
0100
0001
1000
0001
,
0020
0130
2000
3010
,
1000
0100
0010
0000
0001
0000
0110
0000
,
0001
0100
0010
0000
0100
0010
1000
0000
,
0010
0100
0000
0001
0000
0010
0000
0200
,
0000
0000
0300
0000
0010
0100
1000
0001
,
1001
0000
0000
0000
;

//---------------dance-single - ----------------
#NOTEDATA:;
#CHARTNAME:;
#STEPSTYPE:dance-single;
#DESCRIPTION:;
#CHARTSTYLE:;
#DIFFICULTY:Medium;
#METER:8;
#RADARVALUES:0.310540,0.392635,0.120348,0.142913,0.000000,289.000000,273.000000,16.000000,19.000000,0.000000,0.000000,0.000000,0.000000,0.000000,0.310540,0.392635,0.120348,0.142913,0.000000,289.000000,273.000000,16.000000,19.000000,0.000000,0.000000,0.000000,0.000000,0.000000;
#CREDIT:led_light;
#NOTES:
0000
0000
0000
0000
,
0000
0000
0000
0000
,
0000
0000
0000
0000
,
0000
0000
0000
0000
,
0000
0000
0000
0000
,
0000
0000
0000
0000
,
0000
0000
0000
0000
,
0000
1000
0100
0010
,
0002
0000
2003
0000
,
3000
0001
0100
0010
,
1000
0000
0000
0001
0100
0000
0001
0000
,
1000
0001
0010
0100
,
2000
0000
3002
0000
,
0003
1000
0010
0100
,
0001
0000
0000
1000
0010
0000
1000
0000
,
0010
0100
0010
0100
,
0001
0000
0000
0000
0010
0100
1000
0000
,
0100
0010
0100
0100
,
1000
0000
0000
0000
0100
0010
0001
0000
,
0100
0010
0100
0010
,
1000
0000
0000
0000
0100
0010
0001
0000
,
0010
0100
0010
0010
,
0001
0000
0000
0000
0010
0100
1000
0000
,
0000
0001
0100
0000
0010
0000
0000
0000
,
1000
0100
0001
0100
,
0000
0100
1000
0000
0001
0000
0001
0000
,
0010
0000
0000
0000
,
0000
0001
0010
0000
0100
0000
0000
0000
,
1000
0010
0001
0010
,
0000
0010
1000
0000
0001
0000
0001
0000
,
0100
0000
0000
0000
,
0002
0000
0013
0000
0100
0010
0100
0000
,
1000
0020
0032
0023
,
2030
0000
3200
0000
0310
0001
1000
0000
,
0110
0000
0000
0000
,
2000
0000
3010
0000
0100
0010
0100
0000
,
0001
0010
1000
0010
,
0001
0000
0100
0000
0010
1000
0001
0000
,
0110
0000
0000
0000
,
1000
0000
0000
0000
0001
0100
0010
0000
,
1100
0000
0101
0000
,
1000
0000
0000
0000
0001
0010
0100
0000
,
1010
0000
0011
0000
,
1000
0100
1000
0000
0100
0000
0010
0000
,
0001
0100
0001
0000
0100
0010
0100
0000
,
0001
1000
0000
0100
0000
0010
0000
0200
,
0000
0000
0300
0000
,
1000
0000
0011
0000
,
1000
0001
0101
0000
,
1000
0000
0001
0000
0010
0000
0100
0010
,
0000
0000
0000
0000
,
0001
0000
1100
0000
,
0001
0100
1010
0000
,
0100
0000
0001
0000
0010
0000
0100
0010
,
0000
0000
0000
0000
,
0001
0001
0001
0001
,
0100
0100
0100
0100
,
0010
0010
0010
0010
,
1000
1000
1000
1000
,
0002
0103
1000
0000
,
0002
0013
1000
0000
,
0100
0000
0010
0000
,
0220
0000
0330
0000
,
0000
0001
0100
0000
0010
0000
0000
0000
,
1000
0100
0001
0100
,
0000
0100
1000
0000
0001
0000
0001
0000
,
0010
0000
0000
0000
,
0000
0001
0010
0000
0100
0000
0000
0000
,
1000
0010
0001
0010
,
0000
0010
1000
0000
0001
0000
0001
0000
,
0100
0000
0000
0000
,
0001
0000
0000
0000
1000
0100
0010
0000
,
0101
0000
1100
0000
,
0001
0000
0000
0000
1000
0010
0100
0000
,
0011
0000
1010
0000
,
0001
0100
0001
0000
0100
0000
0010
0000
,
1000
0100
1000
0000
0100
0010
0100
0000
,
1000
0001
0000
0100
0000
0010
0000
0200
,
0000
0000
0300
0000
,
0001
0000
0000
0000
0001
0100
0001
0000
,
0010
1000
0010
0001
,
2000
0000
3010
0000
1000
0100
1000
0000
,
0010
0001
0010
1000
,
0001
0100
0001
0000
1000
0000
0010
0000
,
1000
0100
0010
0000
0001
0100
0010
0000
,
1000
0001
0000
0010
0000
0100
0000
0020
,
0000
0000
0030
0000
0100
0010
0100
0000
,
1001
0000
0000
0000
;

//---------------dance-single - ----------------
#NOTEDATA:;
#CHARTNAME:;
#STEPSTYPE:dance-single;
#DESCRIPTION:;
#CHARTSTYLE:;
#DIFFICULTY:Easy;
#METER:6;
#RADARVALUES:0.249292,0.327196,0.157956,0.105304,0.000000,232.000000,211.000000,21.000000,14.000000,0.000000,0.000000,0.000000,0.000000,0.000000,0.249292,0.327196,0.157956,0.105304,0.000000,232.000000,211.000000,21.000000,14.000000,0.000000,0.000000,0.000000,0.000000,0.000000;
#CREDIT:led_light;
#NOTES:
0000
0000
0000
0000
,
0000
0000
0000
0000
,
0000
0000
0000
0000
,
0000
0000
0000
0000
,
0000
0000
0000
0000
,
0000
0000
0000
0000
,
0000
0000
0000
0000
,
2000
0000
3100
0000
,
0002
0000
0103
0000
,
2000
0000
3010
0000
,
0002
0000
0013
0000
,
2000
0000
3100
0000
,
0020
0000
0130
0000
,
0002
0000
0013
0000
,
0200
0000
0310
0000
,
1000
0100
0010
0000
,
0001
0000
1000
0000
,
0001
0100
0001
0000
,
1000
0000
0110
0000
,
0001
0010
0100
0000
,
1000
0000
0001
0000
,
1000
0010
1000
0000
,
0001
0000
0110
0000
,
0001
0001
1100
0000
,
0010
0001
1010
0000
,
1000
0001
0010
0100
,
0010
0000
0000
0000
,
0001
0001
1010
0000
,
0100
0001
1100
0000
,
1000
0001
0100
0010
,
0100
0000
0000
0000
,
0001
0001
0010
0001
,
1000
0010
1000
0010
,
0100
0001
1000
1000
,
0110
0000
0000
0000
,
0001
0001
0100
0001
,
1000
0100
1000
0100
,
0010
0001
1000
1000
,
0110
0000
0000
0000
,
0001
0000
1000
0001
,
0100
0000
1001
0000
,
0100
0000
0010
0010
,
0100
0000
1001
0000
,
1000
0010
1000
0000
,
0001
0100
0001
0000
,
0010
0100
0010
0100
,
0020
0000
0030
0000
,
0001
0000
0011
0000
,
1000
0000
1100
0000
,
0010
0010
0001
0001
,
1000
0000
0000
0000
,
0001
0000
0101
0000
,
1000
0000
1010
0000
,
0100
0100
0001
0001
,
1000
0000
0000
0000
,
0001
0001
0001
0000
,
1000
1000
1000
0000
,
0100
0100
0100
0000
,
0010
0010
0010
0000
,
0002
0000
1003
0000
,
2000
0000
3100
0000
,
0010
0000
0000
0000
,
0200
0000
0300
0000
,
1000
1000
0011
0000
,
0100
1000
0101
0000
,
0001
1000
0100
0010
,
0100
0000
0000
0000
,
1000
1000
0101
0000
,
0010
1000
0011
0000
,
0001
1000
0010
0100
,
0010
0100
0000
0000
,
0001
0000
1000
0001
,
0010
0000
1001
0000
,
0010
0000
0100
0100
,
0010
0000
1001
0000
,
1000
0100
1000
0000
,
0001
0010
0001
0000
,
0100
0010
0100
0010
,
0200
0000
0300
0000
,
0001
0010
1000
0000
,
0001
0001
0001
0000
,
1000
0010
0001
0000
,
1000
1000
1000
0000
,
0001
0100
1000
0000
,
0001
0010
1000
0000
,
0100
0010
0100
0010
,
0200
0000
0310
0010
,
1001
0000
0000
0000
;

//---------------dance-single - ----------------
#NOTEDATA:;
#CHARTNAME:;
#STEPSTYPE:dance-single;
#DESCRIPTION:;
#CHARTSTYLE:;
#DIFFICULTY:Beginner;
#METER:2;
#RADARVALUES:0.097783,0.163598,0.007522,0.090261,0.000000,91.000000,90.000000,1.000000,12.000000,0.000000,0.000000,0.000000,0.000000,0.000000,0.097783,0.163598,0.007522,0.090261,0.000000,91.000000,90.000000,1.000000,12.000000,0.000000,0.000000,0.000000,0.000000,0.000000;
#CREDIT:led_light;
#NOTES:
0000
0000
0000
0000
,
0000
0000
0000
0000
,
0000
0000
0000
0000
,
0000
0000
0000
0000
,
0000
0000
0000
0000
,
0000
0000
0000
0000
,
0000
0000
0000
0000
,
2000
0000
3000
0000
,
2000
0000
3000
0000
,
0002
0000
0003
0000
,
0002
0000
0003
0000
,
2000
0000
0000
0000
,
3000
0000
0000
0000
,
0020
0000
0000
0000
,
0030
0000
0000
0000
,
1000
0000
0000
0000
,
1000
0000
0000
0000
,
0100
0000
0000
0000
,
0010
0000
0000
0000
,
0002
0000
0000
0000
,
0003
0000
0000
0000
,
0200
0000
0000
0000
,
0300
0000
0000
0000
,
0001
0000
0000
0000
,
0001
0000
0000
0000
,
1000
0000
0100
0000
,
1000
0000
0000
0000
,
0010
0000
0000
0000
,
0010
0000
0000
0000
,
0100
0000
0001
0000
,
0100
0000
0000
0000
,
0001
0000
0001
0000
,
0001
0000
0000
0000
,
1000
0000
1000
0000
,
0010
0000
0000
0000
,
1000
0000
1000
0000
,
1000
0000
0000
0000
,
0001
0000
0001
0000
,
0010
0000
0000
0000
,
0100
0000
0000
0000
,
0100
0000
0000
0000
,
0010
0000
0000
0000
,
0010
0000
0000
0000
,
0001
0000
0000
0000
,
1000
0000
0000
0000
,
0001
0000
0100
0000
,
0002
0000
0003
0000
,
1000
0000
0000
0000
,
1000
0000
0000
0000
,
0001
0000
1000
0000
,
0001
0000
0000
0000
,
0010
0000
0000
0000
,
0010
0000
0000
0000
,
0100
0000
0010
0000
,
0100
0000
0000
0000
,
1000
0000
0000
0000
,
1000
0000
0000
0000
,
0010
0000
0000
0000
,
0010
0000
0000
0000
,
0001
0000
0000
0000
,
1000
0000
0000
0000
,
0100
0000
0000
0000
,
0200
0000
0300
0000
,
0001
0000
0000
0000
,
0001
0000
0000
0000
,
1000
0000
0100
0000
,
1000
0000
0000
0000
,
0010
0000
0000
0000
,
0010
0000
0000
0000
,
0100
0000
0001
0000
,
0100
0000
0000
0000
,
0010
0000
0000
0000
,
0010
0000
0000
0000
,
0100
0000
0000
0000
,
0100
0000
0000
0000
,
0001
0000
0000
0000
,
1000
0000
0000
0000
,
0001
0000
0010
0000
,
0002
0000
0003
0000
,
1000
0000
0000
0000
,
0001
0000
0000
0000
,
0100
0000
0000
0000
,
0010
0000
0000
0000
,
1000
0000
0000
0000
,
0001
0000
0000
0000
,
0010
0000
0100
0000
,
0020
0000
0030
0000
,
1001
0000
0000
0000
;

//---------------dance-single - FNF Hard----------------
#NOTEDATA:;
#CHARTNAME:;
#STEPSTYPE:dance-single;
#DESCRIPTION:FNF Hard;
#CHARTSTYLE:;
#DIFFICULTY:Edit;
#METER:12;
#RADARVALUES:0.421217,0.556233,0.000000,0.902609,0.060174,392.000000,392.000000,0.000000,120.000000,0.000000,0.000000,0.000000,0.000000,0.000000,0.421217,0.556233,0.000000,0.902609,0.060174,392.000000,392.000000,0.000000,120.000000,0.000000,0.000000,0.000000,0.000000,0.000000;
#CREDIT:led_light (FNF Hard);
#NOTES:
// measure 0
0000
0000
0000
0000
,  // measure 1
0000
0000
0000
0000
,  // measure 2
0000
0000
0000
0000
,  // measure 3
0000
0000
0000
0000
,  // measure 4
0000
0000
0000
0000
,  // measure 5
0000
0000
0000
0000
,  // measure 6
0000
0000
0000
0000
,  // measure 7
0000
0000
0000
0000
2000
3000
0000
0000
0020
0030
0000
0000
0002
0003
0000
0000
,  // measure 8
2000
0000
0000
0000
0000
0000
0000
3000
0020
0000
0000
0000
0030
0000
0000
0000
,  // measure 9
0000
0000
0000
0000
2000
3000
0000
0000
0020
0030
0000
0000
0002
0003
0000
0000
,  // measure 10
0100
0000
0000
0000
0000
0000
0010
0000
0002
0003
0000
0000
0020
0030
0000
0000
,  // measure 11
0200
0000
0000
0000
2000
3000
0000
0000
0320
0030
0000
0000
0002
0003
0000
0000
,  // measure 12
2000
0000
0000
0000
0000
0000
0000
3000
0020
0000
0000
0000
0000
0000
0000
0000
,  // measure 13
0030
0000
0000
0000
2000
3000
0000
0000
0020
0030
0000
0000
0002
0003
0000
0000
,  // measure 14
0100
0000
0000
0000
0000
0000
0010
0000
0002
0003
0000
0000
0020
0030
0000
0000
,  // measure 15
0200
0300
0000
0000
0002
0003
0000
0000
0020
0030
0000
0000
0002
0003
0000
0000
,  // measure 16
0200
0000
0000
0000
0300
0000
1000
0010
1000
0000
0001
0000
1000
0000
0100
0000
,  // measure 17
0002
0003
0000
0000
0010
0000
1000
0000
0010
0000
1000
0000
0010
0000
1000
0000
,  // measure 18
0200
0000
0300
0010
0001
0010
1000
0000
,  // measure 19
0200
0300
0000
0000
0002
0003
0000
0000
0020
0030
0000
0000
0002
0003
0000
0000
,  // measure 20
0200
0000
0000
0000
0300
0000
1000
0010
1000
0000
0001
0000
1000
0000
0100
0000
,  // measure 21
0002
0003
0000
0000
0010
0000
1000
0000
0010
0000
1000
0000
0010
0000
1000
0000
,  // measure 22
0200
0000
0000
0000
0300
0000
0010
0000
0001
0000
0010
0000
2000
3000
0000
0000
,  // measure 23
0000
0000
0001
0001
0010
0000
0100
0000
2000
3000
0000
0000
0000
0000
0002
0003
,  // measure 24
0000
0000
0000
0000
0020
0030
0000
0000
2000
3000
0000
0000
0000
0000
0000
0000
,  // measure 25
0000
0000
0001
0000
0010
0000
0100
0000
2000
3000
0000
0000
0200
0300
0000
0000
,  // measure 26
2000
3000
0000
0000
0000
0000
0000
0000
0000
0000
0000
0000
0000
0000
0000
0000
,  // measure 27
0000
0000
0001
0001
0010
0000
0100
0000
2000
3000
0000
0000
0000
0000
0002
0003
,  // measure 28
0000
0000
0000
0000
0020
0030
0000
0000
2000
3000
0000
0000
0000
0000
0000
0000
,  // measure 29
0000
0000
0001
0000
0010
0000
0100
0000
2000
3000
0000
0000
0200
0300
0000
0000
,  // measure 30
2000
3000
0000
0000
0000
0000
0000
0000
0000
0000
0000
0000
0000
0000
0000
0000
,  // measure 31
2000
3000
0000
0000
0200
0300
0000
0000
0010
0000
0001
0000
0010
0000
0001
0000
,  // measure 32
0200
0300
0000
0000
1000
0000
0000
0000
0001
0000
0000
0000
0100
0000
0000
0000
,  // measure 33
0020
0030
0000
0000
1000
0000
0000
0000
0001
0000
1000
1000
0001
0000
1000
0000
,  // measure 34
0000
0010
0010
0010
0000
0000
0000
0000
,  // measure 35
2000
3000
0000
0000
0200
0300
0000
0000
0010
0000
0001
0000
0010
0000
0001
0000
,  // measure 36
0200
0300
0000
0000
1000
0000
0000
0000
0001
0000
0000
0000
0100
0000
0000
0000
,  // measure 37
0010
0000
0000
0000
1000
0000
0000
0000
0001
0000
1000
1000
0001
0000
1000
0000
,  // measure 38
0000
0010
0000
0010
0010
0000
0000
0000
,  // measure 39
0000
0000
0010
0000
0000
0000
0010
0001
0010
0000
1000
0000
0010
0000
0001
0000
,  // measure 40
0100
0000
1000
0000
0002
0003
0000
0000
0010
0000
0001
0000
2000
3000
0000
0000
,  // measure 41
0000
0000
0010
0000
0000
0000
0010
0001
0010
0000
1000
0000
0010
0000
0001
0000
,  // measure 42
0100
0000
1000
0000
0002
0003
0000
0000
0010
0000
0001
0000
2000
3000
0000
0000
,  // measure 43
0001
0000
0001
0000
0200
0300
0000
0000
1000
0000
0000
0000
2000
3000
0000
0000
,  // measure 44
0001
0000
0001
0000
0200
0300
0000
0000
1000
0000
1000
0000
2000
3000
0000
0000
,  // measure 45
1000
0100
0000
0001
0000
0010
0000
0200
,  // measure 46
0000
0000
0000
0300
0000
0000
0000
0000
,  // measure 47
0000
0000
1000
1000
0001
0000
0000
0000
0100
0000
1000
0000
0010
0000
0001
0000
,  // measure 48
0000
0000
0010
0001
0100
0000
1000
0000
0010
0000
0001
0000
1000
0000
0001
0000
,  // measure 49
0020
0030
0000
0000
2000
3000
0000
0000
0002
0003
0000
0000
1000
0000
0200
0000
,  // measure 50
0000
0300
0000
1000
0001
1000
0001
0000
,  // measure 51
0000
0000
1000
1000
0001
0000
0000
0000
0100
0000
1000
0000
0010
0000
0001
0000
,  // measure 52
0000
0000
0010
0001
0100
0000
1000
0000
0010
0000
0001
0000
1000
0000
0001
0000
,  // measure 53
0020
0030
0000
0000
2000
3000
0000
0000
0002
0003
0000
0000
1000
0000
0200
0000
,  // measure 54
0000
0300
0000
1000
0001
1000
0001
0000
,  // measure 55
0100
0100
0001
0001
1000
0001
0010
0001
,  // measure 56
0100
0100
0001
0001
1000
0001
0010
0001
,  // measure 57
0010
0001
0010
1000
0010
0001
0010
1000
,  // measure 58
0010
0001
0010
1000
0010
0001
0010
1000
,  // measure 59
0002
0003
0000
0000
1000
0000
0200
0300
1000
0000
0001
0000
0002
0003
0000
0000
,  // measure 60
0200
0300
0000
0000
0001
0000
0000
0000
0001
0000
1000
0000
0020
0030
0000
0000
,  // measure 61
0200
0300
0000
0000
0000
0000
0001
0000
0000
0000
0000
0000
0001
0000
0000
0000
,  // measure 62
0020
0000
0000
0000
0000
0030
0000
0000
2000
0000
0000
0000
0000
3000
0000
0000
,  // measure 63
0000
0000
0001
0001
0010
0000
0100
0000
2000
3000
0000
0000
0000
0000
0002
0003
,  // measure 64
0000
0000
0000
0000
0020
0030
0000
0000
2000
3000
0000
0000
0001
0000
0000
0000
,  // measure 65
0000
0000
0001
0000
0010
0000
0100
0000
2000
3000
0000
0000
0200
0300
0000
0000
,  // measure 66
2000
3000
0000
0000
0000
0000
0000
0000
0000
0000
0000
0000
0000
0000
0000
0000
,  // measure 67
0000
0000
0001
0001
0010
0000
0100
0000
2000
3000
0000
0000
0000
0000
0002
0003
,  // measure 68
0000
0000
0000
0000
0020
0030
0000
0000
2000
3000
0000
0000
2000
3000
0000
0000
,  // measure 69
0000
0000
0001
0000
0010
0000
0100
0000
2000
3000
0000
0000
0200
0300
0000
0000
,  // measure 70
0200
0300
0000
0000
0002
0003
0000
0000
0000
0000
0000
0000
0000
0000
0000
0000
,  // measure 71
0000
0000
0010
0000
0000
0000
0010
0001
0010
0000
1000
0000
0010
0000
0001
0000
,  // measure 72
0100
0000
1000
0000
0002
0003
0000
0000
0010
0000
0001
0000
2000
3000
0000
0000
,  // measure 73
0000
0000
0010
0000
0000
0000
0010
0001
0010
0000
1000
0000
0010
0000
0001
0000
,  // measure 74
0100
0000
1000
0000
0002
0003
0000
0000
0010
0000
0001
0000
2000
3000
0000
0000
,  // measure 75
0001
0000
0001
0000
0200
0300
0000
0000
1000
0000
0000
0000
2000
3000
0000
0000
,  // measure 76
0001
0000
0001
0000
0200
0300
0000
0000
1000
0000
1000
0000
2000
3000
0000
0000
,  // measure 77
1000
0100
0000
0001
0000
0010
0000
0200
,  // measure 78
0000
0000
0000
0300
0000
0000
0000
0000
,  // measure 79
0000
1000
0000
0001
0100
1000
0010
0001
,  // measure 80
0020
0030
0000
0000
0002
0003
0000
0000
2000
3000
0000
0000
0002
0003
0000
0000
,  // measure 81
0020
0000
1000
0000
0000
0000
0001
0030
0100
0000
1000
0000
0010
0000
0001
0000
,  // measure 82
0020
0030
0000
0000
0002
0003
0000
0000
2000
3000
0000
0000
0002
0000
0000
0000
,  // measure 83
0100
0000
0003
0000
0001
0000
0001
0000
0020
0030
0000
0000
2000
3000
0000
0000
,  // measure 84
0010
0000
0001
0000
0200
0300
0000
0000
0001
0000
1000
0000
1000
0000
0000
0000
,  // measure 85
1000
0100
0000
0001
0000
0010
0000
0200
,  // measure 86
0000
0300
0000
0000
1000
0001
1000
0100
,  // measure 87
0010
0000
0000
0000
;
