#TITLE:Winter Horrorland;
#SUBTITLE:[B-Side Remix];
#ARTIST:Rozebud;
#TITLETRANSLIT:;
#SUBTITLETRANSLIT:;
#ARTISTTRANSLIT:;
#GENRE:Friday Night Funkin';
#CREDIT:;
#BANNER:Winter Horrorland [B-Side Remix].png;
#BACKGROUND:../bg.png;
#LYRICSPATH:;
#CDTITLE:../cdtitle.png;
#MUSIC:Winter Horrorland [B-Side Remix].ogg;
#OFFSET:1.395000;
#SAMPLESTART:8.724000;
#SAMPLELENGTH:15.000000;
#LASTBEATHINT:1.092833;
#SELECTABLE:YES;
#BPMS:0.000000=166.000000
;
#STOPS:
;
#BGCHANGES: -1.000=Winter Horrorland [B-Side Remix].avi=1.000=0=0=0=StretchNoLoop====,
99999=-nosongbg-=1.000=0=0=0 // don't automatically add -songbackground-
;
#KEYSOUNDS:;
#ATTACKS:;

//---------------dance-single - FNF Hard----------------
#NOTES:
     dance-single:
     :
     Edit:
     13:
     0.490457,0.643821,0.000000,0.598091,0.100976,442.000000,442.000000,0.000000,77.000000,0.000000,0.000000,0.490457,0.643821,0.000000,0.598091,0.100976,442.000000,442.000000,0.000000,77.000000,0.000000,0.000000:
0000
0000
0000
0000
,
0000
0000
0000
0000
,
0000
0000
0000
0000
,
0000
0000
0000
0000
,
0000
0000
0000
0000
,
0000
0000
0000
0000
,
0000
0000
0000
0000
,
0000
0100
1000
0001
,
0020
0000
0230
0000
,
0300
0001
1000
0010
,
1000
0000
0000
0100
0001
0000
0010
0000
,
1000
0100
1000
0001
,
0020
0000
2030
0000
,
3000
0100
1000
0001
,
1000
0000
0000
0000
0010
0000
0000
0000
1000
0000
1000
0000
0001
0000
0010
0001
,
0010
0001
1000
0001
,
0200
0000
0000
0000
0300
0000
0001
1000
0001
0000
0100
0000
0010
0000
0100
0000
,
1000
0000
0001
1000
0001
1000
0001
1000
,
0200
0000
0000
0000
0000
0000
0000
0000
0000
0300
0000
0000
0000
0000
0000
0000
0000
0000
0100
0000
0000
0000
0000
0000
0001
0000
0000
0000
0000
0000
0010
0000
0000
0000
0000
0000
2000
0000
0000
0000
0000
0000
0000
0000
3000
0000
0000
0000
,
0010
0001
0100
0000
1000
0000
0100
0010
,
0000
0000
0010
0000
0000
0000
0100
0001
0100
0000
0010
0000
1000
0000
0001
0000
,
0100
0000
0100
0000
0010
0000
0100
0000
0000
0000
1000
0000
0002
0000
0000
0003
,
0020
0000
0000
0030
0000
0000
2000
0000
0000
3000
0000
0000
0002
0000
0000
0003
,
0200
0000
0000
0000
0000
0000
1000
0000
0300
0001
0000
0000
0010
0000
0000
0000
0000
0000
0100
0000
0000
0000
0000
0000
2000
0000
0000
0000
0000
0000
0000
0000
3000
0000
0000
0000
0000
0000
0000
0000
0000
0000
0001
0000
0000
0000
0000
0000
,
0000
0100
1000
0010
,
0000
0100
0001
1000
0010
0000
0100
0000
,
2000
0000
3000
0000
0000
0000
0000
0000
0000
0000
0000
0000
,
0000
0000
0100
0001
0100
0000
0010
0000
1000
0000
0010
0000
1000
0000
0200
0000
,
0300
0000
0000
0100
0000
0000
0010
0000
0000
0010
0000
0000
2000
0000
0000
0000
3000
0000
0002
0000
0000
0003
0000
0000
,
0000
0000
0100
0001
0100
0000
0010
0000
1000
0000
0100
0000
0001
0000
2000
0000
,
0000
3000
0000
0000
0000
0000
0000
0000
0000
0000
0000
0000
0000
0000
0000
0000
0000
0000
0000
0000
0000
0000
0000
0000
,
1000
0000
0001
0000
0010
1000
0010
1000
,
0200
0000
0000
0000
0300
0000
0010
0000
0000
0010
0000
0000
0001
0000
0000
1000
0000
0000
0020
0000
0000
0000
0030
0000
,
1000
0000
0010
0000
0001
0100
0001
0100
,
0000
0010
1000
0000
0010
0000
0000
0000
,
0010
0000
0000
0000
0100
0010
0100
0000
1000
0000
0000
0000
0010
0000
0200
0000
,
0000
0300
0000
1000
0000
0000
0002
0000
0000
0000
0003
0000
0010
0000
0000
1000
0000
0000
0020
0000
0000
0000
0030
0000
,
0100
0100
0001
0100
1000
0010
0100
0001
,
0000
0000
0000
0001
0000
0000
0000
0000
0000
1000
0000
0000
0020
0000
0000
0000
0030
0000
0200
0000
0000
0000
0300
0000
,
0020
0000
0000
0000
0000
0000
0001
0000
0030
0000
0000
0000
0000
0000
0000
0000
0000
0000
0100
0000
0000
1000
0000
0000
0001
0000
0000
0000
0000
0000
0010
0000
0000
0000
0000
0000
1000
0000
0000
0000
0000
0000
0100
0000
0000
0000
0000
0000
,
1000
0000
0000
0100
0000
0000
0010
0000
0000
0100
0000
0000
1000
0000
0000
0001
0000
0000
0020
0000
0000
0000
0030
0000
,
0000
0000
0010
0010
0000
0000
0010
0001
1000
0000
0100
0000
0010
0000
0001
0000
,
0010
0000
0000
0000
0001
0001
0100
0000
0000
0000
0001
0100
1000
0000
0000
0000
,
0100
0000
0000
1000
0000
0000
0001
0000
0000
0000
0000
0000
2000
0000
0000
0000
3000
0000
0020
0000
0000
2000
0030
0000
,
0000
3000
0000
0100
0000
0000
0002
0000
0000
0000
0003
0000
0010
0000
0000
1000
0000
0000
0002
0000
0000
0000
0003
0000
,
0001
0000
0000
0100
0000
0000
0000
0000
0000
2000
0000
0000
0000
3000
0000
0020
0000
0000
0000
0030
0000
2000
0000
0000
,
0000
3001
0000
0100
0010
0001
0100
1000
,
0020
0000
0000
0000
0000
0000
0001
0000
0030
1000
0000
0000
0010
0000
0000
0000
0000
0000
0000
0000
0000
0000
0000
0000
0001
0000
0000
0000
0000
0000
1000
0000
0000
0000
0000
0000
0100
0000
0000
0000
0000
0000
2000
0000
0000
0000
0000
0000
,
0000
3000
0000
1000
0000
0000
0001
0000
0000
0100
0000
0000
1000
0000
0000
0010
0000
0000
0001
0000
0000
1000
0000
0000
,
0010
0000
0100
0000
1000
0000
0001
0200
,
0000
0300
0000
0010
0001
0100
1000
0000
,
0000
0000
0100
1000
0001
0000
0001
0000
0100
0000
1000
0000
0010
0000
0100
0000
,
0000
0000
0100
0001
1000
0000
0100
0000
0001
0000
0100
0000
0010
0000
1000
0000
,
0010
0000
0000
0010
0000
0000
1000
0000
0000
0000
0000
0000
0001
0000
0000
0000
0000
0000
0100
0000
0000
0000
0000
0000
2000
0000
0000
0000
0000
0000
0000
0000
3000
0000
0000
0000
0010
0000
0000
0000
0000
0000
0200
0000
0000
0000
0000
0000
,
0000
0300
0000
0100
0010
1000
0001
0000
,
1000
0010
0001
0100
0001
0001
1000
0010
,
0100
0000
0100
0000
0100
0000
0100
0000
0010
0000
0010
0000
1000
0000
0001
0001
,
0100
1000
0100
0010
0001
0100
1000
0010
,
1000
0001
0010
1000
0100
0001
0100
1000
,
0002
0000
0000
0000
0003
0000
1000
0000
0000
0002
0000
0000
0000
0003
0000
0010
0000
0000
1000
0000
0000
0010
0000
0000
,
0001
1000
0200
0010
,
0320
0000
0000
0000
0000
0000
0000
0030
0000
2000
0000
0000
0000
0000
0000
0000
3000
0000
0002
0000
0000
0000
0003
0000
,
0020
0000
0230
0000
,
0300
0000
0000
0000
0000
0000
1000
0000
0000
0001
0000
0000
0010
0000
0000
0000
0000
0000
0100
0000
0000
0000
0000
0000
2000
0000
0000
0000
0000
0000
0000
0000
3000
0000
0000
0000
0000
0000
0000
0000
0000
0000
0001
0000
0000
0000
0000
0000
,
0000
0100
1000
0010
,
0000
0100
0001
1000
0010
0000
0100
0000
,
2000
0000
3000
0000
0000
0000
0000
0000
0000
0000
0000
0000
,
0000
0000
0100
0001
0100
0000
0010
0000
1000
0000
0010
0000
1000
0000
0200
0000
,
0300
0000
0000
0100
0000
0000
0010
0000
0000
0010
0000
0000
2000
0000
0000
0000
3000
0000
0002
0000
0000
0003
0000
0000
,
0000
0000
0100
0001
0100
0000
0010
0000
1000
0000
0100
0000
0001
0000
2000
0000
,
0000
3000
0000
0000
0000
0000
0000
0000
0000
0000
0000
0000
0000
0000
0000
0000
0000
0000
0000
0000
0000
0000
0000
0000
,
0000
0000
0001
0000
0000
0000
0100
1000
0001
0000
0010
0000
1000
0000
0100
0000
,
1000
0000
0000
0100
0000
0000
0010
0000
0000
0100
0000
0000
1000
0000
0000
0001
0000
0000
0020
0000
0000
0000
0030
0000
,
0000
0000
0010
0010
0000
0000
0010
0001
1000
0000
0100
0000
0010
0000
0001
0000
,
0010
0000
0000
0000
0001
0001
0100
0000
0000
0000
0001
0100
1000
0000
0000
0000
,
0100
0000
0000
1000
0000
0000
0001
0000
0000
0000
0000
0000
2000
0000
0000
0000
3000
0000
0020
0000
0000
2000
0030
0000
,
0000
3000
0000
0100
0000
0000
0002
0000
0000
0000
0003
0000
0010
0000
0000
1000
0000
0000
0002
0000
0000
0000
0003
0000
,
0001
0000
0000
0100
0000
0000
0000
0000
0000
2000
0000
0000
0000
3000
0000
0020
0000
0000
0000
0030
0000
2000
0000
0000
,
0000
3001
0000
0100
0010
0001
0100
1000
,
0020
0000
0000
0100
0030
0000
0000
0000
0000
1000
0000
0000
0001
0000
0000
1000
0000
0000
0010
0000
0000
1000
0000
0000
,
0020
0000
0030
0200
0000
0300
2000
0000
3000
0002
0000
0003
,
0010
0000
0000
0000
0100
0100
1000
0000
0100
0000
0000
0000
0010
0000
1000
0000
,
0001
0000
0000
0100
0000
0000
0002
0000
0000
0000
0003
0000
0100
0000
0000
1000
0000
0000
0020
0000
0000
0000
0030
0000
,
0001
0000
0000
1000
0000
0000
0010
0000
0000
1000
0000
0000
0200
0000
0000
0000
0300
0000
0002
0000
0000
2000
0003
0000
,
0000
3000
0000
0100
0000
0000
0002
0000
0000
0000
0003
0000
0010
0000
0000
1000
0000
0000
0002
0000
0000
0000
0003
0000
,
0100
0001
0000
0010
0000
0001
0000
2000
,
0000
0001
0000
3100
0010
0001
0100
1000
,
0020
0030
0000
0000
;

//---------------dance-single - ----------------
#NOTES:
     dance-single:
     :
     Beginner:
     2:
     0.097647,0.135541,0.000000,0.069907,0.000000,88.000000,88.000000,0.000000,9.000000,0.000000,0.000000,0.097647,0.135541,0.000000,0.069907,0.000000,88.000000,88.000000,0.000000,9.000000,0.000000,0.000000:
0000
0000
0000
0000
,
0000
0000
0000
0000
,
0000
0000
0000
0000
,
0000
0000
0000
0000
,
0000
0000
0000
0000
,
0000
0000
0000
0000
,
0000
0000
0000
0000
,
2000
0000
0000
0000
,
3000
0000
0000
0000
,
0002
0000
0000
0000
,
0003
0000
0000
0000
,
0200
0000
0000
0000
,
0300
0000
0000
0000
,
0020
0000
0000
0000
,
0030
0000
0000
0000
,
1000
0000
0000
0000
,
0100
0000
0000
0000
,
0001
0000
0000
0000
,
0100
0000
0000
0000
,
1000
0000
0000
0000
,
0010
0000
0000
0000
,
0001
0000
0000
0000
,
0010
0000
0000
0000
,
0010
0000
0000
0000
,
1000
0000
0000
0000
,
0100
0000
0000
0000
,
1000
0000
0000
0000
,
0010
0000
0000
0000
,
0001
0000
0000
0000
,
0100
0000
0000
0000
,
0001
0000
0000
0000
,
1000
0000
1000
0000
,
1000
0000
0000
0000
,
0010
0000
0010
0000
,
0000
0000
0000
0000
,
0001
0000
0001
0000
,
0001
0000
0000
0000
,
0100
0000
0200
0000
,
0300
0000
0000
0000
,
0010
0000
0000
0000
,
0010
0000
0000
0000
,
0100
0000
0000
0000
,
0100
0000
0000
0000
,
0001
0000
0001
0000
,
0001
0000
0000
0000
,
1000
0000
1000
0000
,
1000
0000
0000
0000
,
0001
0000
0000
0000
,
0001
0000
0000
0000
,
0100
0000
0200
0000
,
0300
0000
0000
0000
,
1000
0000
0000
0000
,
1000
0000
0000
0000
,
0010
0000
0020
0000
,
0030
0000
0000
0000
,
1000
0000
0000
0000
,
1000
0000
0000
0000
,
0001
0000
0000
0000
,
0001
0000
0000
0000
,
1000
0000
0000
0000
,
0001
0000
0000
0000
,
0010
0000
0010
0000
,
0200
0000
0300
0000
,
0010
0000
0000
0000
,
0001
0000
0000
0000
,
0100
0000
0000
0000
,
0001
0000
0000
0000
,
0010
0000
0000
0000
,
1000
0000
0000
0000
,
0100
0000
0000
0000
,
1000
0000
0000
0000
,
0010
0000
0000
0000
,
0010
0000
0000
0000
,
0100
0000
0000
0000
,
0100
0000
0000
0000
,
0001
0000
0001
0000
,
0001
0000
0000
0000
,
1000
0000
1000
0000
,
1000
0000
0000
0000
,
0001
0000
1000
0000
,
0001
0000
0000
0000
,
0100
0000
0010
0000
,
0100
0000
0000
0000
,
0001
0000
0001
0000
,
0001
0000
0000
0000
,
1000
0000
1000
0000
,
1000
0000
0000
0000
,
0002
0003
0000
0000
;

//---------------dance-single - ----------------
#NOTES:
     dance-single:
     :
     Hard:
     12:
     0.492676,0.643821,0.139813,0.481580,0.019419,444.000000,426.000000,18.000000,62.000000,0.000000,0.000000,0.492676,0.643821,0.139813,0.481580,0.019419,444.000000,426.000000,18.000000,62.000000,0.000000,0.000000:
// measure 0
0000
0000
0000
0000
,  // measure 1
0000
0000
0000
0000
,  // measure 2
0000
0000
0000
0000
,  // measure 3
0000
0000
0000
0000
,  // measure 4
0000
0000
0000
0000
,  // measure 5
0000
0000
0000
0000
,  // measure 6
0000
0000
0000
0000
,  // measure 7
0000
0001
0100
0010
,  // measure 8
2000
0000
3200
0000
,  // measure 9
0300
1000
0100
0010
,  // measure 10
0001
0000
0000
0100
0001
0000
0001
0000
,  // measure 11
1000
0001
0010
0100
,  // measure 12
2000
0000
3020
0000
,  // measure 13
0030
1000
0010
0100
,  // measure 14
0001
0000
0000
0000
0010
0000
0000
0000
0001
0000
0100
0000
0001
0000
0100
0010
,  // measure 15
0100
0010
1000
0001
,  // measure 16
0200
0000
0300
0001
1000
0001
1000
0100
,  // measure 17
1000
0000
0001
0010
0001
0010
1000
0010
,  // measure 18
0002
0000
0003
0010
0100
0010
0100
0000
,  // measure 19
0010
0000
0100
0000
1000
0000
0001
0100
,  // measure 20
0000
0100
0000
0010
1000
0010
1000
0100
,  // measure 21
0010
0001
0100
0100
0000
0100
1000
0000
,  // measure 22
0200
0000
0301
0020
0000
0130
0020
0000
,  // measure 23
0031
0100
0010
0000
1010
0000
0000
0002
,  // measure 24
0000
0013
0100
0000
1100
0000
0000
0000
,  // measure 25
0001
0100
0001
0100
0010
0000
1000
0000
,  // measure 26
1100
0000
0000
0000
,  // measure 27
1000
0100
0010
0000
0010
0100
1000
0020
,  // measure 28
0030
0010
0100
0000
0200
0000
0302
0000
,  // measure 29
1003
0100
1000
0100
0010
0100
1000
0002
,  // measure 30
0000
0003
0000
0000
0000
0000
0000
0000
,  // measure 31
0100
0000
0001
0000
1000
0010
0100
0010
,  // measure 32
2000
0000
3200
0000
0310
0100
1000
0000
,  // measure 33
2000
0000
3002
0000
0103
0010
1000
0010
,  // measure 34
0000
0100
0001
0000
1100
0000
0000
0000
,  // measure 35
0001
0000
0100
0001
0101
0000
1000
0200
,  // measure 36
0000
1300
0020
0000
1030
0100
0020
0000
,  // measure 37
0031
0001
0100
0001
1000
0001
0100
0010
,  // measure 38
0000
1000
0100
0010
0002
0000
2003
0000
,  // measure 39
3002
0100
0003
0100
0001
0100
0010
0100
,  // measure 40
0001
1000
0010
0000
0001
0010
1000
0000
,  // measure 41
0001
0010
0000
0010
0001
0010
0100
0010
,  // measure 42
0001
0000
1000
0100
0000
0001
0100
0000
,  // measure 43
1000
0100
1000
0000
0110
0000
0001
2000
,  // measure 44
0000
3100
0020
0000
0031
0100
0020
0000
,  // measure 45
1030
0100
0000
0001
0000
0010
0000
2010
,  // measure 46
0000
0010
0000
3001
0010
0100
1000
0001
,  // measure 47
1000
0000
0100
0010
0100
0000
0000
0000
0001
0000
0100
0000
0001
0000
0200
0000
,  // measure 48
0000
1300
0010
1000
0001
0010
1000
0010
,  // measure 49
0002
0000
0023
0000
2030
0000
3001
1000
,  // measure 50
0000
0000
0000
0010
0100
0010
0100
0000
,  // measure 51
1000
0000
0010
0100
0010
0000
0010
0000
0100
0000
0010
0000
1000
0000
0001
0000
,  // measure 52
0000
0000
1000
0100
1000
0000
0001
0000
1000
0000
0010
0000
0001
0000
0010
0000
,  // measure 53
1000
0010
1000
0000
0010
0000
0100
0000
0002
0000
0000
0000
1003
0000
0002
0000
,  // measure 54
0000
0000
0003
0010
0100
0010
0100
0000
,  // measure 55
1000
0001
1000
0001
0010
0100
1000
0001
,  // measure 56
0100
0010
0100
0010
1000
0001
0100
0010
,  // measure 57
1000
0001
1000
0001
0010
1000
0010
0001
,  // measure 58
0100
0010
0100
0010
0001
1000
0100
0010
,  // measure 59
2000
0000
3100
0001
0100
1000
0100
0000
,  // measure 60
1000
1000
0110
1000
,  // measure 61
0010
0000
1000
0100
0000
0010
0001
0000
,  // measure 62
2200
3300
0202
0303
,  // measure 63
0001
0100
0010
0000
1010
0000
0000
0002
,  // measure 64
0000
0013
0100
0000
1100
0000
0000
0000
,  // measure 65
0001
0100
0001
0100
0010
0000
1000
0000
,  // measure 66
1100
0000
0000
0000
,  // measure 67
1000
0100
0010
0000
0010
0100
1000
0020
,  // measure 68
0030
0010
0100
0000
0200
0000
0302
0000
,  // measure 69
1003
0100
1000
0100
0010
0100
1000
0002
,  // measure 70
0000
0003
0000
0000
0000
0000
0000
0000
,  // measure 71
2000
0010
3000
0010
1000
0010
0100
0010
,  // measure 72
1000
0001
0100
0000
1000
0100
0001
0000
,  // measure 73
1000
0100
0000
0100
1000
0100
0010
0100
,  // measure 74
1000
0000
0001
0010
0000
1000
0010
0000
,  // measure 75
0001
0010
0001
0000
0110
0000
1000
0002
,  // measure 76
0000
0013
0200
0000
1300
0010
0200
0000
,  // measure 77
0301
0010
0000
1000
0000
0100
0000
0102
,  // measure 78
0000
0100
0000
1003
0100
0010
0001
1000
,  // measure 79
0002
0100
0003
0100
0001
0100
0010
1000
,  // measure 80
0002
0023
2030
3200
,  // measure 81
0302
0000
0013
0001
0101
0000
0100
0010
,  // measure 82
0010
0010
2000
0000
3001
0100
0020
0000
,  // measure 83
1030
0100
1000
0000
0110
0000
0001
2000
,  // measure 84
0000
3100
0020
0000
0031
0100
0020
0000
,  // measure 85
1030
0100
0000
0001
0000
0010
0000
2010
,  // measure 86
0000
0010
0000
3001
0010
0100
1000
0001
,  // measure 87
2000
3000
0000
0000
;

//---------------dance-single - ----------------
#NOTES:
     dance-single:
     :
     Easy:
     6:
     0.276298,0.304968,0.085442,0.116511,0.000000,249.000000,238.000000,11.000000,15.000000,0.000000,0.000000,0.276298,0.304968,0.085442,0.116511,0.000000,249.000000,238.000000,11.000000,15.000000,0.000000,0.000000:
0000
0000
0000
0000
,
0000
0000
0000
0000
,
0000
0000
0000
0000
,
0000
0000
0000
0000
,
0000
0000
0000
0000
,
0000
0000
0000
0000
,
0000
0000
0000
0000
,
0000
1000
0001
0100
,
0020
0000
2030
0000
,
3000
1000
0100
1000
,
0100
0000
0001
0100
,
1000
0001
1000
0100
,
0020
0000
0032
0000
,
0003
0001
0100
0001
,
0100
0100
1000
0100
,
0001
0010
1000
0000
,
0020
0030
0010
0000
,
0001
0100
0010
0000
,
2000
0000
3001
0000
,
1000
0100
0001
0000
,
0200
0300
0100
0000
,
1000
0010
0100
0000
,
0002
0003
2000
3000
,
1001
0100
0010
0000
,
1000
1000
0001
0000
,
1000
0010
0001
0100
,
1000
0000
0000
0000
,
0100
0100
0010
0000
,
0001
0001
1000
0000
,
0001
0010
1000
0100
,
0001
0000
0000
0000
,
1000
0100
0001
0100
,
2000
0000
3100
0000
,
1000
0010
0001
0010
,
0000
0100
0100
0000
,
0001
0010
1000
0010
,
0001
0010
0010
0000
,
0001
0100
1000
0100
,
0000
0010
0010
0100
,
0002
0003
1001
0000
,
0010
0100
1000
0100
,
0010
0000
0110
0000
,
1000
0001
0100
0001
,
1000
1000
0100
0000
,
0001
0001
0100
0000
,
0010
0001
1000
0001
,
0100
0010
0100
0000
,
0002
0000
1003
0000
,
0100
0100
0010
0000
,
0001
1000
0001
1000
,
0001
0000
0110
0000
,
1000
1000
0001
0000
,
0100
0100
0010
0000
,
1000
0001
1000
0001
,
1000
0000
0110
0000
,
0001
0001
0100
0100
,
0010
1000
0100
1000
,
0001
0001
0010
0010
,
0100
1000
0010
1000
,
0001
0000
0101
0000
,
1000
0100
1100
0000
,
1000
0000
1000
0000
,
0002
0000
0023
0000
,
0130
0100
0010
0000
,
0001
0001
1000
0000
,
0001
0010
1000
0100
,
0001
0000
0000
0000
,
0100
0100
0010
0000
,
1000
1000
0001
0000
,
1000
0010
0001
0100
,
1000
0000
0000
0000
,
0001
0000
1001
0000
,
0010
0100
1000
0100
,
0010
0000
0110
0000
,
1000
0001
0100
0001
,
1000
1000
0100
0000
,
0001
0001
0100
0000
,
0010
0001
1000
0001
,
0100
0010
0100
0000
,
1000
0000
1001
0000
,
0100
0010
0001
0010
,
0100
0000
0110
0000
,
0001
1000
0010
1000
,
0001
0001
0010
0000
,
1000
1000
0010
0000
,
0100
1000
0001
1000
,
0010
0100
0010
0000
,
0200
0300
0000
0000
;

//---------------dance-single - ----------------
#NOTES:
     dance-single:
     :
     Medium:
     9:
     0.386151,0.440509,0.147581,0.240790,0.000000,348.000000,329.000000,19.000000,31.000000,0.000000,0.000000,0.386151,0.440509,0.147581,0.240790,0.000000,348.000000,329.000000,19.000000,31.000000,0.000000,0.000000:
// measure 0
0000
0000
0000
0000
,  // measure 1
0000
0000
0000
0000
,  // measure 2
0000
0000
0000
0000
,  // measure 3
0000
0000
0000
0000
,  // measure 4
0000
0000
0000
0000
,  // measure 5
0000
0000
0000
0000
,  // measure 6
0000
0000
0000
0000
,  // measure 7
0000
0001
0010
1000
,  // measure 8
0020
0000
0032
0000
,  // measure 9
0003
1000
0100
0001
,  // measure 10
0100
0000
0000
0100
1000
0000
0010
0000
,  // measure 11
1000
0001
0010
1000
,  // measure 12
0020
0000
0032
0000
,  // measure 13
0003
1000
0100
0001
,  // measure 14
0100
0000
0100
0000
0100
1000
0010
0000
,  // measure 15
1000
0100
0001
0100
,  // measure 16
2000
3000
1000
1000
,  // measure 17
0001
0000
0100
0000
0010
0100
0010
0000
,  // measure 18
2000
0000
3000
0100
0010
0100
0010
0000
,  // measure 19
0001
0000
0010
0000
1000
0000
0010
0001
,  // measure 20
0000
0001
0000
0100
0001
0100
0001
0000
,  // measure 21
1000
0010
0100
0010
0000
0010
0100
0000
,  // measure 22
0002
0000
0013
0002
0000
0103
0020
0000
,  // measure 23
1030
0100
1000
0000
0011
0000
0000
0000
,  // measure 24
0002
0103
1010
0000
,  // measure 25
0001
0100
0001
0000
1000
0000
0010
0000
,  // measure 26
0110
0000
0000
0000
,  // measure 27
0001
0010
0001
0000
1100
0000
0000
0000
,  // measure 28
1000
0010
0101
0000
,  // measure 29
1000
0010
1000
0000
0001
0100
0010
0200
,  // measure 30
0000
0300
0000
0000
0000
0000
0000
0000
,  // measure 31
0001
0000
0001
0000
0100
0001
0010
0000
,  // measure 32
0200
0320
0032
2003
,  // measure 33
3100
0000
0100
0000
0001
0100
1000
0010
,  // measure 34
0000
0100
0010
0000
0100
0000
0000
0000
,  // measure 35
0001
0000
0001
0010
0001
0000
0100
0020
,  // measure 36
0000
0130
0002
0000
1003
0010
0200
0000
,  // measure 37
0310
0000
0001
0010
0001
0010
1000
0100
,  // measure 38
0000
0010
0000
0100
0010
0000
0100
0000
,  // measure 39
2000
3000
1100
0000
,  // measure 40
0001
0100
0010
0000
0100
0001
0010
0000
,  // measure 41
0001
0000
0101
0000
,  // measure 42
1000
0000
0100
0010
0000
1000
0010
0000
,  // measure 43
0100
1000
0100
0000
1000
0000
0001
0100
,  // measure 44
0000
0100
0001
0000
1000
0100
0010
0000
,  // measure 45
0001
0100
0000
1000
0000
0010
0000
0001
,  // measure 46
0000
0001
0000
0100
0010
0000
1000
0000
,  // measure 47
0002
0003
0101
0000
,  // measure 48
1000
0100
1100
0000
,  // measure 49
1000
0000
0010
0000
1000
0000
0001
1000
,  // measure 50
0000
0000
0000
0100
0010
0000
0100
0000
,  // measure 51
2000
3000
1100
0000
,  // measure 52
0001
0100
0101
0000
,  // measure 53
0001
0000
0010
0000
0001
0000
1000
0002
,  // measure 54
0000
0000
0003
0100
0010
0000
0100
0000
,  // measure 55
0001
0000
0001
0000
0001
0100
0001
0000
,  // measure 56
0100
0000
0100
0000
0010
0100
0010
0000
,  // measure 57
1000
0000
1000
0000
1000
0100
1000
0000
,  // measure 58
0100
0000
0100
0000
0010
0100
0010
0000
,  // measure 59
0001
0000
1000
0100
0000
0010
0001
0000
,  // measure 60
0100
1000
0100
0001
,  // measure 61
0200
0000
0000
0320
0000
0000
2030
0000
,  // measure 62
3002
0000
2000
3003
,  // measure 63
0001
0010
0001
0000
1100
0000
0000
0000
,  // measure 64
2000
3010
0101
0000
,  // measure 65
1000
0010
1000
0000
0001
0000
0100
0000
,  // measure 66
0110
0000
0000
0000
,  // measure 67
1000
0100
1000
0000
0011
0000
0000
0000
,  // measure 68
0001
0100
1010
0000
,  // measure 69
0001
0100
0001
0000
1000
0010
0100
0020
,  // measure 70
0000
0030
0000
0000
0000
0000
0000
0000
,  // measure 71
2000
3000
1100
0000
,  // measure 72
0001
0100
0010
0000
0100
0001
0010
0000
,  // measure 73
0001
0000
0101
0000
,  // measure 74
1000
0000
0100
0010
0000
1000
0010
0000
,  // measure 75
0100
1000
0100
0000
1000
0000
0001
0100
,  // measure 76
0000
0100
0001
0000
1000
0100
0010
0000
,  // measure 77
0001
0100
0000
1000
0000
0010
0000
0001
,  // measure 78
0000
0001
0000
0100
0010
0000
1000
0000
,  // measure 79
0100
0010
0000
0100
0010
0000
0100
0000
,  // measure 80
1000
0001
1000
0100
,  // measure 81
1000
0000
0001
0100
0010
0000
0010
0100
,  // measure 82
0001
1000
0001
0000
1000
0001
1000
0000
,  // measure 83
0100
0000
0100
0000
1100
0000
0001
0100
,  // measure 84
0000
0100
0001
0000
1000
0100
0010
0000
,  // measure 85
0001
0100
0000
1000
0000
0010
0000
0001
,  // measure 86
0000
0001
0000
0100
0010
0000
1000
0000
,  // measure 87
0002
0003
0000
0000
;
