#TITLE:Wanderer;
#SUBTITLE:;
#ARTIST:Ren Zotto;
#TITLETRANSLIT:;
#SUBTITLETRANSLIT:;
#ARTISTTRANSLIT:;
#GENRE:にじさんじ;
#CREDIT:;
#BANNER:Wanderer.png;
#BACKGROUND:../bg.png;
#LYRICSPATH:;
#CDTITLE:../cdtitle.png;
#MUSIC:Wanderer.ogg;
#OFFSET:2.562000;
#SAMPLESTART:70.361000;
#SAMPLELENGTH:15.000000;
#LASTBEATHINT:1.692167;
#SELECTABLE:YES;
#BPMS:0.000000=65.000000
;
#STOPS:
;
#BGCHANGES:1.000=Wanderer.avi=1.000=0=0=0=StretchNoLoop====,
99999=-nosongbg-=1.000=0=0=0 // don't automatically add -songbackground-
;
#KEYSOUNDS:;
#ATTACKS:;

//---------------dance-single - ----------------
#NOTES:
     dance-single:
     :
     Beginner:
     1:
     0.035682,0.053317,0.000000,0.048033,0.000000,26.000000,26.000000,0.000000,5.000000,0.000000,0.000000,0.035682,0.053317,0.000000,0.048033,0.000000,26.000000,26.000000,0.000000,5.000000,0.000000,0.000000:
0000
0000
0000
0000
,
0000
0000
0000
0000
,
0000
0000
0000
0000
,
0000
0000
0000
0000
,
0100
0000
0000
0000
,
0001
0000
0000
0000
,
1000
0000
0000
0000
,
0001
0000
0002
0000
,
0003
0000
0010
0000
,
0200
0000
0300
0000
,
0010
0000
0000
0000
,
0010
0000
0000
0000
,
1000
0000
0000
0000
,
0100
0000
0000
0000
,
1000
0000
0000
0000
,
0001
0000
0002
0000
,
0003
0000
0010
0000
,
0200
0000
0300
0000
,
0020
0000
0000
0000
,
0030
0000
0000
0000
,
0100
0000
0000
0000
,
0100
0000
0000
0000
,
1000
0000
0000
0000
,
0010
0000
0000
0000
,
0100
0000
0000
0000
,
0100
0000
0000
0000
,
0001
0000
0000
0000
,
0010
0000
0000
0100
;

//---------------dance-single - ----------------
#NOTES:
     dance-single:
     :
     Easy:
     2:
     0.090577,0.107594,0.000000,0.259378,0.000000,66.000000,66.000000,0.000000,27.000000,0.000000,0.000000,0.090577,0.107594,0.000000,0.259378,0.000000,66.000000,66.000000,0.000000,27.000000,0.000000,0.000000:
0000
0000
0000
0000
,
0000
0000
0000
0000
,
2000
0001
3000
0001
,
0200
0001
0300
0001
,
0020
0001
0030
0001
,
2000
0100
3020
0030
,
0200
0300
0020
0030
,
1000
0001
0020
0000
,
0030
0100
0000
0100
,
2000
0000
3000
0000
,
0002
0003
0001
1000
,
0002
0003
0001
0100
,
0020
0030
0100
0001
,
2000
3000
1000
0100
,
2000
3000
0002
0003
,
0010
0100
2000
0000
,
3000
0001
0000
0001
,
0200
0000
0300
0000
,
0020
0000
0000
0000
,
0030
0000
0000
0000
,
2000
3000
1000
0001
,
2000
3000
1000
0100
,
0020
0030
0100
1000
,
0002
0003
0001
0100
,
0002
0003
0001
0010
,
2000
3000
1000
0100
,
2000
3000
1000
0010
,
0001
0002
0103
0200
,
0300
0000
0000
0000
;

//---------------dance-single - ----------------
#NOTES:
     dance-single:
     :
     Medium:
     5:
     0.188015,0.201739,0.086459,0.268985,0.000000,137.000000,128.000000,9.000000,28.000000,0.000000,0.000000,0.188015,0.201739,0.086459,0.268985,0.000000,137.000000,128.000000,9.000000,28.000000,0.000000,0.000000:
0000
0000
0000
0000
,
0000
0000
0000
0000
,
0010
0010
0010
0000
0001
1000
0001
0000
,
0100
0100
0100
0000
0001
1000
0001
0000
,
2000
0000
3100
0000
0010
0010
0100
0000
,
0100
1000
0010
1000
0200
0000
0300
0000
,
0120
0000
0031
1000
0020
0000
0130
0001
,
1000
1000
0100
1000
0020
0000
0200
0000
,
0330
0000
0010
0010
0001
0000
0010
0010
,
0200
0000
0000
0300
,
2001
0000
3100
0000
0001
0100
1000
0100
,
0020
0030
0011
0000
0001
1000
0100
1000
,
0020
0030
0110
0000
0100
0010
1000
0001
,
2000
0000
3100
0000
0010
0100
2000
0000
,
3002
0000
1003
0001
0200
0000
0310
1000
,
0001
0001
0010
0001
0200
0000
0020
0000
,
0330
0000
0100
0100
1000
0000
0100
0100
,
0020
2030
3002
0003
,
0020
0000
0000
0000
,
0030
0000
0000
0000
,
2001
0000
3100
0000
0001
0100
1000
0100
,
0020
0030
0011
0000
0001
1000
0100
1000
,
0020
0030
0110
0000
0100
0010
1000
0001
,
2000
0000
3100
0000
0010
0100
2000
0000
,
3002
0000
1003
0000
0100
1000
0010
0000
,
0100
0000
0110
0000
0001
1000
0100
0000
,
2000
0000
3001
0000
0010
0001
0100
0000
,
0010
0000
0110
0000
0001
0010
0100
2000
,
3000
0000
0000
0000
;

//---------------dance-single - ----------------
#NOTES:
     dance-single:
     :
     Hard:
     10:
     0.362306,0.376579,0.182526,0.451511,0.374658,264.000000,245.000000,19.000000,47.000000,0.000000,0.000000,0.362306,0.376579,0.182526,0.451511,0.374658,264.000000,245.000000,19.000000,47.000000,0.000000,0.000000:
0000
0000
0000
0000
,
0000
0000
0000
0000
,
1000
0100
1000
0000
0002
0000
0003
0000
1000
0100
0010
0000
0001
0100
0010
0000
,
0100
1000
0100
0000
0002
0000
0003
0000
1000
0100
0001
0000
0001
0100
1000
0000
,
0100
0010
0100
1000
0000
0010
0000
0010
0100
0001
1000
0000
0001
0100
0001
0000
,
0010
0100
0010
0000
0100
1000
0100
0000
1000
0001
0200
0000
0310
0000
0000
0000
,
2100
0000
0000
0000
3001
0000
0100
0000
0001
0100
0010
1000
0001
0000
1001
0000
,
1000
0100
1000
0001
0100
0001
0010
0100
1000
2000
0010
3000
1000
0100
0010
0001
,
2000
0000
3000
0000
0100
0010
0001
1000
0000
1000
0001
0000
0100
0010
1000
0000
,
0200
0000
0020
0330
,
2200
0000
3300
0000
0101
0000
0001
1000
0200
0000
0301
0000
0200
0000
1300
0000
,
2002
0000
3003
0000
0110
0000
1000
0001
0020
0000
0130
0000
2000
0000
3001
0000
,
0022
0000
0000
0000
0033
0000
0000
0000
1100
0000
0000
0000
1000
0000
0001
0000
0200
0000
0000
0000
0310
0000
0000
0000
0100
0000
0000
0100
0000
0000
0001
0000
,
2000
0000
0000
0000
3001
0000
1000
0100
0010
0001
0010
0001
2000
0000
3000
0000
,
2100
0000
0000
0000
3001
0000
0100
0000
0001
0100
0010
1000
0001
0000
1001
0000
,
1000
0100
1000
0001
0100
0001
0010
0100
1000
2000
0010
3000
1000
0100
0010
0001
,
2000
0000
3000
0000
0100
0010
0001
1000
0000
1000
0001
0000
0100
0010
1000
0000
,
0002
0000
0103
0001
0010
0100
0020
0000
0130
1000
0100
1000
0002
0000
0003
0000
,
2000
0000
0000
0000
,
3002
0100
0200
0303
,
2200
0000
3300
0000
0101
0000
0001
1000
0200
0000
0301
0000
0200
0000
1300
0000
,
2002
0000
3003
0000
0110
0000
1000
0001
0020
0000
0130
0000
2000
0000
3001
0000
,
0022
0000
0000
0000
0033
0000
0000
0000
1100
0000
0000
0000
1000
0000
0001
0000
0200
0000
0000
0000
0310
0000
0000
0000
0100
0000
0000
0100
0000
0000
0001
0000
,
2000
0000
0000
0000
3001
0000
1000
0100
0010
0001
0010
0001
2000
0000
3001
0100
,
0020
0000
0100
0000
1030
0100
1000
0000
0001
0010
0100
1000
0100
0000
1001
0000
,
0001
0100
0010
0000
1000
0100
0010
0000
0100
1000
0100
1000
0002
0000
0013
0100
,
1200
0000
0010
0000
1300
0010
1000
0000
0001
0100
0010
1000
0010
0000
1001
0000
,
0001
0010
0100
0000
1000
0010
0100
0000
0010
1000
0010
1000
0001
0010
0200
0000
,
0300
0000
0000
0000
;

//---------------dance-double - ----------------
#NOTES:
     dance-double:
     :
     Easy:
     2:
     0.090577,0.107594,0.000000,0.249772,0.000000,66.000000,66.000000,0.000000,26.000000,0.000000,0.000000,0.090577,0.107594,0.000000,0.249772,0.000000,66.000000,66.000000,0.000000,26.000000,0.000000,0.000000:
// measure 0
00000000
00000000
00000000
00000000
,  // measure 1
00000000
00000000
00000000
00000000
,  // measure 2
00200000
00001000
00300000
00001000
,  // measure 3
00020000
00000010
00030000
00000010
,  // measure 4
00002000
00000001
00003000
00000001
,  // measure 5
00001000
00000100
00000020
00000030
,  // measure 6
00000002
00000003
00002000
00003000
,  // measure 7
00000100
00010000
00002000
00000000
,  // measure 8
00003000
01000000
00000000
00010000
,  // measure 9
00200000
00000000
00300000
00000000
,  // measure 10
02000000
03000000
10000000
00010000
,  // measure 11
20000000
30000000
00100000
01000000
,  // measure 12
00200000
00300000
01000000
00001000
,  // measure 13
00020000
00030000
00000100
00010000
,  // measure 14
00002000
00003000
00200000
00300000
,  // measure 15
00010000
01000000
00200000
00000000
,  // measure 16
00300000
10000000
00000000
01000000
,  // measure 17
00020000
00000000
00030000
00000000
,  // measure 18
00002000
00000000
00000000
00000000
,  // measure 19
00003000
00000000
00000000
00000000
,  // measure 20
00000200
00000300
00000001
00001000
,  // measure 21
00000002
00000003
00000010
00000100
,  // measure 22
00000020
00000030
00000100
00010000
,  // measure 23
00002000
00003000
01000000
00001000
,  // measure 24
00020000
00030000
00000010
00001000
,  // measure 25
00000002
00000003
00001000
00000100
,  // measure 26
00020000
00030000
00001000
01000000
,  // measure 27
00010000
20000000
30010000
00200000
,  // measure 28
00300000
00000000
00000000
00000000
;

//---------------dance-double - ----------------
#NOTES:
     dance-double:
     :
     Medium:
     5:
     0.185270,0.201739,0.086459,0.278592,0.000000,135.000000,126.000000,9.000000,29.000000,0.000000,0.000000,0.185270,0.201739,0.086459,0.278592,0.000000,135.000000,126.000000,9.000000,29.000000,0.000000,0.000000:
// measure 0
00000000
00000000
00000000
00000000
,  // measure 1
00000000
00000000
00000000
00000000
,  // measure 2
00010000
00010000
00001000
00000000
00010000
00001000
00000100
00000000
,  // measure 3
00001000
00001000
00010000
00000000
00001000
00010000
01000000
00000000
,  // measure 4
10000000
10000000
00010000
00000000
00100000
01000000
00010000
00000000
,  // measure 5
01000000
10000000
00100000
00000000
02000000
00000000
03000000
00000000
,  // measure 6
00012000
00000000
00013000
00010000
00000200
00000000
00010300
00010000
,  // measure 7
00001000
00000010
00001000
00010000
00002000
00000000
00020000
00000000
,  // measure 8
00033000
00000000
00100000
00010000
00100000
00000000
10000000
01000000
,  // measure 9
20000000
00000000
00000000
30000000
,  // measure 10
20020000
00000000
30030000
00000000
00100000
00010000
00001000
00010000
,  // measure 11
00200000
00300000
00110000
00000000
00001000
00010000
01000000
00010000
,  // measure 12
00002000
00003000
00011000
00000000
00000100
00000010
00000100
00001000
,  // measure 13
00000002
00000000
00001003
00000000
00000010
00000100
00002000
00000000
,  // measure 14
00023000
00000000
00031000
00001000
00200000
00000000
00301000
00001000
,  // measure 15
00010000
01000000
00010000
00001000
00020000
00000000
00002000
00000000
,  // measure 16
00033000
00000000
00000100
00001000
00000100
00000000
00000001
00000010
,  // measure 17
00000200
00002300
00003002
00000003
,  // measure 18
00002000
00000000
00000000
00000000
,  // measure 19
00003000
00000000
00000000
00000000
,  // measure 20
00002002
00000000
00003003
00000000
00000010
00001000
00010000
00001000
,  // measure 21
00000020
00000030
00001010
00000000
00010000
00001000
00000100
00001000
,  // measure 22
00020000
00030000
00011000
00000000
01000000
00100000
01000000
00010000
,  // measure 23
20000000
00000000
30010000
00000000
00100000
01000000
00020000
00000000
,  // measure 24
00032000
00000000
00013000
00000000
01000000
10000000
00010000
00000000
,  // measure 25
01000000
00000000
01100000
00000000
00001000
00010000
00001000
00000000
,  // measure 26
00020000
00000000
00031000
00000000
00000010
00000001
00001000
00000000
,  // measure 27
00000010
00000000
00000110
00000000
00000001
00000010
00001000
00020000
,  // measure 28
00030000
00000000
00000000
00000000
;

//---------------dance-double - ----------------
#NOTES:
     dance-double:
     :
     Hard:
     10:
     0.374658,0.390028,0.182526,0.451511,0.417888,273.000000,254.000000,19.000000,47.000000,0.000000,0.000000,0.374658,0.390028,0.182526,0.451511,0.417888,273.000000,254.000000,19.000000,47.000000,0.000000,0.000000:
// measure 0
00000000
00000000
00000000
00000000
,  // measure 1
00000000
00000000
00000000
00000000
,  // measure 2
00010000
00001000
00010000
00001000
00000020
00000000
00000030
00000000
00000001
00000010
00000100
00000010
00000100
00001000
00000001
00000000
,  // measure 3
00000100
00001000
00000100
00001000
00020000
00000000
00030000
00000000
00001000
00010000
00100000
00010000
00100000
01000000
00010000
00000000
,  // measure 4
10000000
01000000
00100000
00010000
00000000
00100000
00000000
00100000
01000000
10000000
00010000
10000000
01000000
00010000
00001000
00000000
,  // measure 5
00100000
00010000
00100000
00001000
00010000
00000010
00001000
00000010
00010000
00001000
00020000
00000000
00031000
00000000
00000000
00000000
,  // measure 6
00012000
00000000
00000000
00000000
01003000
00000000
00001000
00000000
00010000
00001000
00010000
00000100
00000010
00000000
00000110
00000000
,  // measure 7
00000100
00001000
00000100
00001000
00000001
00000100
00000010
00001000
00000001
00002000
00000100
00003000
00001000
00000010
00010000
00001000
,  // measure 8
00020000
00000000
00030000
00000000
00001000
00100000
01000000
10000000
00000000
10000000
00010000
00000000
01000000
00100000
00010000
00001000
,  // measure 9
00020000
00000000
00002000
00033000
,  // measure 10
00022000
00000000
00033000
00000000
00001100
00000000
00010000
00001000
00020000
00000000
00031000
00000000
02000000
00000000
03010000
00000000
,  // measure 11
20020000
00000000
30030000
00000000
11000000
00000000
10000000
01000000
00200000
00000000
00301000
00000000
02000000
00000000
03010000
00000000
,  // measure 12
00022000
00000000
00000000
00000000
00033000
00000000
00000000
00000000
00010100
00000000
00000000
00000000
00010000
00000000
00001000
00000000
00000200
00000000
00000000
00000000
00000310
00000000
00000000
00000000
00000100
00000000
00000000
00000100
00000000
00000000
00000001
00000000
,  // measure 13
00002000
00000000
00000000
00000000
00003001
00000000
00000100
00000010
00001000
00000100
00001000
00000100
00020000
00000000
00030000
00000000
,  // measure 14
00021000
00000000
00000000
00000000
00030010
00000000
00010000
00000000
00001000
00010000
00001000
00100000
01000000
00000000
01100000
00000000
,  // measure 15
00100000
00010000
00100000
00010000
10000000
00100000
01000000
00010000
10000000
00020000
00100000
00030000
00010000
01000000
00001000
00010000
,  // measure 16
00002000
00000000
00003000
00000000
00010000
00000100
00000010
00000001
00000000
00000001
00001000
00000000
00000010
00000100
00001000
00010000
,  // measure 17
00002000
00000000
00013000
00001000
00100000
00010000
20000000
00000000
31000000
00100000
01000000
00100000
00020000
00000000
00030000
00000000
,  // measure 18
20000000
00000000
00000000
00000000
,  // measure 19
30020000
00001000
00002000
00033000
,  // measure 20
00022000
00000000
00033000
00000000
01010000
00000000
00001000
00010000
00002000
00000000
00013000
00000000
00000200
00000000
00001300
00000000
,  // measure 21
00002002
00000000
00003003
00000000
00000101
00000000
00000001
00000100
00000020
00000000
00010030
00000000
00000200
00000000
00001300
00000000
,  // measure 22
00022000
00000000
00000000
00000000
00033000
00000000
00000000
00000000
01001000
00000000
00000000
00000000
00001000
00000000
00010000
00000000
02000000
00000000
00000000
00000000
03100000
00000000
00000000
00000000
01000000
00000000
00000000
01000000
00000000
00000000
10000000
00000000
,  // measure 23
00020000
00000000
00000000
00000000
10030000
00000000
01000000
00100000
00010000
01000000
00010000
01000000
00002000
00000000
00013000
00001000
,  // measure 24
00020000
00000000
00001000
00000000
00030100
00001000
00000100
00000000
00010000
00001000
00010000
00000010
00000100
00000000
00000110
00000000
,  // measure 25
00000001
00001000
00000100
00000000
00000001
00000100
00001000
00000000
00000001
00000010
00000100
00000010
00002000
00000000
00013000
00001000
,  // measure 26
00012000
00000000
00010000
00000000
00103000
00010000
00100000
00000000
00001000
00010000
00001000
01000000
00100000
00000000
01100000
00000000
,  // measure 27
10000000
00010000
00100000
00000000
10000000
00100000
00010000
00000000
10000000
01000000
00100000
01000000
00010000
00001000
00020000
00000000
,  // measure 28
00030000
00000000
00000000
00000000
;
