#TITLE:WILDSHOX!!;
#SUBTITLE:;
#ARTIST:TexuilA;
#TITLETRANSLIT:;
#SUBTITLETRANSLIT:;
#ARTISTTRANSLIT:;
#GENRE:Crossover;
#CREDIT:;
#BANNER:WILDSHOX!!.png;
#BACKGROUND:WILDSHOX!!-bg.png;
#LYRICSPATH:;
#CDTITLE:../cdtitle.png;
#MUSIC:WILDSHOX!!.ogg;
#OFFSET:-0.064000;
#SAMPLESTART:19.365999;
#SAMPLELENGTH:15.000000;
#SELECTABLE:YES;
#BPMS:0.000000=261.000000
;
#STOPS:
;
#BGCHANGES:-99.000=../bg.avi=1.000=0=0=1=====,
99999=-nosongbg-=1.000=0=0=0 // don't automatically add -songbackground-
;
#KEYSOUNDS:;
#ATTACKS:;

//---------------dance-single - ----------------
#NOTES:
     dance-single:
     :
     Beginner:
     4:
     0.160862,0.266114,0.096769,0.096769,0.000000,128.000000,117.000000,11.000000,11.000000,0.000000,0.000000,0.160862,0.266114,0.096769,0.096769,0.000000,128.000000,117.000000,11.000000,11.000000,0.000000,0.000000:
0000
0000
0000
0000
,
0000
0000
0000
0000
,
0000
0000
0000
0000
,
0000
0000
0000
0000
,
0000
0000
0000
0000
,
0010
0000
0000
0000
,
0010
0000
0000
0000
,
0100
0000
0000
0000
,
0100
0000
0000
0000
,
0010
0000
0000
0000
,
0010
0000
0000
0000
,
0100
0000
0000
0000
,
0100
0000
0000
0000
,
0010
0000
0000
0000
,
0001
0000
0000
0000
,
0100
0000
0000
0000
,
0010
0000
0000
0000
,
0010
0000
0000
0000
,
1000
0000
0000
0000
,
0100
0000
0000
0000
,
0010
0000
0000
0000
,
0001
0000
0001
0000
,
0001
0000
0000
0000
,
1000
0000
1000
0000
,
1000
0000
0000
0000
,
0001
0000
0001
0000
,
0001
0000
0000
0000
,
0010
0000
0010
0000
,
0010
0000
0000
0000
,
0100
0000
0100
0000
,
0100
0000
0000
0000
,
1000
0000
1000
0000
,
1000
0000
0000
0000
,
0001
0000
0001
0000
,
0001
0000
0000
0000
,
1000
0000
1000
0000
,
1000
0000
0000
0000
,
0100
0000
0000
0000
,
0010
0000
0000
0000
,
0002
0000
0000
0000
,
0000
0000
0003
0000
,
0100
0000
0000
0000
,
0010
0000
0000
0000
,
2000
0000
0000
0000
,
0000
0000
3000
0000
,
0001
0000
0000
0000
,
0010
0000
0000
0000
,
0200
0000
0000
0000
,
0000
0000
0300
0000
,
1000
0000
0000
0000
,
0010
0000
0000
0000
,
0100
0000
0000
0000
,
0001
0000
0000
0000
,
1001
0000
0000
0000
,
1001
0000
0000
0000
,
0200
0000
0000
0000
,
0300
0000
0000
0000
,
0110
0000
0000
0000
,
0110
0000
0000
0000
,
0010
0000
0000
0000
,
0010
0000
0000
0000
,
1001
0000
0000
0000
,
1001
0000
0000
0000
,
0200
0000
0000
0000
,
0300
0000
0000
0000
,
0110
0000
0000
0000
,
0110
0000
0000
0000
,
0010
0000
0010
0000
,
0010
0000
0000
0000
,
2002
0000
0000
0000
,
0000
0000
0000
0000
,
0000
0000
0000
0000
,
0000
0000
0000
0000
,
3003
0000
0000
0000
,
0000
0000
0000
0000
,
0000
0000
0000
0000
,
0000
0000
0000
0000
,
1000
0000
0000
0000
,
0100
0000
0000
0000
,
1000
0000
0000
0000
,
0100
0000
0000
0000
,
0010
0000
0000
0000
,
0001
0000
0000
0000
,
0010
0000
0000
0000
,
0001
0000
0000
0000
,
1000
0000
1000
0000
,
1000
0000
0000
0000
,
0001
0000
0001
0000
,
0001
0000
0000
0000
,
1000
0000
1000
0000
,
1000
0000
0000
0000
,
0010
0000
0010
0000
,
0010
0000
0000
0000
,
0100
0000
0100
0000
,
0100
0000
0000
0000
,
0001
0000
0001
0000
,
0001
0000
0000
0000
,
1000
0000
1000
0000
,
1000
0000
0000
0000
,
0001
0000
0001
0000
,
0001
0000
0000
0000
,
0100
0000
0000
0000
,
0010
0000
0000
0000
,
2000
0000
0000
0000
,
0000
0000
3000
0000
,
0100
0000
0000
0000
,
0010
0000
0000
0000
,
0002
0000
0000
0000
,
0000
0000
0003
0000
,
1000
0000
0000
0000
,
0010
0000
0000
0000
,
0200
0000
0000
0000
,
0000
0000
0300
0000
,
0001
0000
0000
0000
,
0010
0000
0000
0000
,
0100
0000
0000
0000
,
1001
0000
0000
0000
,
0010
0000
0000
0000
,
1001
0000
0000
0000
,
0200
0000
0000
0000
,
0000
0000
0000
0000
,
0300
0000
0000
0000
;

//---------------dance-single - ----------------
#NOTES:
     dance-single:
     :
     Hard:
     17:
     0.882230,0.958011,0.686179,0.184740,0.752158,702.000000,624.000000,78.000000,21.000000,0.000000,0.000000,0.882230,0.958011,0.686179,0.184740,0.752158,702.000000,624.000000,78.000000,21.000000,0.000000,0.000000:
0000
0000
0000
0000
,
0000
0000
0000
0000
,
0000
0000
0000
0000
,
0000
0000
0000
0000
,
0000
0000
0000
0000
,
1000
1000
0100
0100
,
0001
0001
0010
0010
,
1000
1000
0100
0100
,
0001
0001
0010
0010
,
1000
1000
0010
0010
,
0001
0001
0100
0100
,
1000
1000
0010
0010
,
0001
0001
0100
0100
,
1000
1000
0001
0001
,
0100
0000
0001
0100
0000
0000
0010
0000
1000
0010
0000
0000
,
0100
0000
0010
0100
0000
0000
0001
0000
1000
0001
0000
0000
,
0010
0010
0100
0100
,
1000
0000
0100
0010
0000
0000
0100
0000
1000
0010
0000
0000
,
0100
0000
0001
0000
0010
0000
0100
0000
0010
0001
0000
0001
,
1000
0000
1000
0001
0000
0001
0100
0000
0100
0010
0000
0010
,
2000
0000
0002
3003
,
0011
0010
1010
0010
,
0011
0000
0000
0001
0000
1000
0010
0000
0100
0001
0000
1000
,
0100
0001
0101
0100
,
1100
0000
0000
1000
0000
0001
0100
0000
0010
1000
0000
0001
,
0010
1000
1010
0010
,
0011
0000
0000
0001
0000
1000
0001
0000
0100
0010
0000
1000
,
0001
0000
0001
0010
0000
0010
0100
0000
0100
1000
0000
1000
,
0001
0000
0001
1000
0000
1000
0010
0000
0010
0100
0000
0001
,
0100
1000
1100
0100
,
0101
0000
0000
0001
0000
1000
0100
0000
0010
0001
0000
1000
,
0010
0001
0011
0010
,
1010
0000
0000
1000
0000
0001
0010
0000
0100
1000
0000
0001
,
0100
1000
1100
0100
,
0101
0000
0000
0001
0000
1000
0001
0000
0010
0100
0000
1000
,
0001
0000
0001
0100
0000
0100
0010
0000
0010
1000
0000
1000
,
0001
0000
0001
1000
0000
1000
0100
0000
0100
0010
0000
0010
,
0001
0011
1000
1100
,
0001
0000
0100
0010
0000
0100
0001
0000
1000
0001
0000
1000
,
0100
0000
0010
0100
0000
2000
0002
0000
0000
0003
0000
0000
,
0100
0100
0001
3001
,
1000
1001
0010
0110
,
0001
0000
0100
0010
0000
1000
0010
0000
0100
0001
0000
1000
,
1100
0000
0000
0101
0000
0000
0011
0000
,
0000
1010
0000
0000
1001
0000
1100
0000
,
0001
0101
1000
1010
,
0001
0000
0010
0100
0000
0010
0001
0000
1000
0001
0000
1000
,
0010
0000
0100
0010
0000
2000
0002
0000
0000
0003
0000
0000
,
0010
0010
0001
3001
,
1000
1001
0100
0110
,
1001
0000
0000
0000
0000
0000
0000
0000
0010
0100
0000
0100
,
0001
0001
1000
1000
,
0001
0000
0010
0100
0000
1000
0001
1000
0001
1000
0000
0001
,
0010
0000
0000
0220
0000
0000
0330
1000
,
0001
0001
0010
0010
,
0100
1000
0100
1000
0001
1000
0001
1000
,
0010
0100
0001
1000
1001
0000
0110
0000
,
0001
0000
1000
0000
0001
0000
1000
0000
0010
0000
0000
0100
0000
0000
0010
0000
,
0200
0300
0102
1003
,
2001
0000
3100
0010
0001
1000
0001
1000
,
0001
0000
0000
0100
0000
0000
0010
0000
1000
0000
0010
0000
0100
0000
0001
0000
,
1001
0000
0000
0100
1100
0000
0000
0010
,
0011
0000
0001
0000
0010
0000
0001
0000
0100
0000
0010
0000
,
1000
0100
1000
0100
1000
0001
1000
0001
,
0100
0001
0100
0001
0100
0010
0100
0010
,
1000
0000
0001
0000
1000
0000
1001
0000
0000
1001
0000
0000
,
0100
0000
0010
0100
0000
0010
0100
0000
0000
0110
0000
0000
,
1000
0000
0001
0000
1000
0000
0001
0000
1000
0000
0001
0000
,
0200
0000
0020
0330
,
1001
1000
0100
0100
,
0001
0001
0010
0010
,
1000
1000
0100
0100
,
0001
0001
0010
0010
,
1000
1000
0010
0010
,
0001
0001
0100
0100
,
1000
1000
0010
0010
,
0001
0001
0100
0100
,
1000
0000
0000
0001
0000
0001
1000
0000
0000
0001
0000
0001
,
0100
0000
0100
0010
0000
0010
1000
0000
1000
0001
0000
0001
,
0010
0000
0010
1000
0000
1000
0010
0000
0010
0001
0000
0001
,
0100
0000
0100
0010
0000
0010
1000
0000
0000
0001
0000
0000
,
1000
0000
0100
0010
0000
0100
1000
0000
0010
0100
0000
0010
,
1000
0000
0001
0010
0000
0100
0010
0000
0001
0100
0000
0010
,
0100
0000
0100
0001
0000
0001
0010
0000
0010
0100
0000
0100
,
1000
0001
2002
3003
,
1010
0010
0011
0010
,
1010
0000
0000
1000
0000
0001
0010
0000
0100
1000
0000
0001
,
0100
1000
1100
0100
,
0101
0000
0000
0001
0000
1000
0100
0000
0010
0001
0000
1000
,
0010
0001
0011
0010
,
1010
0000
0000
1000
0000
0001
1000
0000
0100
0010
0000
0001
,
1000
0000
1000
0010
0000
0010
0100
0000
0100
0001
0000
0001
,
1000
0000
1000
0001
0000
0001
0010
0000
0010
0100
0000
1000
,
0100
0110
0101
0110
,
1100
0000
0000
1000
0000
0001
0100
0000
0010
1000
0000
0001
,
0010
0110
1010
0110
,
0011
0000
0000
0001
0000
1000
0010
0000
0100
0001
0000
1000
,
0100
0110
0101
0110
,
1100
0000
0000
1000
0000
0001
1000
0000
0010
0100
0000
0001
,
1000
0000
1000
0100
0000
0100
0010
0000
0010
0001
0000
0001
,
1000
0000
1000
0001
0000
0001
0100
0000
0100
0010
0000
0010
,
1000
1010
0001
0101
,
1000
0000
0100
0010
0000
0100
1000
0000
0001
1000
0000
0001
,
0100
0000
0010
0100
0000
0002
2000
0000
0000
3000
0000
0000
,
0100
0100
1000
1003
,
0001
1001
0010
0110
,
1000
0000
0100
0010
0000
0001
0010
0000
0100
1000
0000
0001
,
0101
0000
0000
1100
0000
0000
1010
0000
,
0000
0011
0000
0000
1001
0000
0101
0000
,
1000
1100
0001
0011
,
1000
0000
0010
0100
0000
0010
1000
0000
0001
1000
0000
0001
,
0010
0000
0100
0010
0000
0002
2000
0000
0000
3000
0000
0000
,
0010
0010
1000
1003
,
0001
1001
0100
0110
,
1001
0000
0000
0000
0000
0000
0000
0000
0010
0100
0000
0100
,
1000
0000
0000
0001
0000
1000
0001
0000
0000
1001
0000
0000
,
0100
0000
0000
0010
0000
0100
0010
0000
0000
0110
0000
0000
,
0001
0000
0010
0100
0000
0010
1000
0000
0010
0001
0000
0100
,
0010
0000
0100
1000
0000
0100
0010
0000
0100
0001
0000
1000
,
2002
0000
0000
0000
,
0000
0000
0000
0000
,
3003
0000
0000
0000
;

//---------------dance-single - ----------------
#NOTES:
     dance-single:
     :
     Easy:
     8:
     0.400899,0.532228,0.351887,0.219929,0.000000,319.000000,279.000000,40.000000,25.000000,0.000000,0.000000,0.400899,0.532228,0.351887,0.219929,0.000000,319.000000,279.000000,40.000000,25.000000,0.000000,0.000000:
0000
0000
0000
0000
,
0000
0000
0000
0000
,
0000
0000
0000
0000
,
0000
0000
0000
0000
,
0000
0000
0000
0000
,
1000
0000
0100
0000
,
0001
0000
0100
0000
,
1000
0000
0100
0000
,
0001
0000
0100
0000
,
1000
0000
0010
0000
,
0001
0000
0010
0000
,
1000
0000
0010
0000
,
0001
0000
0010
0000
,
1000
0000
0100
0000
,
0010
0000
0001
0000
,
0001
0000
0010
0000
,
0100
0000
1000
0000
,
1000
0000
0010
0000
,
0100
0000
0001
0000
,
0001
0000
1000
0000
,
1001
0000
0000
0000
,
0101
0000
0011
0000
,
0100
1000
0010
1000
,
0100
0000
0110
0000
,
0001
1000
0100
1000
,
0001
0000
1001
0000
,
0100
0010
1000
0010
,
0100
0000
0101
0000
,
0001
0010
0100
0010
,
0011
0000
0101
0000
,
0010
1000
0100
1000
,
0010
0000
0110
0000
,
0001
1000
0010
1000
,
0001
0000
1001
0000
,
0010
0100
1000
0100
,
0010
0000
0011
0000
,
0001
0100
0010
0100
,
0001
1000
0100
0000
,
1000
0001
0100
0000
,
0010
0000
2000
0000
,
0001
0000
3100
0000
,
1000
0001
0010
0000
,
0001
1000
0010
0000
,
1000
0000
0000
0100
0000
0000
0010
0000
,
0000
0001
0000
0000
1001
0000
0000
0000
,
0001
1000
0010
0000
,
1000
0001
0010
0000
,
0100
0000
2000
0000
,
0001
0000
3010
0000
,
1000
0001
0100
0000
,
0110
0000
0000
0000
,
2000
0000
3002
0000
,
1003
0001
1000
0001
,
1000
0000
0000
1001
0000
0000
0000
0000
,
0001
0010
0100
1000
,
0002
0000
0203
0000
,
0320
0000
2030
0000
,
3001
0000
1001
0000
,
1000
0100
0010
0001
,
2000
0000
3020
0000
,
0230
0000
0302
0000
,
0103
0000
0110
0000
,
0010
0000
0110
0000
,
0002
0000
2003
0000
,
3002
0000
2003
0000
,
3010
0000
0110
0000
,
0100
0000
0110
0000
,
2000
0000
3002
0000
,
2003
0000
3001
0000
,
1000
0000
0100
0000
,
0001
0000
0100
0000
,
1000
0000
0100
0000
,
0001
0000
0100
0000
,
1000
0000
0010
0000
,
0001
0000
0010
0000
,
1000
0000
0010
0000
,
0001
0000
0010
0000
,
1000
0000
0100
0000
,
0010
0000
0001
0000
,
0001
0000
0010
0000
,
0100
0000
1000
0000
,
1000
0000
0010
0000
,
0100
0000
0001
0000
,
0001
0000
1000
0000
,
1001
0000
0000
0000
,
0101
0000
0011
0000
,
0100
1000
0010
1000
,
0100
0000
0110
0000
,
0001
1000
0100
1000
,
0001
0000
1001
0000
,
0100
0010
1000
0010
,
0100
0000
0101
0000
,
0001
0010
0100
0010
,
0011
0000
0101
0000
,
0010
1000
0100
1000
,
1010
0000
0110
0000
,
0001
1000
0010
1000
,
0101
0000
1001
0000
,
0010
0100
1000
0100
,
0110
0000
0011
0000
,
0001
0100
0010
0100
,
0001
1000
0100
0000
,
1000
0001
0100
0000
,
0010
0000
2000
0000
,
0001
0000
3100
0000
,
1000
0001
0010
0000
,
0001
1000
0010
0000
,
1000
0000
0000
0100
0000
0000
0010
0000
,
0000
0001
0000
0000
1001
0000
0000
0000
,
0001
1000
0010
0000
,
1000
0001
0010
0000
,
0100
0000
2000
0000
,
0001
0000
3010
0000
,
1000
0001
0100
0000
,
0110
0000
0000
0000
,
2000
0000
3001
0000
,
0002
0000
1003
0000
,
1100
0000
0101
0000
,
0011
0000
1010
0000
,
2002
0000
0000
0000
,
0000
0000
0000
0000
,
3003
0000
0000
0000
;

//---------------dance-single - ----------------
#NOTES:
     dance-single:
     :
     Medium:
     13:
     0.608261,0.798343,0.131957,0.193538,0.184740,484.000000,469.000000,15.000000,22.000000,0.000000,0.000000,0.608261,0.798343,0.131957,0.193538,0.184740,484.000000,469.000000,15.000000,22.000000,0.000000,0.000000:
// measure 0
0000
0000
0000
0000
,  // measure 1
0000
0000
0000
0000
,  // measure 2
0000
0000
0000
0000
,  // measure 3
0000
0000
0000
0000
,  // measure 4
0000
0000
0000
0000
,  // measure 5
1000
0100
1000
0100
,  // measure 6
0010
0100
0010
0100
,  // measure 7
0010
0001
0010
0001
,  // measure 8
1000
0001
1000
0001
,  // measure 9
1000
0010
1000
0010
,  // measure 10
0100
0010
0100
0010
,  // measure 11
0100
0001
0100
0001
,  // measure 12
1000
0001
1000
0001
,  // measure 13
0010
0100
1000
0000
,  // measure 14
0100
0010
0001
0000
,  // measure 15
1000
0010
0100
0000
,  // measure 16
0001
0100
0010
0000
,  // measure 17
1000
0100
0010
0000
,  // measure 18
0001
0010
0100
0000
,  // measure 19
1000
0010
0100
0001
,  // measure 20
2000
0000
0002
3003
,  // measure 21
1000
0100
0001
0100
,  // measure 22
1000
0000
0000
0100
0000
0000
0010
0000
0001
0010
0000
0000
,  // measure 23
0001
0100
1000
0100
,  // measure 24
0001
0000
0000
0100
0000
0000
0010
0000
1000
0010
0000
0000
,  // measure 25
1000
0100
0001
0100
,  // measure 26
1000
0000
0000
0100
0000
0000
0010
0000
0001
0010
0000
0000
,  // measure 27
0001
0100
1000
0100
,  // measure 28
0010
0000
1000
0010
0000
0000
1000
0000
0001
1000
0000
0000
,  // measure 29
0001
0010
1000
0010
,  // measure 30
0001
0000
0000
0010
0000
0000
0100
0000
1000
0100
0000
0000
,  // measure 31
1000
0010
0001
0010
,  // measure 32
1000
0000
0000
0010
0000
0000
0100
0000
0001
0100
0000
0000
,  // measure 33
0001
0010
1000
0010
,  // measure 34
0001
0000
0000
0010
0000
0000
0100
0000
1000
0100
0000
0000
,  // measure 35
1000
0010
0001
0010
,  // measure 36
0100
0000
0001
0100
0000
0000
0001
0000
1000
0001
0000
0000
,  // measure 37
1000
1000
0100
0100
,  // measure 38
0001
0001
0100
0100
,  // measure 39
1000
0100
0020
0000
,  // measure 40
0100
0100
0100
0030
,  // measure 41
1000
1000
0010
0010
,  // measure 42
0001
0001
0010
0010
,  // measure 43
1000
0000
0000
1100
0000
0000
0001
0000
,  // measure 44
0000
0101
0000
0000
1001
0000
0000
0000
,  // measure 45
0001
0001
0010
0010
,  // measure 46
1000
1000
0010
0010
,  // measure 47
0001
0010
0200
0000
,  // measure 48
0010
0010
0010
0300
,  // measure 49
0001
0001
0100
0100
,  // measure 50
0110
0000
0000
0000
,  // measure 51
2000
0100
0100
3100
,  // measure 52
0001
0000
0010
0001
0000
0010
0001
0000
1000
0001
0000
0000
,  // measure 53
1001
0000
0000
2002
0000
0000
3003
1000
,  // measure 54
0001
0001
1000
1000
,  // measure 55
0001
1000
0010
0000
1000
0001
0010
0000
,  // measure 56
0100
1000
0001
0000
1001
0000
1001
0000
,  // measure 57
0100
0010
0100
0010
0100
0000
0100
0000
,  // measure 58
0002
0003
2000
3001
,  // measure 59
1000
0000
0100
0000
0010
0001
0010
0001
,  // measure 60
0020
0230
2300
3001
,  // measure 61
1001
0000
0000
1000
0100
0000
0000
0010
,  // measure 62
0001
0000
1000
0000
0001
0000
1000
0000
0010
0000
1000
0000
,  // measure 63
0010
0100
0010
0000
0100
0001
0100
0000
,  // measure 64
0001
1000
0001
0000
1000
0100
1000
0000
,  // measure 65
0001
0000
0010
0000
0100
0000
1000
0000
0000
1000
0000
0000
,  // measure 66
0010
0100
0001
1001
,  // measure 67
0010
0000
0100
0000
0010
0000
0100
0000
0010
0000
0100
0000
,  // measure 68
2000
0000
0002
3003
,  // measure 69
1000
0100
1000
0100
,  // measure 70
0010
0100
0010
0100
,  // measure 71
0010
0001
0010
0001
,  // measure 72
1000
0001
1000
0001
,  // measure 73
1000
0010
1000
0010
,  // measure 74
0100
0010
0100
0010
,  // measure 75
0100
0001
0100
0001
,  // measure 76
1000
0001
1000
0001
,  // measure 77
0010
0100
1000
0100
,  // measure 78
0010
0001
1000
0000
,  // measure 79
0010
0100
0001
0100
,  // measure 80
0010
1000
0001
0000
,  // measure 81
1000
0100
0010
0001
,  // measure 82
0010
0100
1000
0001
,  // measure 83
1000
0010
0100
0001
,  // measure 84
2000
0000
0002
3003
,  // measure 85
1000
0100
0001
0100
,  // measure 86
1000
0000
0000
0100
0000
0000
0010
0000
0001
0010
0000
0000
,  // measure 87
0001
0100
1000
0100
,  // measure 88
0001
0000
0000
0100
0000
0000
0010
0000
1000
0010
0000
0000
,  // measure 89
1000
0100
0001
0100
,  // measure 90
1000
0000
0000
0100
0000
0000
0010
0000
0001
0010
0000
0000
,  // measure 91
0001
0100
1000
0100
,  // measure 92
0010
0000
1000
0010
0000
0000
1000
0000
0001
1000
0000
0000
,  // measure 93
0001
0010
1000
0010
,  // measure 94
0001
0000
0000
0010
0000
0010
0100
0000
0100
1000
0000
0000
,  // measure 95
1000
0010
0001
0010
,  // measure 96
1000
0000
0000
0010
0000
0010
0100
0000
0100
0001
0000
0000
,  // measure 97
0001
0010
1000
0010
,  // measure 98
0001
0000
0000
0010
0000
0010
0100
0000
0100
1000
0000
0000
,  // measure 99
1000
0010
0001
0010
,  // measure 100
0100
0000
0001
0100
0000
0001
1000
0000
0001
1000
0000
0001
,  // measure 101
1000
1000
0100
0100
,  // measure 102
0001
0001
0100
0100
,  // measure 103
1000
0100
0020
0000
,  // measure 104
0100
0100
0100
0030
,  // measure 105
1000
1000
0010
0010
,  // measure 106
0001
0001
0010
0010
,  // measure 107
1000
0000
0000
1100
0000
0000
0001
0000
,  // measure 108
0000
0101
0000
0000
1001
0000
0000
0000
,  // measure 109
0001
0001
0010
0010
,  // measure 110
1000
1000
0010
0010
,  // measure 111
0001
0010
0200
0000
,  // measure 112
0010
0010
0010
0300
,  // measure 113
0001
0001
0100
0100
,  // measure 114
0110
0000
0000
0000
,  // measure 115
2000
0100
0100
3100
,  // measure 116
0002
0010
0010
0013
,  // measure 117
1000
0000
0100
1000
0000
0000
0001
0000
0010
0001
0000
0000
,  // measure 118
1000
0000
0010
1000
0000
0000
0001
0000
0100
0001
0000
0000
,  // measure 119
2002
0000
0000
0000
,  // measure 120
0000
0000
0000
0000
,  // measure 121
3003
0000
0000
0000
;
