#TITLE:Voyage;
#SUBTITLE:;
#ARTIST:Makou;
#TITLETRANSLIT:;
#SUBTITLETRANSLIT:;
#ARTISTTRANSLIT:;
#GENRE:Crossover;
#CREDIT:;
#BANNER:Voyage.png;
#BACKGROUND:Voyage-bg.png;
#LYRICSPATH:;
#CDTITLE:../cdtitle.png;
#MUSIC:Voyage.ogg;
#OFFSET:0.868800;
#SAMPLESTART:32.226002;
#SAMPLELENGTH:15.000000;
#SELECTABLE:YES;
#BPMS:0.000000=124.999992
;
#STOPS:
;
#BGCHANGES:1.000=Voyage.avi=1.000=0=0=0=StretchNoLoop====,
99999=-nosongbg-=1.000=0=0=0 // don't automatically add -songbackground-
;
#KEYSOUNDS:;
#ATTACKS:;

//---------------dance-single - ----------------
#NOTES:
     dance-single:
     :
     Beginner:
     1:
     0.051549,0.076984,0.000000,0.097526,0.000000,37.000000,37.000000,0.000000,10.000000,0.000000,0.000000,0.051549,0.076984,0.000000,0.097526,0.000000,37.000000,37.000000,0.000000,10.000000,0.000000,0.000000:
0000
0000
0000
0000
,
0000
0000
0000
0000
,
0000
0000
0000
0000
,
0000
0000
0000
0000
,
0000
0000
0000
0000
,
0002
0000
0000
0000
,
0003
0000
0000
0000
,
2000
0000
0000
0000
,
3000
0000
0000
0000
,
0001
0000
0000
0000
,
0010
0000
0000
0000
,
0200
0000
0000
0000
,
0300
0000
0000
0000
,
1000
0000
0000
0000
,
0010
0000
0000
0000
,
0100
0000
0000
0000
,
0002
0000
0003
0000
,
0000
0000
1000
0000
,
0000
0000
0001
0000
,
0000
0000
1000
0000
,
0000
0000
0100
0000
,
0000
0000
0010
0000
,
0000
0000
0100
0000
,
0000
0000
0020
0000
,
0000
0000
0030
0000
,
0000
0000
0001
0000
,
0000
0000
1000
0000
,
0000
0000
0001
0000
,
0000
0000
0100
0000
,
0000
0000
0010
0000
,
0000
0000
0100
0000
,
0000
0000
0020
0000
,
0000
0000
0030
0000
,
0000
0000
1000
0000
,
0000
0000
0001
0000
,
0000
0000
0010
0000
,
0000
0000
0100
0000
,
0000
0000
0010
0000
,
0000
0000
0001
0000
,
0000
0000
0100
0000
,
0000
0000
0010
0000
,
0000
0000
2000
0000
,
0000
0000
3000
0000
,
0000
0000
0002
0000
,
0000
0000
0003
0000
,
0000
0000
1000
0000
,
0000
0000
0001
0000
,
0000
0000
0020
0000
,
0000
0000
0030
0000
,
0000
0000
0000
0000
0000
0000
0000
0200
,
0000
0000
0000
0000
,
0000
0000
0000
0000
,
0000
0000
0000
0000
0000
0300
0000
0000
;

//---------------dance-single - ----------------
#NOTES:
     dance-single:
     :
     Hard:
     10:
     0.374778,0.487568,0.107278,0.263320,0.082897,269.000000,258.000000,11.000000,27.000000,0.000000,0.000000,0.374778,0.487568,0.107278,0.263320,0.082897,269.000000,258.000000,11.000000,27.000000,0.000000,0.000000:
// measure 0
0000
0000
0000
0000
,  // measure 1
0000
0000
0000
0000
,  // measure 2
0000
0000
0000
0000
,  // measure 3
0000
0000
0000
0000
,  // measure 4
0000
0000
0000
0000
,  // measure 5
0010
0000
0000
0010
0000
0000
1000
0000
0001
0000
0000
0000
0100
0000
0000
0000
,  // measure 6
0010
1000
0001
0010
,  // measure 7
0100
0000
0000
0100
0000
0000
1000
0000
0001
0000
0000
0000
0010
0000
0000
0000
,  // measure 8
0100
0000
0000
0000
1000
0000
0001
0010
0000
0001
0000
0100
0000
0000
0010
0000
,  // measure 9
1000
0000
0000
0000
1100
0000
0000
0011
0000
0000
0000
0000
0000
0000
0000
0000
,  // measure 10
0001
0100
0010
0000
0100
0010
1000
0001
,  // measure 11
0010
0100
1000
0000
0001
1000
0010
0000
,  // measure 12
0100
0000
0010
0000
1000
0000
0001
1000
0000
0001
1000
0000
0100
0000
0010
0000
,  // measure 13
0001
0000
0000
0000
0101
0000
0000
1010
0000
0000
0000
0000
0000
0000
0000
0000
,  // measure 14
1000
0000
0100
0000
0010
0100
0010
0001
,  // measure 15
1000
0010
0100
0000
0001
0010
0100
0000
,  // measure 16
0010
0000
0001
0000
1000
0000
0001
0100
0000
0020
0000
0000
0000
0000
0000
0000
,  // measure 17
0000
0000
0030
0000
1000
0100
0001
0000
,  // measure 18
0001
0100
1000
0000
0001
0100
1000
0000
,  // measure 19
1000
0100
0001
0000
1000
0100
0010
0000
,  // measure 20
0001
0100
0010
0000
1000
0001
1000
0100
,  // measure 21
1000
0001
1000
0010
0100
0001
0010
0000
,  // measure 22
0010
0001
0100
0000
0010
1000
0100
0000
,  // measure 23
0100
1000
0010
0100
0002
0000
1003
0100
,  // measure 24
0010
0100
2000
0000
3001
0100
0010
0100
,  // measure 25
0002
0000
2003
0000
3001
0010
1000
0000
,  // measure 26
1000
0010
0001
0000
1000
0010
0001
0000
,  // measure 27
0001
0010
1000
0000
0001
0010
0100
0000
,  // measure 28
1000
0010
0100
0000
0001
1000
0001
0010
,  // measure 29
0001
1000
0001
0100
0010
1000
0100
0000
,  // measure 30
0100
1000
0010
0000
0100
0001
0010
0000
,  // measure 31
0010
0001
0100
0010
2001
0000
3100
0012
,  // measure 32
0000
1003
0001
0120
0000
0130
0001
1000
,  // measure 33
0100
0000
0000
0100
0000
0000
0010
0000
0001
0000
1000
0000
0100
0000
0000
0000
,  // measure 34
1000
0001
0100
0000
0010
1000
0001
1000
,  // measure 35
0100
1000
0001
0000
1000
0001
0100
0010
,  // measure 36
2000
0000
3100
0000
1000
0100
0010
0100
,  // measure 37
1000
0010
0100
0010
1000
0001
0100
0000
,  // measure 38
0001
1000
0100
0000
0010
0001
1000
0010
,  // measure 39
0100
0001
2000
3100
,  // measure 40
1000
0010
0100
0010
1000
0100
0010
0100
,  // measure 41
1000
0001
0000
0000
0000
0000
0000
0000
2000
0000
0000
0000
0000
0000
0000
0000
,  // measure 42
3200
0000
0302
0000
,  // measure 43
0023
0000
2030
0000
,  // measure 44
3002
0000
0023
0230
,  // measure 45
2300
0000
3001
1000
0020
0000
0130
0001
,  // measure 46
2000
0000
0000
0000
3100
0000
0010
0000
0002
0000
0000
0000
0103
0000
0000
0010
,  // measure 47
1000
0000
0001
0000
0010
0100
0010
0000
2001
0000
0000
0000
3010
0000
0102
0000
,  // measure 48
0000
1003
0001
0110
0000
0001
1001
0000
,  // measure 49
1000
0000
0000
0000
0000
0100
0000
0000
0000
0000
0002
0000
0000
0000
0000
0000
0000
0000
0003
0000
0000
0000
0000
0000
0200
0000
0000
0000
0020
0000
0000
0000
,  // measure 50
0000
0000
0000
0000
,  // measure 51
0000
0000
0000
0000
,  // measure 52
0000
0000
0000
0000
0000
0330
0000
0000
;

//---------------dance-single - ----------------
#NOTES:
     dance-single:
     :
     Easy:
     4:
     0.161614,0.205292,0.000000,0.195052,0.014629,116.000000,116.000000,0.000000,20.000000,0.000000,0.000000,0.161614,0.205292,0.000000,0.195052,0.014629,116.000000,116.000000,0.000000,20.000000,0.000000,0.000000:
0000
0000
0000
0000
,
0000
0000
0000
0000
,
0000
0000
0000
0000
,
0000
0000
0000
0000
,
0000
0000
0000
0000
,
0001
0100
0010
0000
,
1000
0100
0010
0000
,
0100
0100
1000
0000
,
0010
0010
0100
0100
,
0001
0000
0000
0000
0001
0000
0000
1000
0000
0000
0000
0000
0000
0000
0000
0000
,
0200
0300
0020
0030
,
0001
0100
0010
0000
,
1000
0100
0010
0001
,
1000
0000
0000
0000
1000
0000
0000
0001
0000
0000
0000
0000
0000
0000
0000
0000
,
0020
0030
0200
0300
,
1000
0010
0100
0000
,
0001
0000
0000
0000
0010
0000
0000
0000
0000
0200
0000
0000
0000
0000
0000
0000
,
0000
0300
0020
0000
,
0031
0000
0200
0000
,
0310
0000
2000
0000
,
3100
0000
0010
0100
,
0010
0100
2000
0000
,
3001
0000
0200
0000
,
0310
0000
0000
0000
1000
0000
0000
1000
,
0000
0000
0001
0000
0000
0001
0000
0000
,
0010
0100
0020
0000
,
0031
0000
0200
0000
,
0310
0000
2000
0000
,
3100
0000
0010
0100
,
0010
0100
1000
0010
,
0100
0000
0001
0010
,
0100
0000
0000
0000
1000
0000
0000
0001
,
0000
0000
0100
0020
0000
0000
0000
0000
,
0000
0030
0010
1000
,
0100
0000
1000
0010
,
0100
0000
0001
0010
,
0100
0000
0010
0001
,
0100
0010
1000
0001
,
0001
0000
0010
0100
,
0100
0000
1000
0010
,
0010
0000
0100
0001
,
0001
0000
0020
0000
,
0000
0000
0230
0000
,
0000
0000
2300
0000
,
0000
0000
3002
0000
,
0000
0000
1003
0010
,
0100
0000
0001
0010
,
0100
0000
0000
0000
1000
0000
0000
0001
,
0000
0000
0100
0020
0000
0000
0000
0000
,
0000
0000
0000
0000
0000
0030
0000
0000
0000
0000
0000
0000
0000
0000
0200
0000
,
0000
0000
0000
0000
,
0000
0000
0000
0000
,
0000
0000
0000
0000
0000
0300
0000
0000
;

//---------------dance-single - ----------------
#NOTES:
     dance-single:
     :
     Medium:
     7:
     0.252174,0.282276,0.029258,0.224309,0.024381,181.000000,178.000000,3.000000,23.000000,0.000000,0.000000,0.252174,0.282276,0.029258,0.224309,0.024381,181.000000,178.000000,3.000000,23.000000,0.000000,0.000000:
0000
0000
0000
0000
,
0000
0000
0000
0000
,
0000
0000
0000
0000
,
0000
0000
0000
0000
,
0000
0000
0000
0000
,
1000
0000
0000
0001
0010
0000
0000
0000
,
0001
0100
0010
1000
,
0001
0000
0000
1000
0100
0000
0000
0000
,
1000
0010
0100
0001
,
1000
0000
0000
0000
0001
0000
0000
1001
0000
0000
0000
0000
0000
0000
0000
0000
,
0002
0003
0200
0300
,
0010
1000
0001
0000
,
0010
0100
1000
1000
,
0001
0000
0000
0000
1000
0000
0000
1001
0000
0000
0000
0000
0000
0000
0000
0000
,
2000
3000
0020
0030
,
0100
0001
1000
0000
,
0100
0000
0000
0000
0010
0000
0000
0001
0000
2000
0000
0000
0000
0000
0000
0000
,
0000
3000
0100
1000
,
0010
0100
0010
0000
1000
0000
0100
0000
,
0010
0001
0001
0100
,
0010
1000
0010
0000
1000
0000
1000
0000
,
0001
0001
0010
0001
,
0100
0010
0100
0000
0001
0000
0010
0000
,
0100
0000
1000
0000
1000
0000
0010
0100
,
0000
0010
1000
0000
0100
0010
0000
0100
,
1000
0000
0010
0000
0100
0000
0001
1000
,
0100
0010
0002
0103
,
2000
0000
3100
0000
0010
0000
1000
0001
,
0010
0100
2000
3010
,
0002
0000
0013
0000
1000
0000
0100
0010
,
0002
0000
1003
0000
0001
0000
0100
0010
,
2000
0000
3001
0000
0010
0000
0100
0010
,
0000
0001
1000
0002
0000
0000
0203
0000
,
0010
0310
1000
1000
,
0001
0000
0001
0000
0010
0001
0010
0000
,
0100
1000
0100
0000
1000
0000
1000
0000
,
0010
0010
0100
0001
,
1000
0010
1000
0000
0001
0000
0001
0000
,
1000
0000
1000
0000
0100
1000
0100
0000
,
0010
0001
0010
0000
0001
0000
0001
0000
,
0100
0100
0010
1000
,
1001
0000
0002
0000
,
0010
0000
2003
0000
,
0010
0000
3002
0000
,
0100
0000
2003
0100
,
3002
0000
0010
0000
1003
0000
0100
0010
,
0002
0000
1003
0000
0001
0000
0100
0010
,
2000
0000
3001
0000
0010
0000
0100
0010
,
0000
0001
1000
0002
0000
0000
0103
0000
,
0010
0000
0000
0000
0000
0200
0000
0000
0000
0300
0000
0000
0000
0000
0020
0000
,
0000
0000
0000
0000
,
0000
0000
0000
0000
,
0000
0000
0000
0000
0000
0030
0000
0000
;
