#TITLE:Virtual to LIVE;
#SUBTITLE:(ILUNA VERSION);
#ARTIST:にじさんじ;
#TITLETRANSLIT:;
#SUBTITLETRANSLIT:;
#ARTISTTRANSLIT:NIJISANJI;
#GENRE:にじさんじ;
#CREDIT:;
#BANNER:Virtual to LIVE (ILUNA VERSION).png;
#BACKGROUND:Virtual to LIVE (ILUNA VERSION)-bg.png;
#LYRICSPATH:;
#CDTITLE:../cdtitle.png;
#MUSIC:Virtual to LIVE (ILUNA VERSION).ogg;
#OFFSET:1.206000;
#SAMPLESTART:70.330002;
#SAMPLELENGTH:15.000000;
#LASTBEATHINT:0.535600;
#SELECTABLE:YES;
#BPMS:0.000000=156.000000
;
#STOPS:
;
#BGCHANGES:3.125=Virtual to LIVE (ILUNA VERSION).avi=1.000=0=0=0=StretchNoLoop====,
99999=-nosongbg-=1.000=0=0=0 // don't automatically add -songbackground-
;
#KEYSOUNDS:;
#ATTACKS:;

//---------------dance-single - ----------------
#NOTES:
     dance-single:
     :
     Beginner:
     2:
     0.084849,0.124960,0.015427,0.030854,0.000000,77.000000,75.000000,2.000000,4.000000,0.000000,0.000000,0.084849,0.124960,0.015427,0.030854,0.000000,77.000000,75.000000,2.000000,4.000000,0.000000,0.000000:
0000
0000
0000
0000
,
0000
0000
0000
0000
,
0000
0000
0000
0000
,
0000
0000
0000
0000
,
0000
0000
0000
0000
,
0010
0000
0000
0000
,
0000
0000
0000
0000
,
0100
0000
0000
0000
,
0000
0000
0000
0000
,
1000
0000
0000
0000
,
1000
0000
0000
0000
,
0001
0000
0000
0000
,
0000
0000
0000
0000
,
0100
0000
0100
0000
,
0100
0000
0000
0000
,
0010
0000
0000
0000
,
0010
0000
0000
0000
,
1000
0000
0000
0000
,
0100
0000
0000
0000
,
1000
0000
0000
0000
,
1000
0000
0000
0000
,
0001
0000
0000
0000
,
0000
0000
0000
0000
,
0010
0000
0000
0000
,
0010
0000
0000
0000
,
0001
0000
0000
0000
,
0001
0000
0000
0000
,
1000
0000
0000
0000
,
1000
0000
0000
0000
,
0200
0000
0000
0000
,
0300
0000
0000
0000
,
1000
0000
0000
0000
,
1000
0000
0000
0000
,
0010
0000
0000
0000
,
0010
0000
0000
0000
,
0100
0000
0000
0000
,
0100
0000
0000
0000
,
0002
0000
0000
0000
,
0003
0000
0000
0000
,
1000
0000
0000
0000
,
1000
0000
0000
0000
,
0001
0000
0000
0000
,
0001
0000
0000
0000
,
0010
0000
0000
0000
,
0010
0000
0000
0000
,
0100
0000
0100
0000
,
0100
0000
0000
0000
,
1000
0000
0000
0000
,
0010
0000
0000
0000
,
0100
0000
0000
0000
,
0010
0000
0000
0000
,
0001
0000
0000
0000
,
0010
0000
0000
0000
,
1000
0000
0001
0000
,
1000
0000
0000
0000
,
0001
0000
0000
0000
,
0010
0000
0000
0000
,
0100
0000
0000
0000
,
0010
0000
0000
0000
,
1000
0000
0000
0000
,
0010
0000
0000
0000
,
0001
0000
0000
0000
,
1001
0000
0000
0000
,
0100
0000
0000
0000
,
0100
0000
0000
0000
,
0001
0000
0000
0000
,
0010
0000
0000
0000
,
0001
0000
0000
0000
,
0001
0000
0000
0000
,
1000
0000
0000
0000
,
0010
0000
0000
0000
,
0100
0000
0100
0000
,
0100
0000
0000
0000
,
0001
0000
0001
0000
,
0001
0000
0000
0000
,
0010
0000
0010
0000
,
0010
0000
0000
0000
,
1000
0000
0000
0000
,
0001
0000
0000
0000
,
2002
0000
0000
0000
,
0000
0000
0000
0000
,
3003
0000
0000
0000
;

//---------------dance-single - ----------------
#NOTES:
     dance-single:
     :
     Hard:
     11:
     0.455099,0.468598,0.077135,0.570803,0.026997,413.000000,403.000000,10.000000,74.000000,0.000000,0.000000,0.455099,0.468598,0.077135,0.570803,0.026997,413.000000,403.000000,10.000000,74.000000,0.000000,0.000000:
0000
0000
0000
0000
,
0000
0000
0000
0000
,
0000
0000
0000
0000
,
0000
0000
0000
0000
,
0000
0000
0000
0000
,
0010
0000
0010
0100
0010
0000
0010
0000
,
0100
1000
0100
0010
0001
0000
0100
0000
,
0010
0000
0010
0100
0010
0000
0010
0000
,
0100
0001
0100
0010
1000
0000
0100
0000
,
0010
0100
0001
0100
1000
0000
0001
0000
,
0100
0010
0001
0010
1000
0000
0001
0010
,
0002
0000
1003
0100
2000
0000
3010
0000
,
0100
0100
0001
1000
,
1100
0000
0100
0010
0100
0000
0011
0000
,
1000
0001
1000
0001
0100
0000
0010
0000
,
1002
0023
0230
2300
,
3200
0000
0320
0000
0031
0100
0010
1000
,
0002
0203
2300
3200
,
0302
0000
0023
0000
1030
0010
0001
0000
,
2000
0000
3200
0000
0302
0000
0103
1000
,
0001
0100
0001
0100
0010
1000
0001
0000
,
0200
0000
0000
0000
0300
0000
0001
0000
0010
0000
0000
0010
0000
0000
0100
0000
,
2000
0000
0002
3003
,
1000
0100
1000
0100
0010
0000
0010
0001
,
0100
0010
0100
0010
1000
0000
1000
0000
,
0001
0100
0001
0100
0010
0000
0100
0001
,
0010
0100
0010
0100
1000
0000
0001
0000
,
1000
0100
0001
0100
1000
0000
0001
0010
,
1000
0010
0001
1000
0001
0000
0100
0000
,
0020
0000
0030
0100
0002
0000
0000
1003
,
0200
0000
0300
1000
,
0001
0010
0001
0010
0100
0000
0100
1000
,
0010
0100
0010
0100
0001
0000
0001
0000
,
1000
0010
1000
0010
0100
0000
0010
1000
,
0100
0010
0100
0010
0001
0000
1000
0000
,
0001
0010
1000
0010
0001
0000
1000
0100
,
0001
0100
1000
0001
1000
0000
0010
0000
,
0200
0000
0300
0010
2000
0000
0000
3001
,
0020
0000
0000
0000
0030
0000
0100
0001
,
0200
0000
1300
0100
2000
0000
3001
0010
,
0100
1000
0100
0010
0001
0000
0100
1000
,
0200
0000
0301
0100
0002
0000
1003
0010
,
0100
0001
0100
0010
1000
0000
0100
0010
,
0200
0000
0301
0100
2000
0000
3001
0010
,
1000
0010
0100
0010
0001
0000
1000
0000
,
0002
0203
2300
3020
,
0032
0003
1000
1001
,
0001
0100
0010
1000
0001
0000
0100
0001
,
1000
0100
0010
0100
1000
0000
0100
0010
,
0002
0000
0103
0010
2000
0000
3001
0010
,
0100
0001
0100
0010
0001
0000
1000
0100
,
0010
0100
0010
0100
1000
0000
0100
0010
,
0001
0100
1000
0100
0001
0000
1000
0100
,
2000
0000
3001
0010
0002
0000
0103
0010
,
0200
0300
0010
0110
,
1000
0100
0010
0001
1000
0000
0100
1000
,
0001
0100
0010
0100
0001
0000
0100
0010
,
2000
0000
3100
0010
0002
0000
1003
0010
,
0100
1000
0100
0010
1000
0000
0001
0100
,
0010
0100
0010
0100
0001
0000
0100
0010
,
1000
0100
0001
0100
1000
0000
0001
0010
,
0002
0000
1003
0100
2000
0000
3010
0000
,
0100
0100
0001
1000
,
2001
3200
0320
0032
,
0023
0000
0230
0000
1300
0010
0100
0001
,
2000
3020
0032
0023
,
2030
0000
3200
0000
0301
0100
1000
0000
,
0002
0000
0023
0000
2030
0000
3010
0001
,
1000
0010
1000
0010
0100
0001
1000
0000
,
0020
0000
0000
0000
0030
0000
1000
0000
0100
0000
0000
0100
0000
0000
0010
0000
,
0002
0000
2000
3003
,
0001
0000
0000
0000
0110
0000
0000
0000
1000
0000
0000
1000
0000
0000
0001
0000
,
0100
0000
0000
0100
0000
0000
0010
0000
1000
0000
0000
0000
0001
0000
0000
0000
,
0010
0000
0000
0000
1001
0000
0000
0000
0100
0000
0000
0100
0000
0000
0010
0000
,
0001
0000
0000
0001
0000
0000
1000
0000
0010
0000
0000
0000
0100
0000
0000
0000
,
0001
0000
0000
0000
0110
0000
0000
0000
1000
0000
0000
1000
0000
0000
0001
0000
,
0020
0130
0020
0031
,
2000
3020
0032
0203
,
2300
0000
0002
3003
,
0220
0000
0000
0000
,
0000
0000
0000
0000
,
0330
0000
0000
0000
;

//---------------dance-single - ----------------
#NOTES:
     dance-single:
     :
     Easy:
     5:
     0.243528,0.312399,0.053995,0.154271,0.000000,221.000000,214.000000,7.000000,20.000000,0.000000,0.000000,0.243528,0.312399,0.053995,0.154271,0.000000,221.000000,214.000000,7.000000,20.000000,0.000000,0.000000:
0000
0000
0000
0000
,
0000
0000
0000
0000
,
0000
0000
0000
0000
,
0000
0000
0000
0000
,
0000
0000
0000
0000
,
0100
0100
0100
0000
,
1000
0001
0100
0000
,
0010
0010
0010
0000
,
1000
0001
0010
0000
,
0100
1000
0100
0000
,
0010
0001
0010
0000
,
0002
0000
2000
0000
,
3003
0000
0000
0000
,
0100
0000
0100
0000
,
0100
0100
0100
0000
,
1001
0100
0001
0100
,
1000
0100
0010
0010
,
0001
0100
0010
0100
,
0001
1000
0001
0000
,
1000
0100
0010
0001
,
0010
0100
1000
0001
,
1001
0000
0110
0000
,
0200
0000
0300
0000
,
0001
0001
0001
0000
,
0010
0100
0010
0000
,
1000
1000
1000
0000
,
0010
0100
0010
0000
,
0001
1000
0100
0000
,
0010
0001
1000
0000
,
0002
0000
2003
0000
,
0020
0000
3030
0000
,
1000
1000
1000
0000
,
0100
0010
0100
0000
,
0001
0001
0001
0000
,
0100
0010
0100
0000
,
1000
0001
0010
0000
,
0100
1000
0001
0000
,
2000
0000
3002
0000
,
0200
0000
0303
0000
,
0002
0000
1003
0000
,
0100
0010
0100
0000
,
2000
0000
3001
0000
,
0010
0100
0010
0000
,
0200
0000
1300
0000
,
0001
0001
0001
0000
,
0010
0100
0010
0100
,
0010
0000
0000
0000
,
0001
0010
1000
0010
,
0001
0010
0001
0000
,
1000
0100
0001
0100
,
1000
0100
1000
0000
,
0001
0010
0100
0000
,
1000
0010
0100
0000
,
0002
0000
2003
0000
,
3100
0000
0000
0000
,
1000
0100
0001
0100
,
1000
0100
1000
0000
,
0001
0010
1000
0010
,
0001
0010
0001
0000
,
1000
0100
0010
0000
,
0001
0100
0010
0000
,
2000
0000
0002
0000
,
3003
0000
0000
0000
,
1001
0010
1000
0010
,
0001
0010
0100
0100
,
1000
0010
0100
0010
,
1000
0001
1000
0000
,
0001
0010
0100
1000
,
0100
0010
0001
1000
,
1001
0000
0110
0000
,
0002
0000
1003
0000
,
0001
0001
1000
1000
,
0001
0010
0001
0000
,
1000
1000
0001
0001
,
1000
0100
1000
0000
,
0010
0010
0100
0100
,
0010
0100
0010
1000
,
0001
0010
0100
1000
,
0020
0000
0130
0000
,
2002
0000
0000
0000
,
0000
0000
0000
0000
,
3003
0000
0000
0000
;

//---------------dance-single - ----------------
#NOTES:
     dance-single:
     :
     Medium:
     8:
     0.337192,0.374878,0.030854,0.246834,0.007714,306.000000,302.000000,4.000000,32.000000,0.000000,0.000000,0.337192,0.374878,0.030854,0.246834,0.007714,306.000000,302.000000,4.000000,32.000000,0.000000,0.000000:
0000
0000
0000
0000
,
0000
0000
0000
0000
,
0000
0000
0000
0000
,
0000
0000
0000
0000
,
0000
0000
0000
0000
,
1000
1000
0001
0001
,
1000
0100
0010
0000
0001
0000
0000
0000
,
0001
0001
1000
1000
,
0001
0010
0100
0000
1000
0000
0000
0000
,
0001
0100
0010
0000
0001
0000
0000
0000
,
1000
0100
0010
0000
1000
0000
0001
0000
,
2000
0000
3000
0200
0020
0000
0000
0000
,
0330
0000
0000
0000
,
0001
0000
0001
0010
0001
0000
0001
0000
,
0100
0010
0100
0000
0110
0000
0000
0000
,
0001
0100
0010
0100
,
0001
0000
0010
0000
0100
0010
0100
0000
,
1000
0100
0010
0100
,
1000
0000
0010
0000
0100
0010
0100
0000
,
0001
0010
1000
0010
,
0001
0010
0001
0000
1000
0000
0100
0000
,
2000
0000
0000
0000
3000
0000
0000
0000
0010
0000
0000
0100
0000
0000
0001
0000
,
2000
0000
0002
3003
,
1000
1000
0100
0100
,
0010
0001
0010
0000
0100
0000
0000
0000
,
1000
1000
0001
0001
,
0100
0010
0100
0000
0001
0000
0000
0000
,
1000
0100
0001
0000
0100
0000
1000
0000
,
0001
0100
1000
0000
0100
0000
0001
0000
,
2000
0000
3000
0100
0020
0000
0030
0001
,
2000
0000
3000
1000
,
0001
0001
0010
0010
,
0100
1000
0100
0000
0010
0000
0000
0000
,
0001
0001
1000
1000
,
0010
0100
0010
0000
1000
0000
0000
0000
,
0001
0010
1000
0000
0010
0000
0001
0000
,
1000
0010
0001
0000
0010
0000
1000
0000
,
0002
0000
0003
0010
0200
0000
0300
1000
,
0002
0000
0003
1000
,
0002
0000
0013
0001
0010
0000
0000
0100
,
1000
0001
1000
0000
0001
0000
0100
0000
,
0020
0000
1030
0010
1000
0000
0000
0010
,
0100
0010
1000
0000
0100
0000
0010
0000
,
0002
0000
0013
0001
0010
0000
0000
0100
,
1000
0001
1000
0000
0001
0000
0100
0000
,
0002
0023
0230
2300
,
0002
3003
0000
1001
,
1000
0000
1000
0100
1000
0000
0001
0000
,
0100
0010
1000
0000
0001
0000
0000
0000
,
0100
0000
0100
0010
0100
0000
0010
0000
,
1000
0100
0010
0000
0001
0000
0000
1000
,
0100
0010
0001
0000
0100
0000
0000
0001
,
0010
0100
1000
0000
0010
0000
0000
1000
,
0200
0000
0300
0100
0020
0000
0030
0010
,
0002
0003
1000
1001
,
0001
0000
0001
0010
0001
0000
1000
0000
,
0010
0100
0001
0000
1000
0000
0000
0000
,
0010
0000
0010
0100
0010
0000
0100
0000
,
0001
0010
0100
0000
1000
0000
0000
0001
,
0010
0100
1000
0000
0010
0000
0000
1000
,
0100
0010
0001
0000
0100
0000
0001
0000
,
2000
0000
3000
0200
0020
0000
0000
0000
,
0330
0000
0000
0000
,
0001
0100
0010
0100
,
0001
0000
0010
0000
0100
0010
0100
0000
,
1000
0100
0010
0100
,
1000
0000
0010
0000
0100
0010
0100
0000
,
0001
0010
1000
0010
,
0001
0010
0001
0000
1000
0000
0100
0000
,
2000
0000
0000
0000
3000
0000
0000
0000
0010
0000
0000
0100
0000
0000
0001
0000
,
2000
0000
0002
3003
,
0100
0100
0010
0010
,
0001
0010
1000
0000
0001
0000
0000
0000
,
0010
0010
0100
0100
,
0001
0100
1000
0000
0001
0000
0000
0000
,
1000
1000
0001
0001
,
0010
1000
0100
0001
,
0010
0100
0010
0001
,
0200
0000
0310
0000
,
2002
0000
0000
0000
,
0000
0000
0000
0000
,
3003
0000
0000
0000
;

//---------------dance-double - ----------------
#NOTES:
     dance-double:
     :
     Easy:
     5:
     0.236916,0.281159,0.046281,0.154271,0.000000,215.000000,209.000000,6.000000,20.000000,0.000000,0.000000,0.236916,0.281159,0.046281,0.154271,0.000000,215.000000,209.000000,6.000000,20.000000,0.000000,0.000000:
00000000
00000000
00000000
00000000
,
00000000
00000000
00000000
00000000
,
00000000
00000000
00000000
00000000
,
00000000
00000000
00000000
00000000
,
00000000
00000000
00000000
00000000
,
00010000
00001000
00001000
00000000
,
00000010
00001000
00010000
00000000
,
00001000
00010000
00010000
00000000
,
01000000
00010000
00001000
00000000
,
00010000
00001000
00100000
00000000
,
00001000
00010000
00000010
00000000
,
00020000
00000000
00002000
00000000
,
00033000
00000000
00000000
00000000
,
00010000
00000000
00010000
00000000
,
00010000
00001000
00011000
00000000
,
00000100
00010000
00000100
00010000
,
00000010
00001000
00000010
00000000
,
00000100
00000001
00000100
00000001
,
00001000
00000100
00001000
00000000
,
00000100
00010000
00001000
00010000
,
00001000
00010000
00100000
00000000
,
01100000
00000000
10010000
00000000
,
02000000
00000000
03000000
00000000
,
10000000
10000000
10000000
00000000
,
01000000
00100000
01000000
00000000
,
00010000
00010000
00010000
00000000
,
00001000
00010000
00001000
00000000
,
00010000
00000100
00010000
00000000
,
00001000
00000100
00001000
00000000
,
00000200
00000000
00000302
00000000
,
00002000
00000000
00003003
00000000
,
00000001
00000001
00000001
00000000
,
00000010
00000100
00000010
00000000
,
00001000
00001000
00001000
00000000
,
00010000
00001000
00010000
00000000
,
00001000
00100000
00001000
00000000
,
00010000
00100000
00010000
00000000
,
00200000
00000000
20300000
00000000
,
00020000
00000000
30030000
00000000
,
20000000
00000000
31000000
00000000
,
00100000
01000000
00100000
00000000
,
00020000
00000000
01030000
00000000
,
00001000
00010000
00001000
00000000
,
00020000
00000000
00031000
00000000
,
00000010
00000001
00000010
00000000
,
00001000
00001000
00010000
00010000
,
00001000
00000000
00000000
00000000
,
00100000
01000000
00010000
01000000
,
00100000
01000000
10000000
00000000
,
01000000
00100000
00010000
00100000
,
01000000
00100000
00001000
00000000
,
00010000
00001000
00010000
00000000
,
00000010
00000100
00000010
00000000
,
00000200
00000000
00000302
00000000
,
00001003
00000000
00000000
00000000
,
00000100
00000010
00001000
00000010
,
00000100
00000010
00000001
00000000
,
00000010
00000100
00001000
00000100
,
00000010
00000100
00010000
00000000
,
00001000
00010000
00001000
00000000
,
01000000
00100000
01000000
00000000
,
00020000
00000000
20000000
00000000
,
30030000
00000000
00000000
00000000
,
01000000
00001000
01000000
00001000
,
00100000
00010000
00100000
00000000
,
01000000
10000000
01000000
10000000
,
00010000
01000000
00010000
00000000
,
01000000
00001000
00010000
00001000
,
00010000
00001000
00000010
00000000
,
00000110
00000000
00001001
00000000
,
00000200
00000000
00000300
00000000
,
00000001
00000001
00000100
00000100
,
00000010
00001000
00000010
00000000
,
00010000
00010000
00001000
00001000
,
00100000
00010000
00100000
00000000
,
01000000
01000000
10000000
10000000
,
00100000
01000000
00100000
00010000
,
00001000
00000010
00000100
00000010
,
00000002
00000000
00001003
00000000
,
00002002
00000000
00000000
00000000
,
00000000
00000000
00000000
00000000
,
00003003
00000000
00000000
00000000
;

//---------------dance-double - ----------------
#NOTES:
     dance-double:
     :
     Medium:
     8:
     0.329479,0.374878,0.030854,0.246834,0.007714,299.000000,295.000000,4.000000,32.000000,0.000000,0.000000,0.329479,0.374878,0.030854,0.246834,0.007714,299.000000,295.000000,4.000000,32.000000,0.000000,0.000000:
00000000
00000000
00000000
00000000
,
00000000
00000000
00000000
00000000
,
00000000
00000000
00000000
00000000
,
00000000
00000000
00000000
00000000
,
00000000
00000000
00000000
00000000
,
00010000
00010000
00001000
00001000
,
01000000
00010000
01000000
00000000
00100000
00000000
00000000
00000000
,
00010000
00010000
00001000
00001000
,
00000010
00000001
00000010
00000000
00000100
00000000
00000000
00000000
,
00001000
00000100
00010000
00000000
00001000
00000000
00000000
00000000
,
00100000
00010000
01000000
00000000
00100000
00000000
10000000
00000000
,
02000000
00000000
03000000
00020000
00002000
00000000
00000000
00000000
,
00033000
00000000
00000000
00000000
,
00010000
00000000
00010000
00001000
00010000
00000000
00010000
00000000
,
00000010
00001000
00000010
00000000
00000110
00000000
00000000
00000000
,
00000001
00000010
00001000
00000010
,
00000001
00000000
00000010
00000000
00001000
00010000
00001000
00000000
,
00010000
00100000
10000000
00100000
,
00010000
00000000
00100000
00000000
10000000
00010000
10000000
00000000
,
01000000
00010000
00001000
00010000
,
01000000
00100000
01000000
00000000
10000000
00000000
00010000
00000000
,
02000000
00000000
00000000
00000000
03000000
00000000
00000000
00000000
00100000
00000000
00000000
00010000
00000000
00000000
00001000
00000000
,
00020000
00000000
00002000
00033000
,
00010000
00010000
00000100
00000100
,
00000010
00000100
00000010
00000000
00000001
00000000
00000000
00000000
,
00001000
00001000
00000010
00000010
,
00000100
00001000
00000100
00000000
00000010
00000000
00000000
00000000
,
00001000
00000001
00000010
00000000
00000100
00000000
00000010
00000000
,
00000100
00010000
00001000
00000000
00010000
00000000
01000000
00000000
,
20000000
00000000
30000000
01000000
00200000
00000000
00300000
00001000
,
00020000
00000000
00030000
00010000
,
00001000
00001000
00100000
00100000
,
01000000
00100000
01000000
00000000
10000000
00000000
00000000
00000000
,
00010000
00010000
01000000
01000000
,
00100000
00010000
00100000
00000000
01000000
00000000
00000000
00000000
,
00010000
10000000
01000000
00000000
00100000
00000000
01000000
00000000
,
00100000
00001000
00010000
00000000
00001000
00000000
00000010
00000000
,
00000002
00000000
00000003
00000010
00000200
00000000
00000300
00010000
,
00002000
00000000
00003000
00001000
,
00200000
00000000
00300000
00100000
01000000
00000000
00000000
10000000
,
01000000
00100000
00010000
00000000
01000000
00000000
00100000
00000000
,
00020000
00000000
00030000
00010000
00001000
00000000
00000000
01000000
,
00001000
00010000
00000010
00000000
00000100
00000000
00000001
00000000
,
00000020
00000000
00000030
00000010
00000100
00000000
00000000
00001000
,
00000100
00000010
00000001
00000000
00000100
00000000
00000010
00000000
,
00000200
00002300
00023000
00032000
,
00020000
00033000
00000000
00011000
,
00100000
00000000
00100000
01000000
00100000
00000000
01000000
00000000
,
10000000
00010000
01000000
00000000
00100000
00000000
00000000
00000000
,
01000000
00000000
01000000
00100000
01000000
00000000
00001000
00000000
,
00010000
00001000
00010000
00000000
00000010
00000000
00000000
00000000
,
00001000
00000010
00000100
00000000
00000001
00000000
00000000
00000000
,
00000010
00000100
00010000
00000000
00001000
00000000
00000000
00010000
,
00002000
00000000
00003000
00001000
00000020
00000000
00000030
00000010
,
00000002
00000003
00001000
00001001
,
00000010
00000000
00000010
00000100
00000010
00000000
00000100
00000000
,
00000001
00001000
00000100
00000000
00000010
00000000
00000000
00000000
,
00000100
00000000
00000100
00000010
00000100
00000000
00010000
00000000
,
00001000
00010000
00001000
00000000
00100000
00000000
00000000
00000000
,
00010000
00100000
01000000
00000000
10000000
00000000
00000000
00000000
,
01000000
00100000
00001000
00000000
00010000
00000000
00000100
00000000
,
00000020
00000000
00000030
00002000
00020000
00000000
00000000
00000000
,
00033000
00000000
00000000
00000000
,
10000000
01000000
00010000
01000000
,
10000000
00000000
01000000
00000000
00010000
00001000
00010000
00000000
,
00001000
00000100
00000001
00000100
,
00001000
00000000
00000100
00000000
00000001
00001000
00000001
00000000
,
00000010
00001000
00010000
00001000
,
00000010
00000100
00000010
00000000
00000001
00000000
00001000
00000000
,
00000020
00000000
00000000
00000000
00000030
00000000
00000000
00000000
00000100
00000000
00000000
00001000
00000000
00000000
00010000
00000000
,
00002000
00000000
00020000
00033000
,
00010000
00010000
00001000
00001000
,
00010000
01000000
10000000
00000000
00010000
00000000
00000000
00000000
,
01000000
01000000
00100000
00100000
,
01000000
00010000
00100000
00000000
00001000
00000000
00000000
00000000
,
00010000
00010000
00001000
00001000
,
00000010
00000001
00000010
00001000
,
00010000
01000000
10000000
00100000
,
00020000
00000000
00031000
00000000
,
00022000
00000000
00000000
00000000
,
00000000
00000000
00000000
00000000
,
00033000
00000000
00000000
00000000
;

//---------------dance-double - ----------------
#NOTES:
     dance-double:
     :
     Hard:
     11:
     0.450692,0.468598,0.077135,0.578516,0.026997,409.000000,399.000000,10.000000,75.000000,0.000000,0.000000,0.450692,0.468598,0.077135,0.578516,0.026997,409.000000,399.000000,10.000000,75.000000,0.000000,0.000000:
// measure 0
00000000
00000000
00000000
00000000
,  // measure 1
00000000
00000000
00000000
00000000
,  // measure 2
00000000
00000000
00000000
00000000
,  // measure 3
00000000
00000000
00000000
00000000
,  // measure 4
00000000
00000000
00000000
00000000
,  // measure 5
00000001
00000000
00000001
00000010
00000001
00000000
00000001
00000000
,  // measure 6
00000100
00001000
00010000
00100000
10000000
00000000
00000000
00000000
,  // measure 7
10000000
00000000
10000000
00100000
10000000
00000000
10000000
00000000
,  // measure 8
01000000
00010000
00001000
00000010
00000001
00000000
00000000
00000010
,  // measure 9
00000100
00000010
00000100
00010000
00001000
00000000
00000000
00100000
,  // measure 10
00010000
10000000
01000000
00100000
01000000
00000000
10000000
00000000
,  // measure 11
00200000
00000000
00300000
00020000
00002000
00000000
00033000
00000000
,  // measure 12
00100000
00100000
00001000
00010000
,  // measure 13
00011000
00000000
00010000
00001000
00010000
00000000
00000110
00000000
,  // measure 14
00001000
00000001
00001000
00000001
00000100
00000000
00000010
00000000
,  // measure 15
00001002
00000023
00002030
00023000
,  // measure 16
00230000
00000000
20300000
00000000
31000000
00100000
00010000
10000000
,  // measure 17
00020000
02030000
23000000
32000000
,  // measure 18
03020000
00000000
00230000
00000000
01300000
10000000
00010000
00000000
,  // measure 19
20000000
00000000
32000000
00000000
03020000
00000000
01030000
00010000
,  // measure 20
00001000
00010000
00001000
00000100
00001000
00000100
00000001
00000000
,  // measure 21
00002000
00000000
00000000
00000000
00003000
00000000
00000100
00000000
00000010
00000000
00000000
00000010
00000000
00000000
00001000
00000000
,  // measure 22
00020000
00000000
00002000
00033000
,  // measure 23
00100000
00010000
00100000
00010000
10000000
00000000
01000000
10000000
,  // measure 24
00010000
01000000
00010000
01000000
00100000
00000000
10000000
00000000
,  // measure 25
00010000
00100000
00010000
00100000
01000000
00000000
10000000
01000000
,  // measure 26
00010000
00001000
00010000
00001000
00010000
00000000
00001000
00000000
,  // measure 27
00000100
00000010
00000100
00001000
00010000
00000000
00001000
00010000
,  // measure 28
01000000
10000000
01000000
00010000
00001000
00000000
00100000
00000000
,  // measure 29
00020000
00000000
00030000
01000000
00002000
00000000
00000000
00013000
,  // measure 30
00000200
00000000
00000300
00000010
,  // measure 31
00000100
00001000
00000100
00001000
00000001
00000000
00000010
00000001
,  // measure 32
00001000
00000010
00001000
00000010
00000100
00000000
00000001
00000000
,  // measure 33
00001000
00000100
00001000
00000100
00000010
00000000
00000001
00000010
,  // measure 34
00001000
00010000
00001000
00010000
00001000
00000000
00010000
00000000
,  // measure 35
00100000
01000000
00100000
00010000
00001000
00000000
00010000
00001000
,  // measure 36
00000010
00000001
00000010
00001000
00010000
00000000
00000100
00000000
,  // measure 37
00002000
00000000
00003000
00000010
00020000
00000000
00000000
00031000
,  // measure 38
00200000
00000000
00000000
00000000
00300000
00000000
01000000
10000000
,  // measure 39
02000000
00000000
03100000
00010000
00200000
00000000
01300000
10000000
,  // measure 40
00100000
10000000
01000000
00010000
00001000
00000000
00000010
00000001
,  // measure 41
00000020
00000000
00000130
00001000
00000200
00000000
00000310
00000001
,  // measure 42
00000100
00000001
00000010
00001000
00010000
00000000
01000000
10000000
,  // measure 43
00200000
00000000
10300000
01000000
00200000
00000000
00310000
01000000
,  // measure 44
00100000
01000000
00010000
00100000
01000000
00000000
00010000
00000000
,  // measure 45
02000000
23000000
30200000
00320000
,  // measure 46
00032000
00003000
00010000
00011000
,  // measure 47
00001000
00010000
00001000
00000010
00000001
00000000
00001000
00000100
,  // measure 48
00000010
00000001
00000010
00000100
00001000
00000000
00000010
00000100
,  // measure 49
00000002
00000000
00001003
00000100
00020000
00000000
00030100
00001000
,  // measure 50
00000001
00000100
00000010
00000100
00000001
00000000
00001000
00000100
,  // measure 51
00010000
00001000
00010000
00001000
00100000
00000000
00001000
00010000
,  // measure 52
00100000
00010000
00100000
10000000
00010000
00000000
01000000
00100000
,  // measure 53
20000000
00000000
31000000
10000000
00020000
00000000
00130000
00010000
,  // measure 54
02000000
03000000
00001000
00011000
,  // measure 55
00010000
00001000
00010000
01000000
10000000
00000000
00010000
00100000
,  // measure 56
01000000
10000000
01000000
00100000
00010000
00000000
01000000
00100000
,  // measure 57
20000000
00000000
30010000
00100000
00002000
00000000
00103000
00010000
,  // measure 58
10000000
00100000
01000000
00100000
10000000
00000000
00010000
00100000
,  // measure 59
00001000
00010000
00001000
00010000
00000100
00000000
00010000
00001000
,  // measure 60
00000100
00001000
00000100
00000001
00001000
00000000
00000001
00000100
,  // measure 61
00000020
00000000
00001030
00000100
00020000
00000000
00031000
00000000
,  // measure 62
00100000
00100000
00010000
10000000
,  // measure 63
20010000
32000000
03020000
00032000
,  // measure 64
00003200
00000000
00000302
00000000
00000013
00000100
00001000
00000001
,  // measure 65
00002000
00003020
00000032
00000023
,  // measure 66
00002030
00000000
00003200
00000000
00000310
00000001
00001000
00000000
,  // measure 67
00000002
00000000
00000023
00000000
00002030
00000000
00003010
00001000
,  // measure 68
00010000
00001000
00010000
00100000
00010000
00100000
10000000
00000000
,  // measure 69
00020000
00000000
00000000
00000000
00030000
00000000
00100000
00000000
01000000
00000000
00000000
01000000
00000000
00000000
00010000
00000000
,  // measure 70
00002000
00000000
00020000
00033000
,  // measure 71
00001000
00000000
00000000
00000000
00000110
00000000
00000000
00000000
00000001
00000000
00000000
00000001
00000000
00000000
00000100
00000000
,  // measure 72
00001000
00000000
00000000
00001000
00000000
00000000
00010000
00000000
01000000
00000000
00000000
00000000
10000000
00000000
00000000
00000000
,  // measure 73
00010000
00000000
00000000
00000000
01100000
00000000
00000000
00000000
10000000
00000000
00000000
10000000
00000000
00000000
00100000
00000000
,  // measure 74
00010000
00000000
00000000
00010000
00000000
00000000
00001000
00000000
00000010
00000000
00000000
00000000
00000001
00000000
00000000
00000000
,  // measure 75
00001000
00000000
00000000
00000000
00000110
00000000
00000000
00000000
00000001
00000000
00000000
00000001
00000000
00000000
00000010
00000000
,  // measure 76
00002000
00013000
00200000
10300000
,  // measure 77
02000000
03020000
00032000
00003200
,  // measure 78
00000302
00000000
00002000
00003003
,  // measure 79
00000220
00000000
00000000
00000000
,  // measure 80
00000000
00000000
00000000
00000000
,  // measure 81
00000330
00000000
00000000
00000000
;
