#TITLE:バイオレンストリガー feat. 初音ミク;
#SUBTITLE:;
#ARTIST:八王子P;
#TITLETRANSLIT:Violence Trigger feat. Hatsune Miku;
#SUBTITLETRANSLIT:;
#ARTISTTRANSLIT:8#Prince;
#GENRE:Anime/Game;
#CREDIT:;
#BANNER:Violence Trigger feat. Hatsune Miku.png;
#BACKGROUND:Violence Trigger feat. Hatsune Miku-bg.png;
#LYRICSPATH:;
#CDTITLE:../cdtitle.png;
#MUSIC:Violence Trigger feat. Hatsune Miku.ogg;
#OFFSET:-0.064000;
#SAMPLESTART:50.266998;
#SAMPLELENGTH:15.000000;
#SELECTABLE:YES;
#BPMS:0.000000=196.000000
;
#STOPS:
;
#BGCHANGES:3.000=Violence Trigger feat. Hatsune Miku.avi=1.000=0=0=0=StretchNoLoop====,
99999=-nosongbg-=1.000=0=0=0 // don't automatically add -songbackground-
;
#KEYSOUNDS:;
#ATTACKS:;

//---------------dance-single - ----------------
#NOTES:
     dance-single:
     :
     Challenge:
     15:
     0.740470,0.901961,0.295539,0.181870,0.153453,456.000000,430.000000,26.000000,16.000000,0.000000,0.000000,0.740470,0.901961,0.295539,0.181870,0.153453,456.000000,430.000000,26.000000,16.000000,0.000000,0.000000:
0000
0000
0000
0000
,
0000
0000
0000
0000
,
0000
0000
0000
0000
,
0000
0000
0000
0000
,
0000
0000
0000
0000
,
1000
0001
1000
0001
1000
0001
1000
0001
,
0010
0100
0010
0100
0010
0100
0010
0100
,
1000
0100
0010
0001
0100
0010
1000
1100
,
0000
0101
0000
1100
0000
0100
0010
0000
,
0110
0000
0010
0001
0100
0001
0100
0010
,
1000
0100
1000
0001
0010
0100
0010
0000
,
0110
0000
0010
0001
0100
0010
0100
1000
,
0100
0001
0100
0001
0020
0000
0030
0000
,
0110
0000
0100
1000
0010
0100
0010
1000
,
0001
0010
0001
1000
0100
0010
0200
0000
,
1300
0000
0100
0000
1000
0000
0001
0100
0001
0000
0100
0000
0010
0000
2000
0000
,
0000
0000
0000
3001
,
1100
0000
1000
0100
0010
0001
0010
0001
,
0100
0010
0100
0010
1000
0100
0010
0001
,
1000
0100
1000
0001
0100
0001
0100
0010
,
1000
0001
0010
0001
1000
0001
0100
0010
,
1000
0000
1100
0000
0001
0100
0001
1000
,
0100
0001
1000
0010
0001
0010
0100
1000
,
0010
0000
0010
0000
1000
0000
0001
0000
0010
0000
0100
1000
0100
0000
1100
0000
,
0000
0000
1000
0000
0100
0010
0100
0000
0001
0000
0100
0000
1000
0001
1000
0001
,
1000
0010
0100
0001
0100
0010
1000
0001
,
0010
0100
0010
0100
1000
0100
0010
0001
,
1000
0010
1000
0010
0100
0001
0100
0001
,
1000
0000
0100
0000
1000
0000
0001
0100
0001
0000
0100
0000
0010
0000
1000
0000
,
0010
0010
0110
0000
1000
0001
0100
0001
,
1000
0100
1000
0100
0010
0001
0010
0100
,
1000
0010
1000
0100
1000
0001
0100
0001
,
1000
0000
1000
0000
0010
0000
0100
0010
0100
0000
0001
0000
1000
0001
1000
0001
,
2000
0000
3000
0000
,
0001
0000
0000
0200
0000
0000
0300
0000
,
0010
0000
1000
0000
0100
1000
0002
0000
,
0000
0000
0003
0000
,
0001
0100
0001
0000
0100
1000
0100
0000
,
1000
0010
1000
0010
0001
0010
0001
0000
,
1000
0100
1000
0100
0010
0001
1000
1010
,
0000
1100
0000
0101
0000
0100
0010
0000
,
1100
0001
0100
0001
1000
0100
0010
0100
,
1000
0000
0100
0000
1000
0000
0001
0010
0100
0000
1000
0000
0100
0000
0010
0000
,
0001
0001
0100
0010
0100
1000
0100
0010
,
1000
0000
1000
0000
0001
0100
0002
0000
0000
0000
0103
0001
1000
0100
1000
0100
,
1000
0100
0010
0001
0010
0010
0000
0210
,
0000
0000
1300
0000
0001
0000
0010
0000
0100
0000
1000
0001
0100
0000
0001
0000
,
0100
0000
0010
0000
0001
0000
0010
1000
0010
0000
0100
0000
0001
0010
0200
0000
,
0000
0000
1300
0100
1000
0000
0001
0000
0010
0100
1000
0100
0010
0100
0010
0001
,
1000
1000
0100
0100
0010
0010
0001
0001
,
1000
0100
0010
0001
0100
0010
1000
0000
,
0001
0001
0100
0100
0010
1000
0100
0010
,
0100
1000
0001
0020
0000
0130
0010
0100
,
1100
1000
1001
0000
0101
0001
0100
0020
,
0000
0000
0130
0000
0001
0000
1000
0000
0001
0000
0100
0001
0100
0000
0010
0000
,
1000
0000
0001
0010
0001
0000
0010
0100
0010
0000
0001
0000
1000
0000
2100
0000
,
0000
0000
3001
0000
1000
0000
0010
0100
0010
0000
0100
0000
0010
0000
0000
0000
,
0110
0000
0010
1000
0100
1000
0100
0010
,
0001
0100
0001
1000
0010
0100
0010
0000
,
0110
0000
0010
1000
0100
0010
0100
0001
,
0100
1000
0100
1000
0020
0000
0030
0000
,
0110
0000
0100
0001
0010
0100
0010
0001
,
1000
0010
1000
0001
0100
0010
0200
0000
,
0301
0000
0100
0000
0001
0000
1000
0100
1000
0000
0100
0000
0010
0000
0001
0000
,
0000
0101
0000
1010
0000
0011
0000
2200
,
0000
0000
0000
0000
,
0000
0000
0000
0000
,
0000
0000
0000
0000
,
0000
0000
0000
0000
,
3300
0000
0000
0000
;

//---------------dance-single - ----------------
#NOTES:
     dance-single:
     :
     Hard:
     13:
     0.654407,0.705882,0.295539,0.181870,0.000000,403.000000,377.000000,26.000000,16.000000,0.000000,0.000000,0.654407,0.705882,0.295539,0.181870,0.000000,403.000000,377.000000,26.000000,16.000000,0.000000,0.000000:
0000
0000
0000
0000
,
0000
0000
0000
0000
,
0000
0000
0000
0000
,
0000
0000
0000
0000
,
0000
0000
0000
0000
,
2000
0000
3001
0000
0000
0002
0000
0000
,
0103
0010
0000
1000
0000
0001
0100
0010
,
1000
0100
1000
0100
0010
0001
1000
1001
,
0000
0110
0000
1001
0000
0000
0100
0000
,
1001
0000
0001
0010
0100
1000
0100
1000
,
0100
0010
0001
0010
0100
0000
1000
0000
,
0110
0000
0010
0001
1000
0010
0100
0001
,
0010
0100
0010
0100
0020
0000
0030
0000
,
0110
0000
0001
1000
0100
1000
0001
0100
,
0010
0100
0000
1100
0000
0001
0100
0000
,
0001
0010
0001
0010
1000
0010
0001
2000
,
0000
0000
0000
3100
,
1001
0000
1000
0010
0100
0001
0100
0001
,
1000
0100
1000
0100
0010
0001
0100
0010
,
1000
0001
0010
0001
1000
0100
1000
0001
,
0010
0100
1000
0001
0100
0010
1000
0001
,
1000
0000
1100
0000
0001
0100
0001
0000
,
1000
0010
1000
0001
0010
0100
0010
0001
,
1000
0001
0010
0100
1000
0001
1000
1001
,
0000
0001
0010
1000
0010
0001
0010
0000
,
0110
0100
1000
0100
0010
0001
0010
0001
,
1000
0010
1000
0010
0100
0001
0010
0100
,
1000
0001
0100
0001
1000
0010
1000
0001
,
0100
0010
1000
0001
0010
0100
1000
0001
,
1000
0010
1010
0000
0001
0000
0011
0000
,
1000
0100
1000
0001
0100
0010
0100
0001
,
1000
0001
0100
0010
1000
0001
1000
0100
,
0001
0100
1000
0001
0000
0010
0100
1000
,
0002
0000
0003
0000
,
1000
0000
0000
0200
0000
0000
0300
0000
,
1000
0000
0001
0000
1000
0010
2000
0000
,
0000
0000
3000
0000
,
0001
0100
0001
0000
1000
0010
1000
0000
,
0001
0010
0001
0010
0100
1000
0100
0000
,
0010
0001
1000
0010
0100
0001
1000
1100
,
0000
0101
0000
1100
0000
0000
0010
0000
,
1001
0001
0010
0100
1000
0010
1000
0010
,
0100
0001
0010
0100
1000
0100
1000
0001
,
0010
0100
1000
0001
1000
0100
0010
0001
,
1000
0010
0100
0020
0000
0130
0001
1000
,
0100
0010
0100
1000
0001
0001
0000
2100
,
0000
3001
1000
0010
0100
0001
1000
0000
,
0001
0010
0001
0010
1000
0010
0001
2000
,
0000
3001
0010
0100
1000
0010
0100
0001
,
1000
0100
1000
0000
0100
0001
0100
0000
,
1000
0100
1000
0001
0100
0010
1000
0000
,
0001
0010
0001
0000
0010
1000
0010
0000
,
0001
0010
0001
2000
0000
3100
0010
0001
,
0100
0001
1001
0000
0001
0010
0100
0020
,
0000
1030
0010
0001
0010
0100
1000
0000
,
0100
0010
0100
0010
0001
0100
0010
2000
,
0000
3010
0100
0001
0010
0010
0001
0000
,
1001
0000
1000
0010
0100
0001
0100
0001
,
0100
0010
1000
0010
0100
0000
0001
0000
,
0110
0000
0010
1000
0001
0010
0100
1000
,
0010
0100
0010
0100
0020
0000
0030
0000
,
0110
0000
1000
0001
0100
0001
1000
0100
,
0010
0100
0000
0101
0000
1000
0100
0000
,
1000
0010
1000
0010
0001
0010
1000
0001
,
0000
0110
0000
1000
0000
0110
0000
2002
,
0000
0000
0000
0000
,
0000
0000
0000
0000
,
0000
0000
0000
0000
,
0000
0000
0000
0000
,
3003
0000
0000
0000
;

//---------------dance-single - ----------------
#NOTES:
     dance-single:
     :
     Medium:
     10:
     0.480656,0.549020,0.250071,0.159136,0.000000,296.000000,274.000000,22.000000,14.000000,0.000000,0.000000,0.480656,0.549020,0.250071,0.159136,0.000000,296.000000,274.000000,22.000000,14.000000,0.000000,0.000000:
0000
0000
0000
0000
,
0000
0000
0000
0000
,
0000
0000
0000
0000
,
0000
0000
0000
0000
,
0000
0000
0000
0000
,
0000
0000
0000
0000
,
0000
0000
0000
0000
,
0000
0000
0000
0000
0000
0000
0000
0010
,
0000
0100
0000
0010
0000
0000
0010
0000
,
1001
0000
0001
0010
0100
0000
1000
0000
,
0100
0010
0001
0000
1000
0000
0100
0000
,
1001
0000
1000
0001
0100
0010
1000
0000
,
0100
0010
0100
0000
2000
0000
3000
0000
,
1001
0000
1000
0000
0001
0100
0001
0000
,
0100
0010
0000
1000
0000
1000
0001
0000
,
1000
0100
0010
0000
0001
1000
0001
2000
,
0000
0000
0000
3001
,
1001
0001
0100
0100
,
1000
0000
0100
0000
0001
0100
0010
0000
,
1000
1100
0100
0101
,
0001
1000
0010
0000
0100
0001
1000
0000
,
0010
0000
0011
0000
1000
0100
0001
0000
,
0100
1000
0100
0000
1000
0000
0001
0000
,
0100
0000
0100
0000
0010
1000
0000
1001
,
0000
0001
0010
0000
0100
1000
0100
0000
,
1001
1000
0010
0010
,
0001
0000
0010
0000
1000
0010
0100
0000
,
0001
0011
0010
1010
,
1000
0001
0100
0000
0010
1000
0001
0000
,
0100
0101
1000
1100
,
0010
0001
0010
0000
0001
0000
0001
0000
,
0100
0001
0100
0000
0010
1000
0001
0000
,
0010
0000
0100
1000
0000
0100
0010
0000
,
0002
0000
0003
0000
,
0001
0000
0000
2000
0000
0000
3000
0000
,
0100
0000
1000
0000
0001
0100
0002
0000
,
0000
0000
0003
0000
,
0100
0010
0100
0000
0010
0000
0010
0000
,
1000
0100
1000
0000
0001
0000
0001
0000
,
0100
0001
0000
0001
0010
0000
0010
0100
,
0000
0100
0000
0010
0000
0000
0100
0000
,
1000
0001
1000
0000
0010
0000
0010
0000
,
0100
0000
0010
0000
1000
0001
1000
0000
,
0001
0010
0001
0000
0010
0000
0100
0000
,
1000
0000
0100
0002
0000
0103
1000
0000
,
0001
0100
0001
0000
1000
1000
0000
0020
,
0000
0130
0000
0100
0001
1000
0100
0000
,
0010
0001
0010
0000
0100
1000
0100
2000
,
0000
3001
0100
0000
0001
0100
0010
0000
,
1000
1100
1000
1010
,
0001
0000
0011
0000
1000
0100
1000
0000
,
0001
0101
0001
0011
,
0100
0000
1000
0020
0000
1030
0010
1000
,
0001
0010
0001
0000
1000
0100
1000
0200
,
0000
0310
0000
0010
0001
1000
0010
0000
,
0100
0001
0100
0000
0010
1000
0010
2000
,
0000
3001
0010
0000
0001
0010
0100
0000
,
1001
0000
1000
0100
0010
0000
0001
0000
,
0010
0100
1000
0000
0001
0000
0010
0000
,
1001
0000
0001
1000
0010
0100
0001
0000
,
0010
0100
0010
0000
0002
0000
0003
0000
,
1001
0000
0001
0000
1000
0010
1000
0000
,
0010
0100
0000
0001
0000
0001
1000
0000
,
0001
0010
0100
0000
1000
0001
1000
0001
,
0000
0001
0000
1000
0000
0001
0000
0220
,
0000
0000
0000
0000
,
0000
0000
0000
0000
,
0000
0000
0000
0000
,
0000
0000
0000
0000
,
0330
0000
0000
0000
;

//---------------dance-single - ----------------
#NOTES:
     dance-single:
     :
     Easy:
     7:
     0.362116,0.470588,0.238704,0.147769,0.000000,223.000000,202.000000,21.000000,13.000000,0.000000,0.000000,0.362116,0.470588,0.238704,0.147769,0.000000,223.000000,202.000000,21.000000,13.000000,0.000000,0.000000:
0000
0000
0000
0000
,
0000
0000
0000
0000
,
0000
0000
0000
0000
,
0000
0000
0000
0000
,
0000
0000
0000
0000
,
0000
0000
0000
0000
,
0000
0000
0000
0000
,
0000
0000
0000
0000
0000
0000
0000
0010
,
0000
0010
0000
0010
0000
0000
0100
0000
,
1001
0001
0101
0001
,
1000
0000
0100
0100
,
1000
1000
0001
1000
,
0010
0010
0020
0030
,
1001
0001
0011
0001
,
1000
0000
0010
0010
,
1000
0000
1000
0000
0001
0000
1000
0200
,
0000
0000
0000
0310
,
1001
1000
0001
0001
,
0100
0010
1000
0001
,
1000
0100
1000
0001
,
0010
0100
0010
0100
,
1000
1001
0010
0010
,
1000
0001
0100
0010
,
1000
0000
0001
0000
1000
0000
0000
1001
,
0000
1000
0001
0000
,
1001
0001
1000
1000
,
0010
0100
0001
1000
,
0001
0010
0001
1000
,
0100
0010
0100
0010
,
0001
1001
0100
0100
,
0001
1000
0010
0100
,
0001
1000
0001
0100
,
0001
0000
0000
1000
0000
0000
1000
0000
,
0002
0000
0003
0000
,
0020
0000
0030
0000
,
0100
1000
0001
2000
,
0000
0000
3000
0000
,
0001
0001
0100
0100
,
1000
1000
0010
0010
,
0001
0000
0000
0000
1000
0000
1000
0010
,
0000
0010
0000
0010
0000
0000
0100
0000
,
1001
0001
0010
0001
,
1000
0100
0001
0100
,
1000
0001
0100
0001
,
1000
0000
0000
0002
0000
0000
0003
0000
,
1000
0000
1000
0000
0100
0000
0000
0110
,
0000
0001
1000
0000
,
1000
0000
0001
0000
0100
0000
0100
0020
,
0000
0100
0130
0001
,
1000
1100
1000
1100
,
0001
0100
0010
1000
,
0001
0011
0001
0011
,
1000
0000
0001
0200
0000
0000
0310
0000
,
1000
0000
0110
0000
1000
0000
0001
0020
,
0000
0130
0010
0010
,
0001
0000
1000
0000
0100
0000
0010
0002
,
0000
0100
0100
0003
,
1001
1000
1010
1000
,
0001
0000
0010
0010
,
0001
0001
1000
0001
,
0100
0100
0200
0300
,
1001
1000
1100
1000
,
0001
0000
0100
0100
,
0001
0000
0001
0000
1000
0000
0001
0010
,
0000
0010
0000
0100
0000
0100
0000
2002
,
0000
0000
0000
0000
,
0000
0000
0000
0000
,
0000
0000
0000
0000
,
0000
0000
0000
0000
,
3003
0000
0000
0000
;

//---------------dance-single - ----------------
#NOTES:
     dance-single:
     :
     Beginner:
     4:
     0.185118,0.274510,0.125036,0.136402,0.000000,114.000000,103.000000,11.000000,12.000000,0.000000,0.000000,0.185118,0.274510,0.125036,0.136402,0.000000,114.000000,103.000000,11.000000,12.000000,0.000000,0.000000:
0000
0000
0000
0000
,
0000
0000
0000
0000
,
0000
0000
0000
0000
,
0000
0000
0000
0000
,
0000
0000
0000
0000
,
0000
0000
0000
0000
,
0000
0000
0000
0000
,
0000
0000
0000
0000
,
0000
0000
0000
0000
,
1001
0000
0100
0000
,
0001
0000
0100
0000
,
0110
0000
0001
0000
,
2000
0000
3000
0000
,
1001
0000
0010
0000
,
0001
0000
0001
0000
,
0010
0000
0010
0000
,
0200
0000
0000
0300
,
0100
0000
0100
0000
,
1000
0000
1000
0000
,
0010
0000
1000
0000
,
0001
0000
0000
0000
,
0100
0000
0100
0000
,
0001
0000
0001
0000
,
0010
0000
0001
0000
,
1001
0000
0000
0000
,
1000
0000
0100
0000
,
0100
0000
1000
0000
,
0001
0001
0001
0000
,
1000
0000
1000
0000
,
0001
0000
0010
0000
,
0010
0000
0001
0000
,
1000
1000
1000
0000
,
0001
0000
0001
0000
,
2000
0000
3000
0000
,
0002
0000
0003
0000
,
0200
0000
0000
0000
,
0000
0000
0300
0000
,
0010
0000
0010
0000
,
0100
0000
0001
0000
,
1000
0000
0001
0000
,
1001
0000
0000
0000
,
1000
1000
1000
0000
,
0001
0000
1000
0000
,
0100
0000
0010
0000
,
0002
0000
0003
0000
,
0001
0001
0001
0000
,
1001
0000
0001
0000
,
0100
0000
0001
0000
,
2000
0000
3000
0000
,
0010
0000
0010
0000
,
0010
0010
0010
0000
,
0100
0000
0100
0000
,
0200
0000
0300
0000
,
0001
0001
0001
0000
,
1001
0000
0001
0000
,
0100
0000
0001
0000
,
2000
0000
3000
0000
,
1001
0000
0100
0000
,
0001
0000
0100
0000
,
0110
0000
0001
0000
,
2000
0000
3000
0000
,
1001
0000
0010
0000
,
0001
0000
0001
0000
,
0010
0000
0010
0000
,
0100
0000
0000
0000
,
2002
0000
0000
0000
,
0000
0000
0000
0000
,
0000
0000
0000
0000
,
0000
0000
0000
0000
,
3003
0000
0000
0000
;

//---------------dance-double - ----------------
#NOTES:
     dance-double:
     :
     Challenge:
     15:
     0.724232,0.862745,0.295539,0.193237,0.125036,446.000000,420.000000,26.000000,17.000000,0.000000,0.000000,0.724232,0.862745,0.295539,0.193237,0.125036,446.000000,420.000000,26.000000,17.000000,0.000000,0.000000:
// measure 0
00000000
00000000
00000000
00000000
,  // measure 1
00000000
00000000
00000000
00000000
,  // measure 2
00000000
00000000
00000000
00000000
,  // measure 3
00000000
00000000
00000000
00000000
,  // measure 4
00000000
00000000
00000000
00000000
,  // measure 5
10000000
01000000
10000000
01000000
10000000
01000000
10000000
01000000
,  // measure 6
00010000
00001000
00010000
00001000
00010000
00001000
00010000
00001000
,  // measure 7
00000010
00000001
00001000
00000010
00000100
00000001
00001000
00001100
,  // measure 8
00000000
00011000
00000000
01010000
00000000
00001000
00010000
00000000
,  // measure 9
00011000
00000000
00100000
00010000
10000000
01000000
10000000
00010000
,  // measure 10
01000000
00010000
01000000
00100000
10000000
00000000
00010000
00000000
,  // measure 11
00110000
00000000
00100000
01000000
10000000
00010000
01000000
00100000
,  // measure 12
00010000
00001000
00010000
00001000
00020000
00000000
00030000
00000000
,  // measure 13
00011000
00000000
00000100
00001000
00000001
00000100
00000001
00000100
,  // measure 14
00000010
00000100
00001000
00000100
00000010
00001000
00000002
00000000
,  // measure 15
00000013
00000000
00001000
00000000
00000010
00000000
00001000
00010000
00001000
00000000
00010000
00000000
00100000
00000000
20000000
00000000
,  // measure 16
00000000
00000000
00000000
31000000
,  // measure 17
10010000
00000000
10000000
00100000
01000000
00010000
01000000
00010000
,  // measure 18
10000000
01000000
10000000
00010000
01000000
00100000
00010000
00100000
,  // measure 19
01000000
00010000
01000000
00001000
00010000
00001000
00010000
00000100
,  // measure 20
00001000
00000010
00000100
00000010
00001000
00000001
00000100
00000010
,  // measure 21
00001000
00000000
00001100
00000000
00000001
00000100
00000001
00001000
,  // measure 22
00000100
00001000
00000100
00000010
00001000
00010000
01000000
10000000
,  // measure 23
00100000
00100000
10000000
01000000
00100000
00010000
10000000
10010000
,  // measure 24
00000000
00000000
10000000
00000000
01000000
00100000
01000000
00000000
00010000
00000000
00001000
00000000
00010000
00001000
00010000
00001000
,  // measure 25
00010000
00001000
00100000
00010000
01000000
00100000
01000000
00100000
,  // measure 26
00010000
00001000
00000010
00001000
00010000
00001000
01000000
00010000
,  // measure 27
10000000
01000000
10000000
00010000
01000000
00100000
01000000
00100000
,  // measure 28
01000000
10000000
01000000
00010000
00100000
00010000
00001000
00000100
,  // measure 29
00000010
00000100
00000110
00000000
00001000
00000001
00000101
00000000
,  // measure 30
00000001
00000100
00000010
00001000
00000010
00000100
00000010
00001000
,  // measure 31
00000001
00000010
00000001
00000010
00001000
00000010
00000001
00000100
,  // measure 32
00002000
00000000
00000000
00000000
00013000
00000000
01000000
00100000
01000000
00000000
00100000
00000000
00010000
10000000
00010000
10000000
,  // measure 33
00020000
00000000
00030000
00000000
,  // measure 34
10000000
00000000
00000000
02000000
00000000
00000000
03000000
00000000
,  // measure 35
00100000
00000000
00001000
00000000
00010000
00001000
00020000
00000000
,  // measure 36
00000000
00000000
00030000
00000000
,  // measure 37
00000100
00001000
00000100
00000000
00010000
00001000
00010000
00000000
,  // measure 38
00000010
00001000
00000010
00000100
00000010
00000001
00000010
00000000
,  // measure 39
00000100
00001000
00000100
00000010
00000100
00000001
00000010
00001010
,  // measure 40
00000000
00011000
00000000
00110000
00000000
00010000
10000000
00000000
,  // measure 41
11000000
00010000
01000000
00010000
10000000
00100000
01000000
00100000
,  // measure 42
10000000
00000000
00100000
00000000
10000000
00000000
00010000
00100000
00010000
00000000
10000000
00000000
01000000
00000000
00100000
00000000
,  // measure 43
00010000
00010000
01000000
00100000
00010000
00001000
00010000
00100000
,  // measure 44
01000000
00000000
01000000
00000000
00001000
00010000
00002000
00000000
00000000
00000000
01003000
00010000
00100000
00010000
00100000
00001000
,  // measure 45
00010000
00000100
00010000
00000010
00001000
00001000
00000000
00000210
,  // measure 46
00000000
00000310
00001000
00000010
00000100
00000001
00000010
00000100
,  // measure 47
00001000
00000000
00001000
00000000
00000100
00000000
00000010
00000100
00000010
00000000
00001000
00000000
00010000
00001000
00020000
00000000
,  // measure 48
00000000
00000000
01030000
10000000
01000000
00000000
10000000
00000000
00010000
01000000
00010000
01000000
00100000
10000000
00100000
00000000
,  // measure 49
10000000
10000000
01000000
01000000
00100000
00100000
00010000
00010000
,  // measure 50
00001000
00000100
00000010
00000001
00000100
00000010
00001000
00000000
,  // measure 51
00000001
00000001
00000010
00000010
00001000
00000010
00001000
00010000
,  // measure 52
00100000
00010000
00100000
20000000
00000000
30010000
10000000
01000000
,  // measure 53
00100000
00010000
10010000
00000000
10000000
01000000
00100000
02000000
,  // measure 54
00000000
03100000
00000000
01000000
00010000
00001000
00010000
00001000
,  // measure 55
00000100
00000000
00000010
00001000
00000100
00000000
00000010
00000001
00000100
00000000
00000010
00000000
00001000
00000000
00002010
00000000
,  // measure 56
00000000
00000000
00003001
00000000
00000010
00000000
00001000
00010000
00001000
00000000
00010000
00000000
00001000
00000000
00000000
00000000
,  // measure 57
00011000
00000000
00100000
00010000
10000000
01000000
10000000
00010000
,  // measure 58
01000000
00010000
01000000
00100000
10000000
00000000
00010000
00000000
,  // measure 59
00110000
00000000
00100000
01000000
10000000
00010000
01000000
00100000
,  // measure 60
00010000
00001000
00010000
00001000
00020000
00000000
00030000
00000000
,  // measure 61
00011000
00000000
00000100
00001000
00000001
00000100
00000001
00000100
,  // measure 62
00000010
00000100
00001000
00000100
00000010
00001000
00000002
00000000
,  // measure 63
00000013
00000000
00001000
00000000
00000010
00000000
00001000
00010000
00001000
00000000
00010000
00000000
00100000
00000000
10100000
00000000
,  // measure 64
00000000
00110000
00000000
00011000
00000000
00010010
00000000
00202000
,  // measure 65
00000000
00000000
00000000
00000000
,  // measure 66
00000000
00000000
00000000
00000000
,  // measure 67
00000000
00000000
00000000
00000000
,  // measure 68
00000000
00000000
00000000
00000000
,  // measure 69
00303000
00000000
00000000
00000000
;

//---------------dance-double - ----------------
#NOTES:
     dance-double:
     :
     Hard:
     13:
     0.638168,0.705882,0.318272,0.181870,0.000000,393.000000,365.000000,28.000000,16.000000,0.000000,0.000000,0.638168,0.705882,0.318272,0.181870,0.000000,393.000000,365.000000,28.000000,16.000000,0.000000,0.000000:
00000000
00000000
00000000
00000000
,
00000000
00000000
00000000
00000000
,
00000000
00000000
00000000
00000000
,
00000000
00000000
00000000
00000000
,
00000000
00000000
00000000
00000000
,
00020000
00000000
00031000
00000000
00000000
00002000
00000000
00000000
,
00013000
00000010
00000000
00001000
00000000
00001000
00000010
00000100
,
00000001
00000010
00000100
00001000
00000100
00010000
00001000
00011000
,
00000000
00110000
00000000
10100000
00000000
00000000
01000000
00000000
,
00110000
00000000
00010000
10000000
01000000
00100000
01000000
00100000
,
01000000
00010000
00001000
00010000
01000000
00000000
10000000
00000000
,
00010000
00000000
01010000
00000000
00010000
01000000
00100000
01000000
,
00001000
00010000
00001000
00010000
00002000
00000000
00003000
00000000
,
00011000
00000000
00010000
00000100
00001000
00000001
00001000
00000001
,
00000100
00000010
00000000
00001010
00000000
00000001
00001000
00000000
,
00000001
00000010
00000001
00000010
00001000
00010000
00001000
00020000
,
00000000
00000000
00000000
00031000
,
00011000
00000000
00010000
00000100
00001000
00000001
00001000
00000001
,
00000100
00000001
00000100
00000010
00001000
00000001
00000010
00000100
,
00001000
00000000
00001100
00000000
00000100
00000010
00000001
00000000
,
00001000
00000100
00001000
00000001
00000100
00000001
00000100
00001000
,
00010000
00000000
00011000
00000000
00001000
00100000
00010000
00000000
,
10000000
01000000
10000000
00010000
01000000
00100000
10000000
00010000
,
00100000
01000000
00010000
00001000
00010000
01000000
10000000
10010000
,
00000000
00010000
00100000
10000000
00100000
00100000
00010000
00000000
,
00011000
00001000
00100000
00010000
10000000
00100000
10000000
00100000
,
01000000
00010000
10000000
01000000
00100000
00001000
00010000
00000010
,
00000100
00000000
00001100
00000000
00000001
00000100
00000001
00000000
,
00001000
00000100
00000010
00000001
00000010
00001000
00000010
00001000
,
00010000
00011000
00000100
00001100
,
00010000
00001000
00010000
00001000
01000000
00010000
01000000
00100000
,
10000000
00100000
10000000
00010000
10000000
01000000
10000000
00010000
,
01000000
00100000
00010000
00001000
00000000
00010000
00001000
00000100
,
00000002
00000000
00000003
00000000
,
00001000
00000000
00000000
00000200
00000000
00000000
00000300
00000000
,
00010000
00000000
01000000
00000000
00010000
00001000
00020000
00000000
,
00000000
00000000
00030000
00000000
,
01000000
10000000
01000000
00000000
10000000
00100000
10000000
00000000
,
00100000
00010000
00100000
00010000
00001000
00010000
00001000
00000000
,
00000100
00000001
00000010
00001000
00010000
01000000
10000000
11000000
,
00000000
01010000
00000000
00011000
00000000
00000000
00000010
00000000
,
00001001
00000001
00000010
00000100
00001000
00000010
00001000
00000010
,
00000100
00001000
00010000
01000000
10000000
01000000
10000000
00010000
,
00100000
01000000
10000000
00010000
10000000
01000000
10000000
00010000
,
01000000
00100000
00010000
00002000
00000000
00013000
00001000
00100000
,
00010000
10000000
01000000
00010000
01000000
01000000
00000000
21000000
,
00000000
31000000
10000000
00000000
00010000
01000000
00100000
00000000
,
10000000
01000000
10000000
01000000
00010000
00001000
00000100
00000002
,
00000000
00000103
00000010
00000001
00000010
00000100
00001000
00000000
,
00010000
00001000
00010000
00000000
01000000
00010000
01000000
00000000
,
10000000
01000000
10000000
00010000
01000000
00100000
00010000
00000000
,
00001000
00010000
00001000
00000000
00000010
00001000
00000010
00000000
,
00000001
00000010
00000001
00002000
00000000
00003100
00000010
00000001
,
00001000
00000001
00001010
00000000
00001000
00000001
00000010
00000200
,
00000000
00000310
00000000
00001000
00010000
00001000
00010000
00000000
,
01000000
00100000
01000000
00100000
00010000
01000000
00100000
20000000
,
00000000
30010000
00100000
01000000
00010000
00010000
00001000
00000000
,
00001010
00000000
00001000
00000001
00000100
00000010
00000100
00000010
,
00000100
00001000
00010000
00001000
00000100
00000000
00000001
00000000
,
00001000
00000000
00001100
00000000
00001000
00000100
00000010
00000100
,
00010000
00001000
00010000
00001000
00020000
00000000
00030000
00000000
,
00011000
00000000
00001000
01000000
00010000
10000000
00010000
10000000
,
01000000
00100000
00000000
00110000
00000000
10000000
00010000
00000000
,
10000000
00100000
10000000
00100000
00010000
00001000
00010000
00001000
,
00000000
00001100
00000000
00010000
00000000
01001000
00000000
00022000
,
00000000
00000000
00000000
00000000
,
00000000
00000000
00000000
00000000
,
00000000
00000000
00000000
00000000
,
00000000
00000000
00000000
00000000
,
00033000
00000000
00000000
00000000
;

//---------------dance-double - ----------------
#NOTES:
     dance-double:
     :
     Medium:
     10:
     0.464418,0.549020,0.238704,0.147769,0.000000,286.000000,265.000000,21.000000,13.000000,0.000000,0.000000,0.464418,0.549020,0.238704,0.147769,0.000000,286.000000,265.000000,21.000000,13.000000,0.000000,0.000000:
00000000
00000000
00000000
00000000
,
00000000
00000000
00000000
00000000
,
00000000
00000000
00000000
00000000
,
00000000
00000000
00000000
00000000
,
00000000
00000000
00000000
00000000
,
00000000
00000000
00000000
00000000
,
00000000
00000000
00000000
00000000
,
00000000
00000000
00000000
00000000
00000000
00000000
00000000
00100000
,
00000000
00100000
00000000
00100000
00000000
00000000
00001000
00000000
,
00011000
00000000
00010000
00000100
00010000
00000000
00001000
00000000
,
01000000
00100000
10000000
00000000
00010000
00000000
01000000
00000000
,
01100000
00000000
10000000
00000000
10000000
01000000
00100000
00000000
,
00001000
00010000
00001000
00000000
00020000
00000000
00030000
00000000
,
00011000
00000000
00000100
00000000
00000100
00001000
00000001
00000000
,
00000100
00000010
00000000
00001000
00000000
00001000
00000001
00000000
,
00000100
00000010
00000100
00000000
00001000
00010000
00001000
00020000
,
00000000
00000000
00000000
00031000
,
00011000
00001000
00010000
00010000
,
01000000
00000000
00010000
00000000
00001000
00010000
00001000
00000000
,
00010000
00011000
00000010
00001010
,
00001000
00000100
00001000
00000000
00000001
00000000
00000100
00000000
,
00000010
00001100
00000001
00001000
,
00000100
00000010
00000100
00000000
00010000
00000000
00001000
00000000
,
00010000
00000000
00010000
00000000
01000000
00100000
00000000
01100000
,
00000000
00010000
10000000
00000000
10000000
01000000
00010000
00000000
,
00011000
00010000
00001000
00001000
,
00000010
00000000
00001000
00000000
00010000
00001000
00010000
00000000
,
00001000
00011000
01000000
01010000
,
00010000
00100000
00010000
00000000
10000000
00000000
00100000
00000000
,
01000000
10010000
00010000
00110000
,
00100000
01000000
00100000
00000000
00001000
00000000
00010000
00000000
,
00001000
00001000
00000010
00000100
,
00001000
00000000
00000100
00000010
00000000
00000010
00000001
00000000
,
00002000
00000000
00003000
00000000
,
00001000
00000000
00000000
00000002
00000000
00000000
00000003
00000000
,
00000001
00000000
00000100
00000000
00001000
00010000
00002000
00000000
,
00000000
00000000
00003000
00000000
,
01000000
00010000
01000000
00000000
00001000
00000000
00001000
00000000
,
00100000
00010000
00100000
00000000
01000000
00000000
01000000
00000000
,
10000000
00100000
00000000
00100000
00010000
00000000
00010000
00001000
,
00000000
00001000
00000000
00001000
00000000
00000000
00010000
00000000
,
00001000
00000100
00000001
00000000
00000010
00000000
00000010
00000000
,
00001000
00000000
00010000
00000000
00100000
01000000
00100000
00000000
,
10000000
00100000
10000000
00000000
00010000
00000000
00100000
00000000
,
10000000
00000000
10000000
00200000
00000000
00000000
00310000
00000000
,
00100000
01000000
00100000
00000000
00010000
00010000
00000000
20000000
,
00000000
31000000
00000000
10000000
01000000
00100000
00010000
00000000
,
00100000
00010000
01000000
00000000
00001000
00010000
00001000
00020000
,
00000000
00030100
00001000
00000000
00000100
00000010
00000001
00000000
,
00000100
00001100
00000010
00001010
,
00000010
00000000
00000010
00000000
00010000
00001000
00010000
00000000
,
01000000
01010000
00100000
00110000
,
00001000
00000000
00001000
00010000
00000000
00010000
00001000
00000000
,
00000100
00000001
00000100
00000000
00000010
00001000
00000010
00002000
,
00000000
00003001
00000000
00000100
00000001
00001000
00000100
00000000
,
00000010
00000001
00000010
00000000
00001000
00010000
00001000
00020000
,
00000000
01030000
00010000
00000000
00001000
00010000
00001000
00000000
,
00011000
00000000
00001000
01000000
00001000
00000000
00010000
00000000
,
00000100
00000010
00000001
00000000
00001000
00000000
00000100
00000000
,
00000110
00000000
00000001
00000000
00000001
00000100
00000010
00000000
,
00010000
00001000
00010000
00000000
00002000
00000000
00003000
00000000
,
00011000
00000000
01000000
00000000
01000000
00010000
10000000
00000000
,
01000000
00100000
00000000
00010000
00000000
00010000
10000000
00000000
,
01000000
00100000
01000000
00000000
00010000
00001000
00010000
00001000
,
00000000
00000100
00000000
00000001
00000000
00000010
00000000
00000220
,
00000000
00000000
00000000
00000000
,
00000000
00000000
00000000
00000000
,
00000000
00000000
00000000
00000000
,
00000000
00000000
00000000
00000000
,
00000330
00000000
00000000
00000000
;

//---------------dance-double - ----------------
#NOTES:
     dance-double:
     :
     Easy:
     7:
     0.353997,0.470588,0.238704,0.147769,0.000000,218.000000,197.000000,21.000000,13.000000,0.000000,0.000000,0.353997,0.470588,0.238704,0.147769,0.000000,218.000000,197.000000,21.000000,13.000000,0.000000,0.000000:
00000000
00000000
00000000
00000000
,
00000000
00000000
00000000
00000000
,
00000000
00000000
00000000
00000000
,
00000000
00000000
00000000
00000000
,
00000000
00000000
00000000
00000000
,
00000000
00000000
00000000
00000000
,
00000000
00000000
00000000
00000000
,
00000000
00000000
00000000
00000000
00000000
00000000
00000000
00001000
,
00000000
00000010
00000000
00000010
00000000
00000000
00000100
00000000
,
00001001
00000010
00000110
00000000
,
00001000
00000001
00000100
00000000
,
00000010
00000010
00010000
00001000
,
00010000
00010000
00002000
00003000
,
00011000
00010000
01010000
00000000
,
10000000
00010000
01000000
00000000
,
00100000
00000000
00100000
00000000
10000000
00000000
00010000
20000000
,
00000000
00000000
00000000
31000000
,
10010000
10000000
00010000
00010000
,
01000000
00100000
10000000
00010000
,
00100000
00100000
00001000
00001000
,
00010000
00000100
00010000
00001000
,
00010000
00011000
00000010
00000010
,
00001000
00000001
00000100
00000001
,
00000010
00000000
00000100
00000000
00000010
00000000
00000000
00000110
,
00000000
00001000
00000001
00000000
,
00001001
00000001
00001000
00001000
,
00000010
00000100
00000001
00001000
,
00000100
00000100
00010000
00010000
,
00001000
00100000
00001000
00010000
,
00001000
00011000
01000000
01000000
,
00010000
10000000
00100000
10000000
,
01000000
00100000
01000000
00100000
,
00010000
00000000
00000000
10000000
00000000
00000000
00010000
00000000
,
20000000
00000000
30000000
00000000
,
00200000
00000000
00300000
00000000
,
01000000
00001000
00010000
00002000
,
00000000
00000000
00003000
00000000
,
00010000
00010000
00000100
00000100
,
00000010
00000010
00000001
00000001
,
00001000
00000000
00000000
00000000
00000001
00000000
00000001
00001000
,
00000000
00000010
00000000
00000010
00000000
00000000
00000100
00000000
,
00001001
00000010
00000100
00000010
,
00001000
00000001
00000100
00000010
,
00001000
00000100
00000010
00000100
,
00010000
00000000
00000000
00002000
00000000
00000000
00003000
00000000
,
00010000
00000000
00010000
00000000
01000000
00000000
00000000
10010000
,
00000000
00100000
01000000
00000000
,
10000000
00000000
01000000
00000000
00100000
00000000
00100000
00002000
,
00000000
00010000
00013000
00001000
,
00010000
00011000
00000010
00001010
,
00000001
00000100
00000010
00001000
,
00000100
00001100
00010000
00011000
,
00001000
00000000
00100000
00020000
00000000
00000000
10030000
00000000
,
00010000
00000000
01010000
00000000
00100000
00000000
00100000
20000000
,
00000000
30010000
01000000
00000000
,
00010000
00000000
00100000
00000000
01000000
00000000
01000000
20000000
,
00000000
00010000
00010000
30000000
,
10010000
00100000
01100000
00000000
,
00010000
10000000
01000000
00000000
,
00100000
00100000
00001000
00010000
,
00001000
00001000
00020000
00030000
,
00011000
00001000
00001100
00000000
,
00000001
00001000
00000100
00000000
,
00000010
00000000
00000010
00000000
00000001
00000000
00001000
00000001
,
00000000
00000100
00000000
00000010
00000000
00001000
00000000
00002002
,
00000000
00000000
00000000
00000000
,
00000000
00000000
00000000
00000000
,
00000000
00000000
00000000
00000000
,
00000000
00000000
00000000
00000000
,
00003003
00000000
00000000
00000000
;
