#VERSION:0.83;
#TITLE:VILLAIN;
#SUBTITLE:feat. Madison Beer and Kim Petras;
#ARTIST:K/DA;
#TITLETRANSLIT:;
#SUBTITLETRANSLIT:;
#ARTISTTRANSLIT:;
#GENRE:K/DA;
#ORIGIN:;
#CREDIT:;
#BANNER:VILLAIN.png;
#BACKGROUND:../bg.png;
#PREVIEWVID:;
#JACKET:VILLAIN-jacket.png;
#CDIMAGE:;
#DISCIMAGE:;
#LYRICSPATH:;
#CDTITLE:../cdtitle.png;
#MUSIC:VILLAIN.ogg;
#OFFSET:2.623000;
#SAMPLESTART:60.000000;
#SAMPLELENGTH:15.000000;
#SELECTABLE:YES;
#BPMS:0.000=80.000,
66.000=40.000,
67.000=80.000,
153.000=40.000,
154.000=80.000;
#STOPS:;
#DELAYS:;
#WARPS:;
#TIMESIGNATURES:0.000=4=4;
#TICKCOUNTS:0.000=4;
#COMBOS:0.000=1;
#SPEEDS:0.000=1.000=0.000=0;
#SCROLLS:0.000=1.000;
#FAKES:;
#LABELS:0.000=Song Start;
#BGCHANGES: 3.813=VILLAIN.avi=1.000=0=0=0=StretchNoLoop====,
194.500=VILLAIN.avi=1.000=0=0=1====#000000=,
99999=-nosongbg-=1.000=0=0=0 // don't automatically add -songbackground-
;
#KEYSOUNDS:;
#ATTACKS:
;

//---------------dance-single - ----------------
#NOTEDATA:;
#CHARTNAME:;
#STEPSTYPE:dance-single;
#DESCRIPTION:;
#CHARTSTYLE:;
#DIFFICULTY:Hard;
#METER:11;
#RADARVALUES:0.384890,0.463975,0.137812,0.385874,0.413437,391.000000,371.000000,20.000000,56.000000,0.000000,0.000000,0.000000,0.000000,0.000000,0.384890,0.463975,0.137812,0.385874,0.413437,391.000000,371.000000,20.000000,56.000000,0.000000,0.000000,0.000000,0.000000,0.000000;
#CREDIT:led_light;
#NOTES:
0000
0000
0000
0000
,
0000
0000
0000
0000
,
0000
0000
0000
0000
,
0000
0000
0000
0000
,
0000
0000
0000
0000
0000
0000
0000
0000
0000
0000
0000
0000
0000
0000
1000
0100
,
2000
0000
0000
0000
3000
0000
0000
0000
0001
0100
0010
1000
0100
0000
0010
0000
,
0200
0000
0000
2300
0000
0000
3002
0000
1003
0010
1000
0010
0100
0000
0001
0000
,
2000
0000
0000
0000
3000
0000
0000
0000
0001
0010
0100
1000
0010
0000
0100
0000
,
0020
0000
0000
2030
0000
0000
3002
0000
1003
0000
0100
0000
0110
0010
0001
1000
,
0002
0000
0000
0000
0003
0000
0000
0000
0100
0010
1000
0001
0010
0000
1000
0000
,
0020
0000
0000
0032
0000
0000
2003
0000
3100
1000
0001
0000
0100
0000
0010
0000
,
2000
0000
0000
0000
3000
0000
0000
0000
0010
0100
0001
1000
0100
0000
0001
0000
,
0200
0000
0000
2300
0000
0000
3020
0000
0130
0000
1001
0000
0001
0010
0100
1000
,
0020
0000
0030
0001
0010
1000
0010
0001
,
0020
0000
0000
0000
2030
0000
3000
0100
,
0020
0000
0030
1000
0010
0001
0010
1000
,
0020
0000
0000
0000
0000
0000
0000
0000
0000
0000
0000
0000
0000
0000
0000
0000
0230
0000
0000
0000
1300
0001
0100
0010
1000
0000
0000
0000
0000
0000
0000
0000
,
1000
0100
0001
0100
1000
0000
0000
0000
0001
1000
0010
0100
0001
0000
0000
0000
,
0001
0010
1000
0010
0001
0000
0000
0000
0100
0010
1000
0001
0010
0000
0000
0000
,
0010
1000
0010
0001
0010
0000
0000
0000
0100
0010
0001
1000
0010
0000
0000
0000
,
0010
0001
0010
1000
0010
0000
0010
0000
0110
0100
0001
1000
0001
0000
0001
0000
,
0101
0020
1000
0030
0100
0000
0100
0000
0011
0200
1000
0300
0010
0000
0010
0000
,
0110
0002
0010
0003
0100
0000
0100
0000
0110
2000
0010
3000
1000
0000
1000
0000
,
1100
0020
0001
0030
0100
0000
0100
0000
1010
0200
0001
0300
0010
0001
0010
0001
,
0100
0010
0100
0010
1000
0100
0010
0100
1000
0001
1000
0001
0000
0000
0000
0000
,
0000
0000
0000
0000
,
0000
0000
0000
0000
0000
0000
0000
0000
0000
0000
0000
0000
1000
0100
1000
0000
,
0020
0000
0130
0001
1000
0010
0100
0000
0002
0000
0013
0100
1000
0001
1000
0001
,
0020
0000
0130
1000
0010
0100
0010
0100
0001
0000
1010
0000
0001
0010
0001
0000
,
1100
0000
0001
0100
0001
0100
0010
1000
0002
0000
0013
0100
1000
0001
1000
0001
,
0200
0000
0310
1000
0001
0010
0100
0010
0002
0000
0103
0010
2000
0000
3000
0000
,
1001
0001
0010
0100
1000
0010
1000
0010
0001
0010
1000
0100
0020
0000
0030
0000
,
0002
0000
2003
0000
0002
0000
3003
0000
1000
0001
0100
0010
2000
0000
3000
0000
,
1001
0001
0100
0010
1000
0100
1000
0100
0001
0100
1000
0010
0200
0000
0300
0000
,
0002
2003
0002
3003
1000
0010
0002
0000
,
0003
0010
1000
0010
0001
0010
2000
0000
,
0000
0000
3000
0000
0000
0100
0020
0000
,
0030
1000
0010
0001
0010
1000
0020
0000
,
0000
0000
0000
0000
0000
0000
0000
0000
0230
0000
0000
0000
1300
0001
0010
0100
1000
0000
0000
0000
0000
0000
0000
0000
1000
0000
0010
0000
0001
0000
0010
0000
,
1000
0000
0000
0000
0001
1000
0100
0010
0001
0000
0000
0000
0001
0100
1000
0100
,
0001
0000
0000
0000
0010
0100
1000
0001
0100
0000
0000
0000
0100
1000
0100
0001
,
0100
0000
0000
0000
0010
0100
0001
1000
0100
0000
0000
0000
0100
0001
0100
1000
,
0200
0000
0300
0000
0110
0010
0001
1000
0001
0000
0001
0000
0011
0200
1000
0300
,
0010
0000
0010
0000
0101
0020
1000
0030
0100
0000
0100
0000
0110
0002
0100
0003
,
0010
0000
0010
0000
0110
2000
0100
3000
1000
0000
1000
0000
1010
0200
0001
0300
,
0010
0000
0010
0000
1100
0020
0001
0030
0100
0001
0100
0001
0010
0100
0010
0100
,
1000
0010
0100
0001
0010
0100
0010
0100
0000
0000
0000
0000
0000
0000
0000
0000
;

//---------------dance-single - ----------------
#NOTEDATA:;
#CHARTNAME:;
#STEPSTYPE:dance-single;
#DESCRIPTION:;
#CHARTSTYLE:;
#DIFFICULTY:Challenge;
#METER:12;
#RADARVALUES:0.414421,0.531955,0.330749,0.378984,0.413437,421.000000,373.000000,48.000000,55.000000,8.000000,0.000000,0.000000,0.000000,0.000000,0.414421,0.531955,0.330749,0.378984,0.413437,421.000000,373.000000,48.000000,55.000000,8.000000,0.000000,0.000000,0.000000,0.000000;
#CREDIT:led_light;
#NOTES:
0000
0000
0000
0000
,
0000
0000
0000
0000
,
0000
0000
0000
0000
,
0000
0000
0000
0000
,
0000
0000
0000
0000
0000
0000
0000
0000
0000
0000
0000
0000
0000
0000
0010
0100
,
0020
0000
0000
0000
0030
0000
0000
0000
0001
0100
0010
1000
0001
0000
0010
0000
,
0200
0000
0000
0001
0000
0000
2300
0000
3001
0010
0100
1000
0001
0000
0100
0000
,
0020
0000
0000
0000
1030
0000
0000
0000
0001
0010
1000
0010
0001
0000
0100
0000
,
0020
0000
0000
0001
0000
0000
2030
0000
3001
0000
0010
0000
0100
1000
0010
0100
,
0020
0000
0000
0000
0030
0000
0000
0000
1000
0100
0010
0001
1000
0000
0010
0000
,
0200
0000
0000
1000
0000
0000
0302
0000
1003
0010
0100
0001
1000
0000
0100
0000
,
0020
0000
0000
0000
0031
0000
0000
0000
1000
0010
0001
0010
1000
0000
0100
0000
,
0020
0000
0000
1000
0000
0000
0032
0000
1003
0000
0010
0000
0100
0001
0010
0100
,
2000
0000
3000
0010
0001
0010
1000
0010
,
0002
0000
0000
0000
2003
0000
3000
0100
,
0002
0000
0003
0010
1000
0010
0001
0010
,
2000
0000
0000
0000
0000
0000
0000
0000
0000
0000
0000
0000
0000
0000
0000
0000
3002
0000
0000
0000
0103
1000
0100
1000
1010
0000
0000
0000
0000
0000
0000
0000
,
0100
0001
0100
0001
0011
0000
0000
0000
0100
1000
0010
0100
1100
0000
0000
0000
,
0100
0001
0010
0100
0101
0000
0000
0000
0010
0001
0010
0001
0101
0000
0000
0000
,
0010
1000
0010
1000
1100
0000
0000
0000
0010
0001
0100
0010
0011
0000
0000
0000
,
0010
0000
1000
0000
0100
0000
0010
0000
1020
0000
0000
0000
0100
0000
0000
0000
0031
0000
1000
0100
0010
0000
0001
0000
0101
0000
0000
0000
0010
0000
0000
0000
,
0101
2000
0100
3000
0011
0000
0100
0000
0011
2000
0010
3000
0110
0000
1000
0000
,
0110
0002
0010
0003
0110
0000
0001
0000
0110
2000
0010
3000
0011
0000
0100
0000
,
0011
2000
0010
3000
0101
0000
0010
0000
0101
2000
0100
3000
0010
0100
0010
0100
,
1000
0000
0010
0000
1000
0000
0010
0000
0100
0001
0010
0000
0100
0000
0010
0000
0001
0000
1000
0000
0001
0000
1000
0000
0000
0000
0000
0000
0000
0000
0000
0000
,
0000
0000
0000
0000
,
0000
0000
0000
0000
0000
0000
0000
0000
MMMM
0000
0000
0000
0001
1000
0010
0000
,
0200
0000
0301
0000
1000
0010
0100
0000
0002
0000
0013
0000
0100
1000
0100
0000
,
0020
0000
0031
0000
1000
0100
0010
0000
0101
0000
1100
0000
0001
1000
0010
0000
,
0210
0000
0301
1000
0100
0010
0100
0001
0200
0000
1300
0001
0100
1000
0100
0010
,
0200
0000
0301
1000
0010
0100
0010
0001
0020
0000
1030
0001
0022
0000
0033
0000
,
0110
0100
1000
0001
1000
0010
1000
0010
0100
0001
0010
0100
2000
0000
3000
0000
,
0020
0000
0230
0000
0020
0000
0330
0000
0110
0001
0010
0100
2000
0000
3000
0000
,
0110
0010
0001
1000
0001
0100
0001
0100
0010
1000
0100
0010
0002
0000
0003
0000
,
0200
0320
0200
0330
0110
0001
2000
0000
,
3000
0100
0001
0100
1000
0100
0002
0000
,
0000
0000
0003
0000
0000
0100
2000
0000
,
3000
0010
0001
0010
1000
0010
0002
0000
,
0000
0000
0000
0000
0000
0000
0000
0000
2003
0000
0000
0000
3100
0001
0100
0001
0011
0000
0000
0000
0000
0000
0000
0000
0100
0000
1000
0000
0100
0000
1000
0000
,
1010
0000
0000
0000
0100
0001
0010
0100
0101
0000
0000
0000
0100
1000
0010
0100
,
1100
0000
0000
0000
0010
1000
0010
1000
1100
0000
0000
0000
0010
0001
0010
0001
,
0101
0000
0000
0000
0010
1000
0100
0010
1010
0000
0000
0000
0010
0001
0100
0010
,
0021
0000
0000
0000
0000
0000
0000
0000
1030
0000
0001
0100
0010
0000
1000
0000
1100
0000
0000
0000
0010
0000
0000
0000
1100
0000
0002
0000
0100
0000
0003
0000
,
1010
0000
0100
0000
1010
0002
0010
0003
0110
0000
0001
0000
0110
2000
0010
3000
,
0110
0000
1000
0000
0110
0002
0010
0003
1010
0000
0100
0000
1010
0002
0010
0003
,
1100
0000
0010
0000
1100
0002
0100
0003
0010
0100
0010
0100
0001
0010
0001
0010
,
0100
1000
0010
0000
0100
0000
0010
0000
1000
0000
0001
0000
1000
0000
0001
0000
0000
0000
0000
0000
0000
0000
0000
0000
0000
0000
0000
0000
0000
0000
0000
0000
,
0000
0000
0000
0000
,
0000
MMMM
0000
0000
;

//---------------dance-single - ----------------
#NOTEDATA:;
#CHARTNAME:;
#STEPSTYPE:dance-single;
#DESCRIPTION:;
#CHARTSTYLE:;
#DIFFICULTY:Medium;
#METER:7;
#RADARVALUES:0.267749,0.319552,0.310078,0.434109,0.006891,272.000000,227.000000,45.000000,63.000000,0.000000,0.000000,0.000000,0.000000,0.000000,0.267749,0.319552,0.310078,0.434109,0.006891,272.000000,227.000000,45.000000,63.000000,0.000000,0.000000,0.000000,0.000000,0.000000;
#CREDIT:led_light;
#NOTES:
0000
0000
0000
0000
,
0000
0000
0000
0000
,
0000
0000
0000
0000
,
0000
0000
0000
0000
,
0000
0000
0000
0000
0000
0000
0000
1000
,
0002
0000
0003
0000
1000
0100
0001
0100
,
2000
0000
3000
0000
0001
0100
0010
1000
,
0200
0000
0300
0000
0010
0100
1000
0001
,
0200
0000
1000
0000
0310
1000
0001
0001
,
2000
0000
3000
0000
0001
0010
1000
0010
,
0002
0000
0003
0000
1000
0010
0100
0001
,
0020
0000
0030
0000
0100
0010
0001
1000
,
0020
0000
0001
0000
0130
0001
1000
0100
,
0020
0000
0030
0010
0001
0010
0100
1000
,
0020
0000
0000
0000
0000
0000
0030
0001
,
0020
0000
0030
0010
1000
0010
0100
0001
,
0020
0000
0000
0000
0000
0000
0000
0000
0030
0000
0100
0100
0110
0000
0000
0000
,
0001
0001
1001
0000
0010
1000
1100
0000
,
0010
0001
0101
0000
0010
0010
0110
0000
,
1000
1000
1001
0000
0100
0001
0011
0000
,
0100
1000
1010
0000
0100
0100
0011
0010
,
2020
3030
0101
0100
2200
3300
0001
0100
,
2020
3030
1000
0100
2002
3003
1010
0010
,
0022
0033
1100
0100
0202
0303
1000
0100
,
0022
0033
0001
0100
1001
0100
0000
0000
,
0000
0000
0000
0000
,
0000
0000
0000
0000
0000
0000
0001
0100
,
0020
0030
1000
0100
0020
0030
0100
1000
,
0020
0030
0100
0001
0010
0110
1000
0100
,
0002
0003
0010
0010
0020
0030
1000
0010
,
0002
0003
0100
0100
0200
0310
2002
3003
,
0110
0001
0010
0100
0010
0001
2000
3000
,
0020
0230
0320
0030
1000
0100
2002
3003
,
0110
1000
0010
0100
0010
1000
0002
0003
,
0020
0230
0320
0030
0001
0100
0020
0000
,
0030
0010
1000
0010
0100
0001
0020
0000
,
0000
0000
0030
0000
0000
1000
0020
0000
,
0030
0010
0001
0010
0100
1000
0020
0000
,
0000
0000
0000
0000
0030
0000
0100
0100
0110
0000
0000
0000
1000
0000
1000
0000
,
1001
0000
0010
0001
0101
0000
0010
1000
,
1100
0000
0010
0010
0110
0000
0001
0001
,
1001
0000
0100
1000
1010
0000
0100
0001
,
0011
0000
0100
0100
1010
0010
0022
0033
,
1100
0100
0202
0303
1000
0100
0022
0033
,
0001
0100
2002
3003
0011
0010
2020
3030
,
0101
0100
2200
3300
0001
0100
2020
3030
,
1000
0100
1001
0100
0000
0000
0000
0000
;

//---------------dance-single - ----------------
#NOTEDATA:;
#CHARTNAME:;
#STEPSTYPE:dance-single;
#DESCRIPTION:;
#CHARTSTYLE:;
#DIFFICULTY:Easy;
#METER:4;
#RADARVALUES:0.143718,0.224289,0.137812,0.303187,0.000000,146.000000,126.000000,20.000000,44.000000,0.000000,0.000000,0.000000,0.000000,0.000000,0.143718,0.224289,0.137812,0.303187,0.000000,146.000000,126.000000,20.000000,44.000000,0.000000,0.000000,0.000000,0.000000,0.000000;
#CREDIT:led_light;
#NOTES:
0000
0000
0000
0000
,
0000
0000
0000
0000
,
0000
0000
0000
0000
,
0000
0000
0000
0000
,
0000
0000
0000
0000
,
2000
3000
0001
1000
,
0002
0003
0010
0100
,
2000
3000
0010
0100
,
0002
0000
0003
0000
,
0002
0003
1000
0001
,
2000
3000
0100
0010
,
0002
0003
0100
0010
,
2000
0000
3000
0000
,
2000
0000
3010
0010
,
0200
0000
0000
0300
,
0002
0000
0013
0010
,
0200
0000
0300
1001
,
0100
1001
0010
0110
,
0001
0011
0100
1100
,
0001
0101
0010
1010
,
0001
0220
0330
0001
,
0002
1003
2000
3010
,
0020
0130
0200
0301
,
0002
0013
0020
0130
,
0200
1300
2000
3000
,
0000
0000
0000
0000
,
0000
0000
0000
2000
,
3010
1000
1000
0200
,
0310
0100
0100
0001
,
0110
0001
0100
1000
,
0110
1000
0010
2002
,
3003
0010
0010
0100
,
0100
0200
0300
0220
,
0330
0001
0001
1000
,
1000
2000
3000
0002
,
0000
0103
0100
0020
,
0000
0030
0000
2000
,
0000
3100
0100
0020
,
0000
0030
1001
0010
,
1001
0100
0110
1000
,
1100
0010
0011
1000
,
1010
0100
0101
1000
,
0220
0330
1000
2000
,
3001
0002
0103
0200
,
0310
0020
1030
2000
,
3100
0200
0310
0020
,
0031
0002
0003
0000
;

//---------------dance-single - ----------------
#NOTEDATA:;
#CHARTNAME:;
#STEPSTYPE:dance-single;
#DESCRIPTION:;
#CHARTSTYLE:;
#DIFFICULTY:Beginner;
#METER:2;
#RADARVALUES:0.082687,0.160207,0.110250,0.137812,0.000000,84.000000,68.000000,16.000000,20.000000,0.000000,0.000000,0.000000,0.000000,0.000000,0.082687,0.160207,0.110250,0.137812,0.000000,84.000000,68.000000,16.000000,20.000000,0.000000,0.000000,0.000000,0.000000,0.000000;
#CREDIT:led_light;
#NOTES:
0000
0000
0000
0000
,
0000
0000
0000
0000
,
0000
0000
0000
0000
,
0000
0000
0000
0000
,
0000
0000
0000
0000
,
2000
3000
0000
0000
,
0200
0300
0000
0000
,
2000
3000
0000
0000
,
0020
0000
0030
0000
,
0002
0003
0000
0000
,
0200
0300
0000
0000
,
0002
0003
0000
0000
,
0020
0000
0030
0000
,
0002
0000
0000
0003
,
2000
0000
0000
3000
,
0020
0000
0000
0030
,
0200
0000
0300
0001
,
0000
0001
0000
1000
,
0000
1000
0000
0100
,
0000
0100
0000
0010
,
0000
0010
0000
1001
,
0000
1001
0000
0110
,
0000
0110
0000
1001
,
0000
1001
0000
0110
,
0000
0110
0020
0030
,
0000
0000
0000
0000
,
0000
0000
0000
1000
,
0000
1000
0000
0100
,
0000
0100
0000
0001
,
0000
0001
0000
0010
,
0000
0010
0000
2000
,
3000
0001
0000
0010
,
0010
0010
0000
0200
,
0300
1000
0000
0001
,
0001
0001
0000
2000
,
0000
0000
3000
0002
,
0000
0000
0003
0200
,
0000
0000
0300
0020
,
0000
0030
1000
0000
,
1000
0000
0001
0000
,
0001
0000
0010
0000
,
0010
0000
0100
0000
,
0100
0000
1001
0000
,
1001
0000
0110
0000
,
0110
0000
1001
0000
,
1001
0000
0110
0000
,
0110
0200
0300
0000
;

//---------------dance-double - ----------------
#NOTEDATA:;
#CHARTNAME:;
#STEPSTYPE:dance-double;
#DESCRIPTION:;
#CHARTSTYLE:;
#DIFFICULTY:Challenge;
#METER:12;
#RADARVALUES:0.415405,0.548579,0.330749,0.372093,0.416882,422.000000,374.000000,48.000000,54.000000,16.000000,0.000000,0.000000,0.000000,0.000000,0.415405,0.548579,0.330749,0.372093,0.416882,422.000000,374.000000,48.000000,54.000000,16.000000,0.000000,0.000000,0.000000,0.000000;
#CREDIT:led_light;
#NOTES:
00000000
00000000
00000000
00000000
,
00000000
00000000
00000000
00000000
,
00000000
00000000
00000000
00000000
,
00000000
00000000
00000000
00000000
,
00000000
00000000
00000000
00000000
00000000
00000000
00000000
00000000
00000000
00000000
00000000
00000000
00000000
00000000
10000000
01000000
,
00200000
00000000
00000000
00000000
00300000
00000000
00000000
00000000
00001000
00010000
00000100
00010000
00001000
00000000
00000100
00000000
,
00000020
00000000
00000000
00000001
00000000
00000000
00002030
00000000
00003100
00000001
00000100
00001000
00000001
00000000
00000010
00000000
,
00002000
00000000
00000000
00000000
00013000
00000000
00000000
00000000
00100000
10000000
00100000
00010000
00100000
00000000
01000000
00000000
,
00002000
00000000
00000000
00000100
00000000
00000000
00010000
00000000
00103000
00000000
00100000
00000000
00010000
00001000
00000100
00001000
,
00000020
00000000
00000000
00000000
00000030
00000000
00000000
00000000
00010000
00001000
01000000
00001000
00010000
00000000
01000000
00000000
,
00200000
00000000
00000000
10000000
00000000
00000000
00320000
00000000
01030000
00100000
02000000
00000000
13000000
00000000
01000000
00000000
,
00002000
00000000
00000000
00000000
00013000
00000000
00000000
00000000
00010000
00001000
00000010
00000001
00000010
00000000
00000100
00000000
,
00020000
00000000
00000000
01000000
00000000
00000000
00001000
00000000
00030010
00000000
00000010
00000000
00000100
00001000
00010000
01000000
,
20000000
00000000
30000000
00100000
00010000
00100000
10000000
00100000
,
00002000
00000000
00000000
00000000
00003020
00000000
00000030
00000100
,
00000002
00000000
00000003
00000010
00001000
00000010
00000001
00000010
,
00020000
00000000
00000000
00000000
00000000
00000000
00000000
00000000
00000000
00000000
00000000
00000000
00000000
00000000
00000000
00000000
00230000
00000000
00000000
00000000
01300000
01000000
00100000
01000000
10010000
00000000
00000000
00000000
00000000
00000000
00000000
00000000
,
01000000
10000000
00010000
00100000
01100000
00000000
00000000
00000000
00001000
00010000
00000100
00001000
00001010
00000000
00000000
00000000
,
00010000
00001000
01000000
00010000
00110000
00000000
00000000
00000000
01000000
10000000
00010000
10000000
10100000
00000000
00000000
00000000
,
01000000
00010000
10000000
00100000
01100000
00000000
00000000
00000000
00001000
00010000
00000010
00001000
00001100
00000000
00000000
00000000
,
00010000
00000000
00001000
00000000
00100000
00000000
00010000
00000000
00021000
00000000
00000000
00000000
00100000
00000000
00000000
00000000
10030000
00000000
01000000
00010000
01000000
00000000
00010000
00000000
00011000
00000000
00000000
00000000
00100000
00000000
00000000
00000000
,
00011000
00000020
00000100
00000030
00001001
00000000
00000010
00000000
00000110
00002000
00000001
00003000
00000101
00000000
00001000
00000000
,
00010100
00020000
00001000
00030000
00101000
00000000
00010000
00000000
10100000
00100000
00010000
00100000
01100000
00000000
00010000
00000000
,
11000000
00200000
00010000
00300000
00011000
00000000
01000000
00000000
00110000
00002000
00023000
00000000
01030000
10000000
01000000
10000000
,
00010000
00000000
00100000
00000000
00010000
00000000
00100000
00000000
01000000
00010000
00001000
00000000
00000100
00000000
00000001
00000000
00000010
00000000
00000100
00000000
00000010
00000000
00000100
00000000
00000000
00000000
00000000
00000000
00000000
00000000
00000000
00000000
,
00000000
00000000
00000000
00000000
,
00000000
00000000
00000000
00000000
00000000
00000000
00000000
00000000
MMMMMMMM
00000000
00000000
00000000
00001000
00010000
00001000
00000000
,
00200000
00000000
01300000
00000000
00010000
00001000
00010000
00000000
02000000
00000000
13000000
00000000
00100000
01000000
00100000
00000000
,
00020000
00000000
00030010
00000000
00000100
00000001
00001000
00000000
00000011
00000000
00001010
00000000
00001000
00010000
00100000
00000000
,
02100000
00000000
03010000
10000000
01000000
00100000
01000000
00010000
00002000
00000000
00013000
00001000
00000100
00000010
00000100
00000001
,
00002000
00000000
00003010
00000100
00000001
00000010
00000001
00000010
00000200
00000000
00010300
00001000
00022000
00000000
00033000
00000000
,
00010010
00000010
00001000
00000010
00010000
00001000
00010000
00001000
00100000
00010000
01000000
00100000
20000000
00000000
30000000
00000000
,
02000000
00000000
03200000
00000000
02000000
00000000
03300000
00000000
01100000
10000000
00010000
01000000
00200000
00000000
00300000
00000000
,
00011000
00100000
00010000
00100000
00001000
00010000
00001000
00010000
00000010
00001000
00000010
00000100
00000002
00000000
00000003
00000000
,
00000020
00000230
00000020
00000330
00000110
00001000
00000002
00000000
,
00000003
00000010
00001000
00000010
00000001
00000010
00020000
00000000
,
00000000
00000000
00030000
00000000
00000000
10000000
20000000
00000000
,
30000000
00100000
00010000
00100000
10000000
00100000
00002000
00000000
,
00000000
00000000
00000000
00000000
00000000
00000000
00000000
00000000
00003020
00000000
00000000
00000000
00000130
00000010
00000100
00000010
00001001
00000000
00000000
00000000
00000000
00000000
00000000
00000000
00000100
00000000
00000001
00000000
00001000
00000000
00000010
00000000
,
00000110
00000000
00000000
00000000
00010000
00001000
01000000
00010000
00110000
00000000
00000000
00000000
00001000
00010000
00000100
00001000
,
00001010
00000000
00000000
00000000
00000100
00000001
00001000
00000001
00000011
00000000
00000000
00000000
00000100
00001000
00000001
00000010
,
00000110
00000000
00000000
00000000
00010000
00001000
00100000
00010000
01010000
00000000
00000000
00000000
00001000
00010000
00000010
00001000
,
00012000
00000000
00000000
00000000
00000000
00000000
00000000
00000000
00003001
00000000
00000100
00001000
00000100
00000000
00001000
00000000
00011000
00000000
00000000
00000000
00000010
00000000
00000000
00000000
00011000
00000000
00200000
00000000
01000000
00000000
00300000
00000000
,
10010000
00000000
00100000
00000000
01100000
00020000
10000000
00030000
11000000
00000000
00010000
00000000
01001000
00002000
00010000
00003000
,
00010010
00000000
00001000
00000000
00000011
00000010
00001000
00000010
00000110
00000000
00001000
00000000
00000101
00000020
00001000
00000030
,
00011000
00000000
00000100
00000000
00001010
00020000
00032000
00000000
00003100
00000001
00000100
00000001
00001000
00000010
00001000
00000010
,
00000100
00000001
00000010
00000000
00001000
00000000
00010000
00000000
00100000
00000000
01000000
00000000
00100000
00000000
10000000
00000000
00000000
00000000
00000000
00000000
00000000
00000000
00000000
00000000
00000000
00000000
00000000
00000000
00000000
00000000
00000000
00000000
,
00000000
00000000
00000000
00000000
,
00000000
MMMMMMMM
00000000
00000000
;

//---------------dance-double - ----------------
#NOTEDATA:;
#CHARTNAME:;
#STEPSTYPE:dance-double;
#DESCRIPTION:;
#CHARTSTYLE:;
#DIFFICULTY:Hard;
#METER:12;
#RADARVALUES:0.416390,0.511972,0.337640,0.344531,0.423773,423.000000,374.000000,49.000000,50.000000,0.000000,0.000000,0.000000,0.000000,0.000000,0.416390,0.511972,0.337640,0.344531,0.423773,423.000000,374.000000,49.000000,50.000000,0.000000,0.000000,0.000000,0.000000,0.000000;
#CREDIT:led_light;
#NOTES:
00000000
00000000
00000000
00000000
,
00000000
00000000
00000000
00000000
,
00000000
00000000
00000000
00000000
,
00000000
00000000
00000000
00000000
,
00000000
00000000
00000000
00000000
00000000
00000000
00000000
00000000
00000000
00000000
00000000
00000000
00000000
00000000
00100000
00010000
,
00200000
00000000
00000000
00000000
00300000
00000000
00000000
00000000
00001000
00010000
00000100
00001000
00000001
00000000
00000100
00000000
,
00000020
00000000
00000000
00000100
00000000
00000000
00001000
00000000
00010030
00001000
00010000
00001000
00100000
00000000
01000000
00000000
,
00200000
00000000
00000000
00000000
00300000
00000000
00000000
00000000
10000000
00100000
01000000
00010000
00001000
00000000
00000010
00000000
,
00000200
00000000
00000000
00000001
00000000
00000000
00000010
00000000
00001300
00000000
00001001
00000000
00000001
00001000
00000010
00000100
,
00000020
00000000
00000000
00000000
00000030
00000000
00000000
00000000
00010000
00001000
01000000
00010000
10000000
00000000
01000000
00000000
,
00200000
00000000
00000000
01000000
00000000
00000000
00010000
00000000
00301000
00010000
00001000
00000000
00000100
00000000
00000010
00000000
,
00000002
00000000
00000000
00000000
00000003
00000000
00000000
00000000
00000001
00000010
00000100
00001000
00010000
00000000
00100000
00000000
,
02000000
00000000
00000000
10000000
00000000
00000000
00010000
00000000
03100000
00000000
10010000
00000000
10000000
00010000
00100000
01000000
,
00200000
00000000
00300000
00001000
00010000
00100000
00010000
00001000
,
00000200
00000000
00000000
00000000
00000302
00000000
00000003
00000010
,
00000200
00000000
00000300
00010000
00001000
00000010
00001000
00010000
,
00200000
00000000
00000000
00000000
00000000
00000000
00000000
00000000
00000000
00000000
00000000
00000000
00000000
00000000
00000000
00000000
20300000
00000000
00000000
00000000
30010000
00100000
01000000
10000000
10010000
00000000
00000000
00000000
00000000
00000000
00000000
00000000
,
10000000
01000000
00010000
00001000
00011000
00000000
00000000
00000000
00010000
00001000
00000100
00000001
00001001
00000000
00000000
00000000
,
00000001
00000010
00001000
00010000
00011000
00000000
00000000
00000000
00001000
00010000
00100000
01000000
01010000
00000000
00000000
00000000
,
00001000
00010000
01000000
00100000
00110000
00000000
00000000
00000000
00010000
00001000
00000100
00000010
00001010
00000000
00000000
00000000
,
00010000
00001000
00000010
00000100
00020000
00000000
00001000
00000000
00031000
00010000
00001000
00001000
00011000
00000000
00000010
00000000
,
00001010
00020000
00001000
00030000
00011000
00000000
00100000
00000000
00110000
00002000
00010000
00003000
01010000
00000000
00010000
00000000
,
10100000
20000000
01000000
30000000
00110000
00000000
00010000
00000000
11000000
10000000
00100000
00010000
00011000
00000000
01000000
00000000
,
01010000
00002000
00010000
00003000
00011000
00000000
00000100
00000000
00001100
00020000
00001000
00030000
00100000
00010000
00100000
00010000
,
01000000
00100000
01000000
00100000
10000000
01000000
00010000
00001000
00000100
00000001
00000100
00000001
00000000
00000000
00000000
00000000
,
00000000
00000000
00000000
00000000
,
00000000
00000000
00000000
00000000
00000000
00000000
00000000
00000000
00000000
00000000
00000000
00000000
00000100
00010000
00000100
00010000
,
00002000
00000000
00013000
00000010
00000100
00000001
00001000
00000100
00002000
00000000
00003001
00000100
00000010
00001000
00000010
00001000
,
00000002
00000000
00000013
00001000
00010000
00001000
00010000
00000000
00110000
00000000
10100000
00000000
10000000
01000000
10000000
00000000
,
01200000
00000000
00310000
10000000
00100000
00010000
00100000
00010000
00002000
00000000
00013000
00001000
00000010
00000001
00000010
00000001
,
00002000
00000000
00003100
00000010
00001000
00010000
00001000
00010000
00200000
00000000
01300000
00100000
02200000
00000000
03300000
00000000
,
10010000
00010000
00100000
01000000
10000000
00100000
10000000
00100000
00010000
00001000
00000010
00000001
00002000
00000000
00003000
00000000
,
00000020
00000000
00000230
00000000
00000020
00000000
00000330
00000000
00001001
00000001
00000100
00000010
00000220
00000000
00000330
00000000
,
00001001
00001000
00000100
00000010
00000001
00000100
00000001
00000100
00001000
00010000
01000000
10000000
00020000
00000000
00030000
00000000
,
02000000
03200000
02000000
03300000
01100000
00010000
00002000
00000000
,
00003000
00010000
00001000
00000010
00001000
00010000
02000000
00000000
,
00000000
00000000
03000000
00000000
00000000
00100000
00200000
00000000
,
00300000
00001000
00010000
00100000
00010000
00001000
00000020
00000000
,
00000000
00000000
00000000
00000000
00000000
00000000
00000000
00000000
00000032
00000000
00000000
00000000
00001003
00000010
00000100
00000001
00001001
00000000
00000000
00000000
00000000
00000000
00000000
00000000
00000001
00000000
00000100
00000000
00001000
00000000
00010000
00000000
,
00011000
00000000
00000000
00000000
00001000
00010000
01000000
10000000
10010000
00000000
00000000
00000000
10000000
00100000
00010000
00001000
,
00011000
00000000
00000000
00000000
00010000
00001000
00000010
00000100
00001100
00000000
00000000
00000000
00010000
00001000
00000100
00000010
,
00001010
00000000
00000000
00000000
00001000
00010000
01000000
00100000
00110000
00000000
00000000
00000000
00001000
00010000
00100000
01000000
,
00002000
00000000
00000000
00000000
00013000
00001000
00010000
00010000
00011000
00000000
00100000
00000000
00110000
00002000
00010000
00003000
,
00011000
00000000
00000010
00000000
00001010
00020000
00001000
00030000
00001100
00000000
00001000
00000000
00000011
00000002
00000100
00000003
,
00001010
00000000
00001000
00000000
00000101
00000001
00000010
00001000
00011000
00000000
00000100
00000000
00001100
00020000
00001000
00030000
,
00011000
00000000
01000000
00000000
01010000
00002000
00010000
00003000
00000010
00001000
00000010
00001000
00000100
00000010
00000100
00000010
,
00000001
00000100
00001000
00010000
01000000
10000000
01000000
10000000
00000000
00000000
00000000
00000000
00000000
00000000
00000000
00000000
;

//---------------dance-double - ----------------
#NOTEDATA:;
#CHARTNAME:;
#STEPSTYPE:dance-double;
#DESCRIPTION:;
#CHARTSTYLE:;
#DIFFICULTY:Medium;
#METER:8;
#RADARVALUES:0.270703,0.351507,0.282515,0.406546,0.006891,275.000000,234.000000,41.000000,59.000000,0.000000,0.000000,0.000000,0.000000,0.000000,0.270703,0.351507,0.282515,0.406546,0.006891,275.000000,234.000000,41.000000,59.000000,0.000000,0.000000,0.000000,0.000000,0.000000;
#CREDIT:led_light;
#NOTES:
00000000
00000000
00000000
00000000
,
00000000
00000000
00000000
00000000
,
00000000
00000000
00000000
00000000
,
00000000
00000000
00000000
00000000
,
00000000
00000000
00000000
00000000
00000000
00000000
00000000
00000100
,
00000002
00000000
00000003
00000000
00000010
00001000
00010000
00001000
,
00000020
00000000
00000030
00000000
00000100
00010000
00001000
01000000
,
00200000
00000000
00300000
00000000
00010000
00100000
10000000
00100000
,
00020000
00000000
00100000
00000000
00031000
00100000
01000000
01000000
,
20000000
00000000
30000000
00000000
00100000
00010000
00001000
00010000
,
00200000
00000000
00300000
00000000
01000000
00001000
00010000
00000100
,
00000020
00000000
00000030
00000000
00001000
00000010
00000001
00000010
,
00002000
00000000
00000010
00000000
00013000
00000010
00000100
00000010
,
00002000
00000000
00003000
00000100
00000001
00000100
00001000
00000100
,
00020000
00000000
00000000
00000000
00032000
00000000
00003000
00100000
,
00020000
00000000
00030000
01000000
10000000
01000000
00100000
00010000
,
00002000
00000000
00000000
00000000
00000000
00000000
00000000
00000000
00023000
00000000
00031000
00010000
00011000
00000000
00000000
00000000
,
00100000
00010000
01100000
00000000
00010000
01000000
10100000
00000000
,
01000000
00010000
00101000
00000000
00010000
00001000
00011000
00000000
,
00000100
00001000
00000110
00000000
00001000
00000010
00000101
00000000
,
00000010
00001000
00020100
00000000
00031000
00010000
00011000
00000010
,
00022000
00033000
01100000
00010000
02200000
03300000
10010000
01000000
,
00220000
00330000
01000000
10000000
10200000
00310000
00011000
01000000
,
00022000
00033000
00000110
00001000
00000220
00000330
00000001
00000001
,
00000010
00000010
00001000
00010000
00100000
10000000
00000000
00000000
,
00000000
00000000
00000000
00000000
,
00000000
00000000
00000000
00000000
00000000
00000000
00001000
00010000
,
02000000
03000000
00010000
00001000
00000200
00000300
00000010
00010000
,
00002000
00003000
00100000
00001000
00010000
00011000
01000000
00010000
,
00200000
00300000
00000100
00001000
00000020
00000030
00000100
00000001
,
00000020
00000030
00001000
00010000
00100000
00010000
00002000
00003000
,
00011000
00001000
00100000
01000000
00100000
00010000
20000000
30000000
,
00200000
00320000
00032000
00003000
00100000
00001000
00020000
00030000
,
00011000
00010000
00000100
00000010
00000100
00001000
00000002
00000003
,
00000200
00002300
00023000
00030000
00000100
00010000
00002000
00000000
,
00003000
00000010
00000001
00000010
00001000
00000010
00020000
00000000
,
00000000
00000000
00030000
00000000
00000000
01000000
00020000
00000000
,
00030000
00100000
10000000
00100000
01000000
00010000
00002000
00000000
,
00000000
00000000
00000000
00000000
00023000
00000000
00031000
00010000
00011000
00000000
00000000
00000000
01000000
00000000
00010000
00000000
,
01100000
00000000
00010000
00100000
11000000
00000000
00100000
00010000
,
01001000
00000000
00010000
00001000
00011000
00000000
00000010
00001000
,
00000110
00000000
00001000
00000100
00000011
00000000
00000100
00001000
,
00020010
00000000
00031000
00010000
00011000
00000100
00022000
00033000
,
01100000
00010000
02200000
03300000
10010000
00100000
02020000
03030000
,
00100000
10000000
12000000
03010000
00011000
00100000
00022000
00033000
,
00000110
00001000
00000220
00000330
00000001
00000001
00000100
00000100
,
00001000
00010000
01000000
10000000
00000000
00000000
00000000
00000000
;

//---------------dance-double - ----------------
#NOTEDATA:;
#CHARTNAME:;
#STEPSTYPE:dance-double;
#DESCRIPTION:;
#CHARTSTYLE:;
#DIFFICULTY:Easy;
#METER:4;
#RADARVALUES:0.138797,0.223084,0.103359,0.234281,0.000000,141.000000,126.000000,15.000000,34.000000,0.000000,0.000000,0.000000,0.000000,0.000000,0.138797,0.223084,0.103359,0.234281,0.000000,141.000000,126.000000,15.000000,34.000000,0.000000,0.000000,0.000000,0.000000,0.000000;
#CREDIT:led_light;
#NOTES:
// measure 0
00000000
00000000
00000000
00000000
,  // measure 1
00000000
00000000
00000000
00000000
,  // measure 2
00000000
00000000
00000000
00000000
,  // measure 3
00000000
00000000
00000000
00000000
,  // measure 4
00000000
00000000
00000000
00000000
,  // measure 5
20000000
30000000
01000000
00010000
,  // measure 6
00002000
00003000
00000100
00000001
,  // measure 7
00000020
00000030
00001000
00010000
,  // measure 8
00002000
00000000
00003000
00000000
,  // measure 9
00020000
00030000
01000000
10000000
,  // measure 10
00200000
00300000
00010000
00001000
,  // measure 11
00020000
00030000
00001000
00000010
,  // measure 12
00000002
00000000
00000003
00000000
,  // measure 13
00002000
00000000
00003100
00000010
,  // measure 14
00000200
00000000
00000000
00000300
,  // measure 15
00020000
00000000
00130000
01000000
,  // measure 16
00200000
00000000
00300000
10010000
,  // measure 17
01000000
10010000
00100000
00011000
,  // measure 18
00000010
00001001
00000100
00000110
,  // measure 19
00001000
00011000
00100000
01100000
,  // measure 20
01000000
00200000
00300000
10000000
,  // measure 21
20000000
30010000
00020000
00130000
,  // measure 22
00200000
00301000
00002000
00003010
,  // measure 23
00000020
00000031
00000002
00000103
,  // measure 24
00001000
00010000
01000000
00000000
,  // measure 25
00000000
00000000
00000000
00000000
,  // measure 26
00000000
00000000
00000000
00010000
,  // measure 27
00001000
00001000
00010000
00000010
,  // measure 28
00000100
00000010
00000010
00001000
,  // measure 29
00001001
00000001
00000010
00001000
,  // measure 30
00001000
00010000
00010000
00200000
,  // measure 31
00300000
10000000
00100000
10000000
,  // measure 32
01000000
00020000
00030000
00002000
,  // measure 33
00003000
00010000
00001000
00010000
,  // measure 34
00100000
20000000
30000000
00020000
,  // measure 35
00000000
00130000
01000000
00200000
,  // measure 36
00000000
00000000
00300000
00002000
,  // measure 37
00000000
00003100
00000010
00000200
,  // measure 38
00000000
00000300
00001001
00000010
,  // measure 39
00001001
00000100
00011000
01000000
,  // measure 40
10010000
00100000
01100000
00010000
,  // measure 41
00011000
00000100
00000110
00000010
,  // measure 42
00000200
00000300
00000001
00000002
,  // measure 43
00001003
00002000
00003100
00000200
,  // measure 44
00010300
00020000
01030000
02000000
,  // measure 45
13000000
20000000
30100000
00010000
,  // measure 46
00001000
00000010
00000000
00000000
;
