#TITLE:VAMPIRE;
#SUBTITLE:;
#ARTIST:nyankobrq;
#TITLETRANSLIT:;
#SUBTITLETRANSLIT:;
#ARTISTTRANSLIT:;
#GENRE:BEMANI;
#CREDIT:;
#BANNER:VAMPIRE.png;
#BACKGROUND:VAMPIRE-bg.png;
#LYRICSPATH:;
#CDTITLE:../cdtitle.png;
#MUSIC:VAMPIRE.ogg;
#OFFSET:0.000000;
#SAMPLESTART:28.132999;
#SAMPLELENGTH:15.000000;
#SELECTABLE:YES;
#BPMS:0.000000=145.000000
;
#STOPS:83.500000=0.414000,
117.000000=0.414000,
123.000000=0.413000,
208.500000=0.414000,
242.000000=0.414000,
248.000000=0.414000
;
#BGCHANGES:-99.000=../bg.avi=1.000=0=0=1=====,
99999=-nosongbg-=1.000=0=0=0 // don't automatically add -songbackground-
;
#KEYSOUNDS:;
#ATTACKS:;

//---------------dance-single - ----------------
#NOTES:
     dance-single:
     :
     Hard:
     15:
     0.615118,0.753824,0.333092,0.625564,0.641812,530.000000,489.000000,41.000000,77.000000,0.000000,0.000000,0.615118,0.753824,0.333092,0.625564,0.641812,530.000000,489.000000,41.000000,77.000000,0.000000,0.000000:
// measure 0
0000
0000
0000
0000
,  // measure 1
0000
0000
0000
0000
,  // measure 2
0000
0000
0000
0000
,  // measure 3
0000
0000
0000
0000
,  // measure 4
0000
0000
0000
0000
,  // measure 5
0000
0000
0000
0000
,  // measure 6
0000
0000
0000
0000
,  // measure 7
0000
0000
0000
0000
,  // measure 8
0020
0000
0000
0000
0030
0000
0000
0000
0001
0100
0000
0001
0100
0010
1000
0000
,  // measure 9
2001
0100
0000
3100
,  // measure 10
1002
0000
0000
0000
0100
0000
0000
0000
1003
0100
0000
0100
0010
0000
0001
0000
,  // measure 11
2000
0100
0000
0100
,  // measure 12
3002
0000
0000
0000
0010
0000
0000
0000
1003
0001
0000
0001
0100
0000
0010
0000
,  // measure 13
1000
0000
1100
0000
1000
0100
0001
0000
,  // measure 14
0001
0000
0011
0000
0001
0010
1000
0000
,  // measure 15
0021
0000
0000
0000
,  // measure 16
0130
1000
0100
0010
0000
0010
0001
0100
0010
0100
0010
1000
0200
0000
0000
0300
,  // measure 17
0022
0000
0000
0000
0033
0000
0200
0000
0310
0001
0000
0001
0000
0001
0010
0100
,  // measure 18
1000
0000
0001
0000
0101
0000
0000
1010
0000
0000
0101
0000
0000
2000
0000
0000
,  // measure 19
3200
0000
0302
0000
0203
0000
1300
0002
0000
0003
0010
0001
0000
0001
0100
0010
,  // measure 20
2000
0000
3010
0000
0100
0001
0010
0200
0000
0300
1000
0000
0100
0010
0001
0000
,  // measure 21
0220
0000
0330
0000
0100
1000
0000
1000
0000
1000
0001
0100
0010
0000
1000
0000
,  // measure 22
0011
0000
0000
1100
0000
0000
0011
0000
0000
2000
0000
0000
3020
0000
0032
0000
,  // measure 23
0023
0000
1030
0002
0000
0003
0010
0100
0000
0100
1000
0001
0020
0000
0031
0000
,  // measure 24
0100
0010
1000
0020
0000
0030
0100
0001
1000
0000
0100
0000
0020
0000
0030
0000
,  // measure 25
2100
0000
0000
0000
3001
0010
0100
2000
0000
3001
0100
0010
1000
0000
0001
0000
,  // measure 26
0011
0000
0000
0110
0000
0000
0011
0000
0000
0002
0000
0000
0203
0000
0000
0000
,  // measure 27
0310
0000
0000
1020
0000
0000
1030
0000
0100
0000
1000
0001
0000
0100
0000
0010
,  // measure 28
1000
0000
0100
0000
0010
0000
0010
0001
0000
0001
0010
0100
2000
0000
0000
0000
,  // measure 29
0000
0000
0000
0000
3001
0000
0000
0000
0110
0000
2000
0000
3001
0010
0001
0010
,  // measure 30
0100
1000
0001
0100
0010
0000
0000
0000
2010
0000
0000
0000
3001
0000
0100
0001
,  // measure 31
0100
0010
1000
0100
0020
0000
0000
0000
0100
0000
0000
0100
0000
0000
0001
0000
,  // measure 32
0031
0000
0100
0000
1001
0000
0010
0000
1000
0001
0000
0100
0000
0010
0000
1000
,  // measure 33
0001
0000
0001
0010
0000
0000
0100
0000
1000
0001
0000
1000
0100
0000
0010
0001
,  // measure 34
0000
1000
0000
0001
0100
0010
0100
0010
1000
0010
1000
0010
1000
0100
1000
0100
,  // measure 35
0010
0100
0010
0002
0000
0003
0100
0001
0000
1000
0000
0100
0000
0010
0100
0000
,  // measure 36
0001
0000
0100
0000
2000
0000
0000
0000
3001
0000
0010
0000
0000
0000
0001
0100
,  // measure 37
0001
1000
0010
0100
0001
1000
0000
1100
,  // measure 38
0000
0010
0002
0000
1003
0001
0100
0010
,  // measure 39
1000
0001
0100
0001
0010
0100
2000
0000
,  // measure 40
3002
0000
1003
0100
1000
1000
0100
1000
,  // measure 41
0001
0000
0001
0000
0010
0000
0001
0000
0100
0000
0010
0000
1000
0001
0000
0001
,  // measure 42
0010
0100
1000
0000
0001
0000
0010
0000
0001
0000
0001
0000
0010
0000
0001
0000
,  // measure 43
1000
0000
1000
0000
0100
0000
1000
0000
0010
0000
0100
0000
0001
1000
0000
1000
,  // measure 44
0100
0010
0001
0000
0010
0000
0100
0000
0010
0000
0110
0000
0000
0000
0001
0000
,  // measure 45
0100
0000
0001
0000
0101
0000
0100
0000
0010
0000
0110
0000
0010
1000
0000
1000
,  // measure 46
0100
0000
0010
0001
0020
0000
0000
0000
0100
0000
0000
0000
0000
0000
0000
0000
,  // measure 47
0100
0000
0000
0000
0130
1000
0100
0010
0000
0010
0001
0100
0010
0100
0010
1000
,  // measure 48
0200
0000
0000
0300
0022
0000
0000
0000
0033
0000
0000
0000
0100
1000
0000
1000
,  // measure 49
0000
1000
0100
0010
0001
0000
1000
0000
1010
0000
0000
0101
0000
0000
1010
0000
,  // measure 50
0000
0002
0000
0000
0023
0000
2030
0000
3020
0000
0031
2000
0000
3000
0100
1000
,  // measure 51
0000
1000
0010
0100
0002
0000
0103
0000
0010
1000
0100
0020
0000
0030
0001
0000
,  // measure 52
0010
0100
1000
0000
0220
0000
0330
0000
0010
0001
0000
0001
0000
0001
1000
0010
,  // measure 53
0100
0000
0001
0000
1100
0000
0000
0011
0000
0000
1100
0000
0000
0002
0000
0000
,  // measure 54
0203
0000
2300
0000
3200
0000
0301
2000
0000
3000
0100
0010
0000
0010
0001
1000
,  // measure 55
0200
0000
1300
0000
0010
0100
0001
0200
0000
0300
0010
1000
0001
0000
0010
0000
,  // measure 56
0200
0000
0300
0000
0012
0000
0000
0000
1003
0100
0010
0002
0000
1003
0010
0100
,  // measure 57
0001
0000
1000
0000
1100
0000
0000
0110
0000
0000
1100
0000
0000
2000
0000
0000
,  // measure 58
3020
0000
0000
0000
0130
0000
0000
0201
0000
0000
0301
0000
0010
0000
0001
1000
,  // measure 59
0000
0010
0000
0100
0001
0000
0010
0000
0100
0000
0100
1000
0000
1000
0100
0010
,  // measure 60
0002
0000
0000
0000
1003
0000
0110
0002
,  // measure 61
1003
0100
1000
0100
0010
0001
1000
0010
0100
0000
0000
0000
0102
0000
0000
0000
,  // measure 62
1003
0000
0010
1000
0010
0100
0001
0010
0200
0000
0000
0000
0010
0000
0000
0010
,  // measure 63
0000
1000
1300
0010
2000
0000
0100
0000
,  // measure 64
0000
0100
3002
0100
,  // measure 65
1003
0100
0000
0100
0010
0001
1000
0000
0002
0000
0000
0000
0010
0000
0000
0000
,  // measure 66
0000
0010
2003
0100
,  // measure 67
3001
0100
0000
0100
0010
1000
0001
0000
0010
0000
0100
0000
0010
0000
0210
0000
,  // measure 68
0000
0000
0310
0000
0100
0010
0001
0100
,  // measure 69
0010
1000
0000
0010
1000
0000
0001
0010
0002
0000
0000
0000
0010
0000
0000
0000
,  // measure 70
0000
0000
0000
0000
0010
0000
0000
0000
0103
0010
0100
0000
0001
0000
0100
0000
,  // measure 71
0010
1000
0000
0100
0010
0100
0010
0000
0000
0000
0000
0000
0000
0000
0000
0000
;

//---------------dance-single - ----------------
#NOTES:
     dance-single:
     :
     Medium:
     10:
     0.384159,0.463892,0.121863,0.430583,0.186857,331.000000,316.000000,15.000000,53.000000,0.000000,0.000000,0.384159,0.463892,0.121863,0.430583,0.186857,331.000000,316.000000,15.000000,53.000000,0.000000,0.000000:
0000
0000
0000
0000
,
0000
0000
0000
0000
,
0000
0000
0000
0000
,
0000
0000
0000
0000
,
0000
0000
0000
0000
,
0000
0000
0000
0000
,
0000
0000
0000
0000
,
0000
0000
0000
0000
,
0020
0000
0030
0000
0100
0000
0100
1000
,
0002
0000
0010
0000
,
2003
0000
0100
3010
,
0200
0000
1000
0000
,
0320
0000
0001
1030
,
0002
0010
0000
0010
,
2003
0100
3010
0100
,
2002
0000
0000
0003
,
3100
0100
0010
0000
1000
0000
0002
0003
,
0220
0000
0000
0000
0330
0000
1000
0000
0001
0000
0000
0001
0000
0000
0100
0000
,
0010
0000
1000
0000
0100
0000
0000
0100
0000
0000
0001
0000
0000
0200
0000
0000
,
1300
0000
0100
0000
0010
0000
0000
0001
0000
0000
0001
0000
1000
0000
0100
0000
,
0001
0000
0100
0000
1000
0000
0000
0010
0000
0000
0010
0000
0100
0000
0010
0000
,
1002
0000
0000
0000
0013
0000
0000
1000
0000
0000
1000
0000
0001
0000
0100
0000
,
1000
0000
0000
1000
0000
0000
0001
0000
0000
2000
0000
0000
3010
0000
0100
0000
,
0001
0000
0000
0010
0000
0000
0010
0000
0100
0000
0010
0000
0001
0000
1000
0000
,
0010
0000
0000
0100
0000
0000
0100
0000
0001
0000
1000
0000
0001
0000
0000
0000
,
0110
0000
0000
0000
1000
0000
0000
0100
0000
0000
0010
0000
0001
0000
0100
0000
,
0010
0000
0000
0010
0000
0000
1000
0000
0000
0002
0000
0000
2003
0000
0000
0000
,
3100
0000
0000
0020
0000
0000
0130
0000
1000
0000
0000
0001
0000
0001
0000
0000
,
0010
0000
0100
0000
1000
0000
0000
0010
0000
0000
0100
0000
0002
0000
0000
0000
,
0000
0000
1003
0000
0011
0100
0020
0000
,
1000
0000
0031
0000
0210
0000
1300
0001
,
0100
0000
0010
0000
2000
0000
0000
0000
0010
0000
0000
0010
0000
0000
3001
0000
,
0010
0000
0100
0000
0010
0000
0001
0000
1000
0000
0000
0001
0000
0100
0000
0001
,
0000
0000
0010
0000
0001
0000
1000
0000
0100
0000
0000
0010
0000
0000
0001
0000
,
0000
1000
0000
1000
0001
0000
0100
0000
0010
0000
1000
0000
0001
0000
0100
0000
,
0010
0000
0000
2000
0000
0000
0000
3100
0000
0010
0000
0001
0000
0000
1000
0000
,
0001
0100
0020
0000
0200
0000
0300
0130
,
0010
1000
0001
0010
0100
1000
0000
0100
,
0000
0010
0002
0000
0010
0000
1003
0100
,
0010
0100
1000
0010
0100
0010
2000
0000
,
3002
2003
0100
0000
,
0100
3002
0010
0100
,
0103
0020
0001
0000
,
0001
0230
1000
0001
,
0301
0000
1001
0000
0100
0010
0000
0000
,
0010
1001
0010
0100
,
0010
0100
2002
0000
0000
0000
0000
0000
,
0003
0000
3010
0010
0100
0000
1000
0000
,
0002
0000
0003
0000
0220
0000
0000
0000
0330
0000
0000
0000
1000
0000
0000
1000
,
0000
0000
0010
0000
0100
0000
0001
0000
0010
0000
0000
0010
0000
0000
1000
0000
,
0000
0020
0000
0000
0031
0000
0010
0000
0100
0000
0000
1000
0000
0000
1000
0000
,
0001
0000
0010
0000
1000
0000
0010
0000
0001
0000
0000
0100
0000
0000
0100
0000
,
0010
0000
0100
0000
2001
0000
0000
0000
3100
0000
0000
0001
0000
0000
0001
0000
,
1000
0000
0010
0000
0001
0000
0000
0001
0000
0000
1000
0000
0000
0002
0000
0000
,
0103
0000
0010
0000
1000
0000
0000
0100
0000
0000
0100
0000
0010
0000
0100
0000
,
1000
0000
0001
0000
0100
0000
0000
0010
0000
0000
0010
0000
1000
0000
0001
0000
,
1000
0000
0000
0000
0110
0000
0000
0000
0001
0000
0000
0010
0000
0000
0100
0000
,
1000
0000
0010
0000
0100
0000
0000
0100
0000
0000
0001
0000
0000
2000
0000
0000
,
3002
0000
0000
0000
0013
0000
0000
0200
0000
0000
0310
0000
0001
0000
0000
1000
,
0000
1000
0000
0000
0100
0000
0010
0000
0001
0000
0000
0100
0000
0000
0010
0000
,
2000
0000
0000
0000
3001
0000
1100
0010
,
0200
0001
1300
0120
,
0031
0000
1000
0000
0010
0000
0100
0000
0002
0000
0000
0000
0100
0000
0000
0100
,
0000
1003
0100
0010
0002
0000
0010
0000
,
0000
0010
2003
0100
,
0010
3010
0200
1000
,
0000
1000
0320
0001
,
1000
0000
1030
0000
0001
0000
0001
0010
,
0000
0000
0010
0000
1000
0000
1000
0010
,
0000
0010
2002
0000
,
0000
0000
3000
0000
0013
0010
0100
0000
,
0010
0001
1000
0001
0000
0000
0000
0000
;

//---------------dance-single - ----------------
#NOTES:
     dance-single:
     :
     Easy:
     6:
     0.268099,0.318367,0.300596,0.617439,0.000000,231.000000,194.000000,37.000000,76.000000,0.000000,0.000000,0.268099,0.318367,0.300596,0.617439,0.000000,231.000000,194.000000,37.000000,76.000000,0.000000,0.000000:
0000
0000
0000
0000
,
0000
0000
0000
0000
,
0000
0000
0000
0000
,
0000
0000
0000
0000
,
0000
0000
0000
0000
,
0000
0000
0000
0000
,
0000
0000
0000
0000
,
0000
0000
0000
0000
,
0020
0000
0130
0010
,
2002
3000
0020
0030
,
0200
0300
1003
0100
,
0220
0030
0002
0003
,
2000
3000
0310
0001
,
2000
0100
0000
0100
,
3002
0010
1003
0010
,
0220
0000
0000
0330
,
2000
0000
3100
0001
,
0220
0330
0001
1001
,
0001
2000
3000
1100
,
0001
0200
0300
0011
,
1000
0200
0300
0110
,
2002
3003
0110
1000
,
0002
0003
0101
1000
,
0200
0300
1010
0001
,
0100
0100
0010
0001
,
2010
3001
0010
0100
,
0020
0030
1100
0001
,
2000
3000
1100
0010
,
0100
1000
0001
0220
,
0000
0330
1001
2000
,
3002
1003
0200
0310
,
0110
0002
1000
0000
,
1000
1003
0100
0001
,
0001
1000
1000
0010
,
0001
0020
0230
0320
,
0230
0300
0100
1000
,
0001
0020
0001
0030
,
0001
1000
0010
0000
,
0100
0002
0000
1003
,
0001
0010
0100
1000
,
0001
2000
0100
0000
,
0100
0000
0010
3001
,
0010
0020
1000
0000
,
1000
0000
0001
0130
,
1000
0002
0010
0000
,
0010
2003
0100
3001
,
0100
0220
0000
0000
,
0330
0002
0000
0013
,
1000
0220
0330
1000
,
1001
1000
0002
0003
,
0011
1000
0020
0030
,
1100
0001
0020
0030
,
0110
2002
3003
0110
,
0001
2000
3000
1010
,
0001
0020
0030
0101
,
1000
0010
0010
0100
,
1000
0102
1003
0100
,
0010
0200
0300
0011
,
1000
0002
0003
0011
,
0100
0010
0001
1000
,
0220
0000
0330
1001
,
0002
2003
3001
0020
,
0130
0110
2000
0001
,
0000
3001
2002
0003
,
0200
0300
0020
0030
,
3001
0010
0220
0300
,
2000
3000
0002
0003
,
0130
1000
0002
0010
,
0000
0010
2003
0100
,
3001
0100
0220
0000
,
0000
0330
2000
3000
,
1000
0001
0000
0000
;

//---------------dance-single - ----------------
#NOTES:
     dance-single:
     :
     Beginner:
     4:
     0.150878,0.202597,0.073118,0.259975,0.000000,130.000000,121.000000,9.000000,32.000000,0.000000,0.000000,0.150878,0.202597,0.073118,0.259975,0.000000,130.000000,121.000000,9.000000,32.000000,0.000000,0.000000:
0000
0000
0000
0000
,
0000
0000
0000
0000
,
0000
0000
0000
0000
,
0000
0000
0000
0000
,
0000
0000
0000
0000
,
0000
0000
0000
0000
,
0000
0000
0000
0000
,
0000
0000
0000
0000
,
0000
0000
0000
0000
,
0002
0000
0003
0000
,
0020
0000
0030
0000
,
0200
0000
0300
0000
,
2000
0000
3000
0000
,
0002
0000
0000
0003
,
1000
0000
0001
0000
,
2002
0000
0000
3003
,
0100
0100
0100
0000
,
0220
0330
0010
0000
,
1000
0001
0000
0001
,
1000
0000
0001
0000
,
0010
0000
0100
0100
,
0100
0010
0000
0001
,
1000
0000
1000
0001
,
0000
0001
0000
1000
,
0000
0001
0000
0000
,
0010
0010
0000
0100
,
0010
0000
0010
0100
,
0000
1000
0000
0010
,
0000
0100
0000
2002
,
0000
3003
0200
0000
,
0000
0300
0100
0010
,
0110
0002
0000
0000
,
0003
1000
0000
0010
,
0000
0001
0000
0001
,
0000
1000
0000
0100
,
0000
0001
0000
1000
,
0000
0002
0000
0003
,
0000
1000
0000
1000
,
0000
0200
0000
0300
,
0000
1000
0000
0001
,
0000
2000
0000
3000
,
0000
0020
0000
0030
,
0000
0200
0000
0300
,
0000
0002
0000
0003
,
0000
2000
0000
3000
,
0000
0001
0000
1000
,
0000
2002
0000
0000
,
3003
0100
0100
0100
,
0000
0220
0330
0010
,
0000
0001
1000
0000
,
1000
0001
0000
1000
,
0000
0010
0000
0100
,
0100
0100
0010
0000
,
1000
0001
0000
0001
,
1000
0000
1000
0000
,
0001
0000
1000
0000
,
0000
0010
0010
0000
,
0100
0010
0000
0010
,
0100
0000
0001
0000
,
0010
0000
0100
0000
,
2002
0000
3003
0200
,
0000
0000
0300
0100
,
0010
0110
2000
0000
,
0000
3000
0001
0000
,
1000
0000
0010
0000
,
0100
0100
0010
0000
,
0100
0000
0001
0000
,
1000
1000
0002
0000
,
0000
0003
1000
0000
,
0001
0000
2002
0000
,
0000
3003
0020
0030
,
0100
0100
0000
0000
;
