#TITLE:泡沫、哀のまほろば;
#SUBTITLE:;
#ARTIST:幽閉サテライト feat. senya;
#TITLETRANSLIT:Utakata, ai no mahoroba;
#SUBTITLETRANSLIT:;
#ARTISTTRANSLIT:Yuuhei Satellite feat. senya;
#GENRE:J-Music;
#CREDIT:;
#BANNER:Utakata ai no mahoroba.png;
#BACKGROUND:Utakata ai no mahoroba-bg.png;
#LYRICSPATH:;
#CDTITLE:../cdtitle.png;
#MUSIC:Utakata ai no mahoroba.ogg;
#OFFSET:1.343000;
#SAMPLESTART:54.397999;
#SAMPLELENGTH:15.000000;
#LASTBEATHINT:0.886083;
#SELECTABLE:YES;
#DISPLAYBPM:155.000000;
#BPMS:0.000000=155.000000
,216.000000=120.000000
,234.000000=93.000000
,235.000000=87.000000
,235.500000=71.000000
,236.000000=38.750000
;
#STOPS:
;
#BGCHANGES:0.000=Utakata ai no mahoroba.avi=1.000=1=0=1===CrossFade=#000000=,
4.000=Utakata ai no mahoroba.avi=1.000=0=0=0=StretchNoLoop====,
99999=-nosongbg-=1.000=0=0=0 // don't automatically add -songbackground-
;
#KEYSOUNDS:;
#ATTACKS:;

//---------------dance-single - ----------------
#NOTES:
     dance-single:
     :
     Beginner:
     2:
     0.076906,0.176736,0.058729,0.127245,0.000000,55.000000,49.000000,6.000000,13.000000,0.000000,0.000000,0.076906,0.176736,0.058729,0.127245,0.000000,55.000000,49.000000,6.000000,13.000000,0.000000,0.000000:
0000
0000
0000
0000
,
0000
0000
0000
0000
,
0000
0000
0000
0000
,
0000
0000
0000
0000
,
0000
0000
0000
0000
,
1001
0000
0000
0000
,
0110
0000
0000
0000
,
2002
0000
0000
0000
,
0000
0000
0000
0000
,
3003
0000
0000
0000
,
0010
0000
0010
0000
,
0010
0000
0000
0000
,
0100
0000
0100
0000
,
0100
0000
0000
0000
,
0001
0000
0001
0000
,
0001
0000
0000
0000
,
1000
0000
1000
0000
,
1000
0000
0000
0000
,
0002
0000
0000
0000
,
0003
0000
0000
0000
,
0200
0000
0000
0000
,
0300
0000
0000
0000
,
0020
0000
0000
0000
,
0030
0000
0000
0000
,
2000
0000
0000
0000
,
3000
0000
0000
0000
,
0001
0000
0000
0000
,
0100
0000
0000
0000
,
0010
0000
0000
0000
,
1000
0000
0000
0000
,
1000
0000
0000
0000
,
0100
0000
0000
0000
,
0010
0000
0010
0000
,
0020
0000
0000
0000
,
0030
0000
0000
0000
,
0000
0000
0000
0000
,
0001
0000
0000
0000
,
1000
0000
0000
0000
,
0001
0000
0000
0000
,
0100
0000
0000
0000
,
0010
0000
0000
0000
,
1000
0000
0000
0000
,
0100
0000
0000
0000
,
0010
0000
0000
0000
,
0001
0000
0001
0000
,
0001
0000
0000
0000
,
1000
0000
1000
0000
,
1000
0000
0000
0000
,
1001
0000
0000
0000
,
0110
0000
0000
0000
,
2002
0000
0000
0000
,
0000
0000
0000
0000
,
3003
0000
0000
0000
,
0000
0000
0000
0000
,
2000
0000
3000
0000
,
0200
0000
0300
0000
,
0020
0000
0000
0000
,
0000
0000
0000
0000
,
0030
0000
0000
0000
,
0200
0000
0000
0000
,
0000
0000
0000
0300
0000
0000
0000
0000
0000
0000
0000
0000
0000
0000
0000
0000
;

//---------------dance-single - ----------------
#NOTES:
     dance-single:
     :
     Hard:
     11:
     0.374744,0.530208,0.323007,0.636226,0.009788,268.000000,235.000000,33.000000,65.000000,0.000000,0.000000,0.374744,0.530208,0.323007,0.636226,0.009788,268.000000,235.000000,33.000000,65.000000,0.000000,0.000000:
// measure 0
0000
0000
0000
0000
,  // measure 1
0000
0000
0000
0000
,  // measure 2
0000
0000
0000
0000
,  // measure 3
0000
0000
0000
0000
,  // measure 4
0000
0000
0000
0000
,  // measure 5
0022
0033
2200
3300
,  // measure 6
0202
0303
2020
3030
,  // measure 7
0220
0330
2002
3003
,  // measure 8
1000
0100
0010
0100
1000
0010
0001
0010
,  // measure 9
2000
0000
0000
0000
0000
0000
3001
0100
,  // measure 10
0020
0000
0130
0000
0110
0001
1000
0100
,  // measure 11
2100
0000
0001
0000
3100
0010
0100
1000
,  // measure 12
0001
0011
1000
1010
,  // measure 13
0200
0000
0301
2001
0000
3100
1000
0010
,  // measure 14
0200
0000
0310
0000
0110
1000
0001
0010
,  // measure 15
0012
0000
0103
2010
0000
3001
1000
0100
,  // measure 16
0010
0001
0010
0100
1000
0001
0100
0010
,  // measure 17
1000
0000
0001
0000
0010
0100
0000
0220
0000
0000
0000
0000
0330
0000
0000
0000
,  // measure 18
2002
0000
0000
0003
,  // measure 19
0020
0000
0000
3000
,  // measure 20
0200
0000
0000
0030
,  // measure 21
0002
0000
0000
0300
,  // measure 22
0020
0000
0000
0003
,  // measure 23
0200
0000
0000
0030
,  // measure 24
2000
0000
0000
0300
,  // measure 25
0002
0000
0000
3003
,  // measure 26
1020
0000
0100
0000
1030
0100
0010
0000
,  // measure 27
0021
0000
0100
0000
0031
1000
0010
0100
,  // measure 28
0001
0101
1000
1100
,  // measure 29
0020
0000
0130
1000
0001
0100
0010
1000
,  // measure 30
1020
0000
0100
0000
1030
0100
0010
0000
,  // measure 31
0021
0000
0130
0010
0001
1000
0010
0100
,  // measure 32
0001
0100
0010
1000
0001
0010
0100
1000
,  // measure 33
0002
0000
1003
2002
0000
0000
0000
3003
,  // measure 34
0201
0000
0310
2010
0000
3002
0000
0013
,  // measure 35
0220
0000
0000
0330
,  // measure 36
1000
0100
0010
0000
0001
0100
0010
0000
,  // measure 37
1000
0010
0100
0000
0001
0010
0100
0000
,  // measure 38
2000
0000
3001
0100
0020
0000
0130
0000
,  // measure 39
2001
0000
3100
0010
0002
0000
1003
0000
,  // measure 40
0001
0100
1000
0000
1000
0100
0001
0000
,  // measure 41
0001
0010
1000
0000
1000
0010
0001
0000
,  // measure 42
2000
0000
3010
0001
0020
0000
0130
0000
,  // measure 43
0102
0000
1003
0100
0020
0000
0130
0000
,  // measure 44
0010
0001
1000
0001
0010
0001
1000
0001
,  // measure 45
0100
0010
1000
0010
0100
0010
1000
0100
,  // measure 46
0010
0001
0010
0100
0010
0001
0100
0010
,  // measure 47
2000
0000
3010
0100
0002
0000
1003
0000
,  // measure 48
2100
3010
0102
0013
,  // measure 49
0021
1030
0201
1300
,  // measure 50
1000
0100
0010
0100
1000
1000
0001
0100
,  // measure 51
1000
0100
0001
0010
0100
0100
1000
0001
,  // measure 52
1001
0000
0000
0000
,  // measure 53
0000
0000
0000
0000
,  // measure 54
0200
0000
2000
0300
,  // measure 55
0002
3000
0200
0003
,  // measure 56
0020
0000
0000
0000
,  // measure 57
0000
0000
0000
0330
,  // measure 58
0010
0100
0001
1000
0100
0010
0100
2000
,  // measure 59
0002
0000
0000
0000
,  // measure 60
0000
0000
0000
3003
0000
0000
0000
0000
0000
0000
0000
0000
0000
0000
0000
0000
;

//---------------dance-single - ----------------
#NOTES:
     dance-single:
     :
     Easy:
     5:
     0.163601,0.265104,0.088093,0.646014,0.000000,117.000000,108.000000,9.000000,66.000000,0.000000,0.000000,0.163601,0.265104,0.088093,0.646014,0.000000,117.000000,108.000000,9.000000,66.000000,0.000000,0.000000:
0000
0000
0000
0000
,
0000
0000
0000
0000
,
0000
0000
0000
0000
,
0000
0000
0000
0000
,
0000
0000
0000
0000
,
2000
0000
3020
0000
,
0032
0000
0203
0000
,
2300
0000
0000
0000
,
0002
0000
0000
0000
,
3003
0000
0000
0000
,
2002
3003
0100
0010
,
0220
0000
0330
0100
,
0001
0010
1000
0010
,
0001
0000
0000
2000
0000
0000
3000
0000
,
2002
3003
0100
0010
,
0110
0000
0000
0200
0000
0000
0300
0000
,
0010
1000
0100
0010
,
0001
1000
1001
0000
,
0200
0000
0000
0000
,
2300
0000
0000
0000
,
3002
0000
0000
0000
,
0203
0000
0000
0000
,
0320
0000
0000
0000
,
2030
0000
0000
0000
,
3002
0000
0000
0000
,
0023
0000
0000
0030
,
0200
0000
1300
0001
,
0200
0000
0300
0100
,
0010
1000
0100
1000
,
0002
0000
0000
0003
,
0200
0000
0301
1000
,
0200
0000
0310
0000
,
0010
0001
0100
0001
,
2000
0000
0000
3000
,
1001
0000
0110
0000
,
2002
0000
0000
3003
,
2000
0000
3200
0000
,
0302
0000
0203
0000
,
2300
0000
0000
3020
0000
0000
0130
0000
,
0002
0000
2000
3003
,
0002
0000
0023
0000
,
2030
0000
3020
0000
,
0032
0000
0000
0203
0000
0000
0310
0000
,
2000
0000
0002
3003
,
2000
3100
0002
0103
,
2000
3010
0002
0013
,
2000
0000
0000
3002
0000
0000
0103
0000
,
0020
0000
0200
0330
,
0002
0000
0203
0000
,
2300
0000
3020
0000
,
0032
0000
0000
0000
,
2000
0000
0000
3003
,
1001
0000
0000
0000
,
0000
0000
0000
0000
,
0200
0000
0302
0000
,
2003
0000
3200
0000
,
0320
0000
0000
0000
,
0000
0000
0000
0030
,
0001
0100
0010
1000
,
0200
0000
0000
0000
,
0000
0000
0000
0300
0000
0000
0000
0000
0000
0000
0000
0000
0000
0000
0000
0000
;

//---------------dance-single - ----------------
#NOTES:
     dance-single:
     :
     Medium:
     8:
     0.229321,0.382928,0.068517,0.636226,0.004894,164.000000,157.000000,7.000000,65.000000,0.000000,0.000000,0.229321,0.382928,0.068517,0.636226,0.004894,164.000000,157.000000,7.000000,65.000000,0.000000,0.000000:
0000
0000
0000
0000
,
0000
0000
0000
0000
,
0000
0000
0000
0000
,
0000
0000
0000
0000
,
0000
0000
0000
0000
,
2000
0000
0200
3300
,
0002
0000
0020
0033
,
0110
0000
1001
0000
,
1000
0010
0001
0010
,
2002
0000
0000
3003
,
0010
0000
0001
0000
0100
0010
0100
0000
,
0200
1000
0010
0301
,
1000
0100
0001
0100
,
1000
0000
0000
2002
0000
0000
3003
0000
,
0100
0000
1000
0000
0010
0100
0010
0000
,
0020
0000
0000
0200
0000
0000
0330
0000
,
1000
0010
0100
0000
0001
0100
0010
0000
,
1000
0000
0100
0000
0010
0000
0000
0200
0000
0000
0000
0000
0300
0000
0000
0000
,
0020
0000
0000
0000
,
0032
0000
0000
0000
,
0203
0000
0000
0000
,
2300
0000
0000
0000
,
3002
0000
0000
0000
,
0023
0000
0000
0000
,
2030
0000
0000
0000
,
3200
0000
0000
0300
,
0020
0000
0000
0000
0130
1000
0001
0000
,
2000
0000
0000
0000
3000
0001
0100
0001
,
0100
1000
0100
0001
,
0020
0000
0000
0000
0000
0000
0130
0010
,
0200
0000
0000
0000
0310
0001
1000
0000
,
0002
0000
2000
3003
,
0010
0001
0010
0000
1000
0010
1000
0000
,
0200
0000
0000
0020
0000
0000
0330
0000
,
2002
0000
0000
3003
,
0220
0000
0000
0330
,
2000
0100
3002
0010
,
2003
0100
3020
0100
,
2030
0000
3100
0020
0000
0031
0200
0000
,
0320
0000
0000
0100
0200
0000
0330
0000
,
0002
0100
2003
0010
,
3002
0100
0023
0100
,
0032
0000
0103
0020
0000
1030
0200
0000
,
0320
0000
0000
0001
0002
0000
0033
0000
,
1000
0100
1000
0000
0001
0010
0001
0000
,
1000
0010
1000
0000
0001
0100
0001
0000
,
2000
0000
3001
0020
0000
0130
2000
0000
,
3002
0000
0000
1000
2000
0000
3003
0000
,
0002
0000
0200
0303
,
2000
0000
0020
3030
,
0001
0100
1000
0100
,
0001
0010
1000
0010
,
1001
0000
0000
0000
,
0000
0000
0000
0000
,
0020
0000
0032
0000
,
2003
0000
3020
0000
,
0230
0000
0000
0000
,
0000
0000
0000
0300
,
0001
0100
1000
0100
,
0020
0000
0000
0000
,
0000
0000
0000
0030
0000
0000
0000
0000
0000
0000
0000
0000
0000
0000
0000
0000
;

//---------------dance-double - ----------------
#NOTES:
     dance-double:
     :
     Hard:
     11:
     0.363558,0.530208,0.283855,0.675378,0.009788,260.000000,231.000000,29.000000,69.000000,0.000000,0.000000,0.363558,0.530208,0.283855,0.675378,0.009788,260.000000,231.000000,29.000000,69.000000,0.000000,0.000000:
00000000
00000000
00000000
00000000
,
00000000
00000000
00000000
00000000
,
00000000
00000000
00000000
00000000
,
00000000
00000000
00000000
00000000
,
00000000
00000000
00000000
00000000
,
22000000
33000000
00220000
00330000
,
00022000
00033000
00002020
00003030
,
00000202
00000303
00000220
00000330
,
00000001
00000010
00001000
00010000
01000000
10000000
00100000
00010000
,
00002000
00000000
00000000
00000000
00000000
00000000
00013000
00100000
,
02000000
00000000
03100000
00000000
01100000
10000000
01000000
00010000
,
00002000
00000000
00000010
00000000
00013000
00000010
00000100
00001000
,
00010000
00010010
00001000
00101000
,
02000000
00000000
13000000
10200000
00000000
00310000
00001000
00000100
,
00000020
00000000
00000130
00000000
00000110
00000001
00000010
00001000
,
00020000
00000000
01030000
01200000
00000000
00301000
00010000
00001000
,
00010000
00100000
10000000
01000000
00010000
00001000
00000010
00000001
,
00000100
00000000
00000010
00000000
00001000
00000001
00000000
00002002
00000000
00000000
00000000
00000000
00003003
00000000
00000000
00000000
,
00000022
00000000
00000000
00000003
,
00000200
00000000
00000000
00000030
,
00020000
00000000
00000000
00000300
,
00002000
00000000
00000000
00030000
,
02000000
00000000
00000000
00003000
,
00200000
00000000
00000000
03000000
,
20000000
00000000
00000000
00300000
,
00020000
00000000
00000000
30030000
,
12000000
00000000
00010000
00000000
13000000
00100000
00010000
00000000
,
00002000
00000000
00000100
00000000
00013000
00001000
00010000
00000100
,
00000010
00011000
00100000
00011000
,
02000000
00000000
03100000
10000000
01000000
00010000
00001000
00000100
,
00000201
00000000
00001000
00000000
00000301
00000010
00001000
00000000
,
00020000
00000000
01030000
00010000
00001000
00010000
00001000
01000000
,
00100000
10000000
01000000
00010000
00001000
00000100
00000001
00000010
,
00002000
00000000
00013000
00022000
00000000
00000000
00000000
00033000
,
00210000
00000000
01300000
21000000
00000000
30020000
00000000
01030000
,
02200000
00000000
00000000
03300000
,
10000000
01000000
00100000
00000000
01000000
00100000
00001000
00000000
,
00010000
00000010
00000100
00000000
00000010
00000100
00000001
00000000
,
00000020
00000000
00001030
00010000
00200000
00000000
01300000
00000000
,
10020000
00000000
00130000
01000000
20000000
00000000
30010000
00000000
,
10000000
01000000
00010000
00000000
00001000
00000100
00000001
00000000
,
00000001
00000010
00001000
00000000
00010000
00100000
10000000
00000000
,
02000000
00000000
03010000
00001000
00000200
00000000
00000310
00000000
,
00002001
00000000
00003100
00000010
00000002
00000000
00001003
00000000
,
00001000
00000010
00000100
00000010
00001000
00000010
00000100
00001000
,
00010000
01000000
00100000
01000000
00010000
01000000
00100000
00010000
,
10000000
00100000
01000000
00100000
10000000
01000000
00100000
00001000
,
00020000
00000000
00031000
00000100
00000002
00000000
00000013
00000000
,
00000022
00000033
00002200
00003300
,
00022000
00033000
02020000
03030000
,
10000000
00100000
01000000
00100000
10000000
01000000
00010000
00001000
,
00000010
00000100
00000010
00000001
00000100
00001000
00010000
00001000
,
00011000
00000000
00000000
00000000
,
00000000
00000000
00000000
00000000
,
20000000
00000000
00200000
30000000
,
00020000
00300000
00002000
00030000
,
00000020
00000000
00000000
00000000
,
00000000
00000000
00000000
00003030
,
00000001
00000010
00000100
00001000
00010000
00100000
01000000
20000000
,
00020000
00000000
00000000
00000000
,
00000000
00000000
00000000
30030000
00000000
00000000
00000000
00000000
00000000
00000000
00000000
00000000
00000000
00000000
00000000
00000000
;

//---------------dance-double - ----------------
#NOTES:
     dance-double:
     :
     Easy:
     5:
     0.153813,0.265104,0.048940,0.616650,0.000000,110.000000,105.000000,5.000000,63.000000,0.000000,0.000000,0.153813,0.265104,0.048940,0.616650,0.000000,110.000000,105.000000,5.000000,63.000000,0.000000,0.000000:
00000000
00000000
00000000
00000000
,
00000000
00000000
00000000
00000000
,
00000000
00000000
00000000
00000000
,
00000000
00000000
00000000
00000000
,
00000000
00000000
00000000
00000000
,
02000000
00000000
03020000
00000000
,
00032000
00000000
00003200
00000000
,
00000320
00000000
00000000
00000000
,
00000200
00000000
00000000
00000000
,
00000330
00000000
00000000
00000000
,
00000002
00000000
00000013
00001000
,
00020000
00000000
00030000
00001000
,
00010000
00100000
10000000
01000000
,
00100000
00000000
00000000
00020000
00000000
00000000
00030000
00000000
,
20000000
00000000
31000000
00010000
,
00001000
00000000
00000000
00020000
00000000
00000000
00030000
00000000
,
00001000
00000100
00000001
00000010
,
00000100
00001000
00001001
00000000
,
00000002
00000000
00000000
00000000
,
00000203
00000000
00000000
00000000
,
00002300
00000000
00000000
00000000
,
00023000
00000000
00000000
00000000
,
02030000
00000000
00000000
00000000
,
23000000
00000000
00000000
00000000
,
30200000
00000000
00000000
00000000
,
00320000
00000000
00000000
00030000
,
00002000
00000000
00103000
00010000
,
02000000
00000000
03000000
01000000
,
00001000
00001000
00010000
00010000
,
00000200
00000000
00000300
00000100
,
00020000
00030000
00000100
00001000
,
00000020
00000000
00000130
00000000
,
00000001
00000010
00000100
00001000
,
00000002
00000000
00000000
00000003
,
00001001
00000000
00011000
00000000
,
20020000
00000000
00000000
30030000
,
20000000
00000000
32000000
00000000
,
03200000
00000000
00302000
00000000
,
00023000
00000000
00000000
00030020
00000000
00000000
00000130
00000000
,
00000002
00000000
00002000
00003003
,
00000002
00000000
00000023
00000000
,
00000230
00000000
00020300
00000000
,
00032000
00000000
00000000
02003000
00000000
00000000
03100000
00000000
,
20000000
00000000
00020000
30030000
,
20000000
00000000
32000000
00000000
,
03020000
00000000
00032000
00000000
,
00003200
00000000
00000000
00000302
00000000
00000000
00001003
00000000
,
00002000
00000000
00000200
00003300
,
00000020
00000000
00002030
00000000
,
00023000
00000000
00230000
00000000
,
02300000
00000000
00000000
00000000
,
00200000
00000000
00000000
03300000
,
10010000
00000000
00000000
00000000
,
00000000
00000000
00000000
00000000
,
20000000
00000000
32000000
00000000
,
03020000
00000000
00032000
00000000
,
00003200
00000000
00000000
00000000
,
00000000
00000000
00000000
00000300
,
00000001
00000010
00001000
00010000
,
00002000
00000000
00000000
00000000
,
00000000
00000000
00000000
00003000
00000000
00000000
00000000
00000000
00000000
00000000
00000000
00000000
00000000
00000000
00000000
00000000
;

//---------------dance-double - ----------------
#NOTES:
     dance-double:
     :
     Medium:
     8:
     0.229321,0.382928,0.068517,0.636226,0.004894,164.000000,157.000000,7.000000,65.000000,0.000000,0.000000,0.229321,0.382928,0.068517,0.636226,0.004894,164.000000,157.000000,7.000000,65.000000,0.000000,0.000000:
00000000
00000000
00000000
00000000
,
00000000
00000000
00000000
00000000
,
00000000
00000000
00000000
00000000
,
00000000
00000000
00000000
00000000
,
00000000
00000000
00000000
00000000
,
02000000
00000000
00200000
03300000
,
00002000
00000000
00020000
00033000
,
00010010
00000000
00000110
00000000
,
00000001
00000010
00001000
00000100
,
00002002
00000000
00000000
00003003
,
00000001
00000000
00000010
00000000
00001000
00010000
00001000
00000000
,
00200000
00010000
00001000
00310000
,
10000000
00100000
00010000
01000000
,
10000000
00000000
00000000
20020000
00000000
00000000
30030000
00000000
,
10000000
00000000
01000000
00000000
00010000
00001000
00010000
00000000
,
00000200
00000000
00000000
00020000
00000000
00000000
00030300
00000000
,
01000000
00010000
00001000
00000000
00000010
00001000
00010000
00000000
,
00100000
00000000
00010000
00000000
00001000
00000000
00000000
00020000
00000000
00000000
00000000
00000000
00030000
00000000
00000000
00000000
,
00002000
00000000
00000000
00000000
,
00003020
00000000
00000000
00000000
,
00000032
00000000
00000000
00000000
,
00000203
00000000
00000000
00000000
,
00002300
00000000
00000000
00000000
,
00023000
00000000
00000000
00000000
,
02030000
00000000
00000000
00000000
,
23000000
00000000
00000000
30000000
,
00020000
00000000
00000000
00000000
01030000
00100000
10000000
00000000
,
02000000
00000000
00000000
00000000
03000000
00010000
00001000
00010000
,
00001000
00010000
00000100
00000010
,
00000002
00000000
00000000
00000000
00000000
00000000
00000013
00000100
,
00002000
00000000
00000000
00000000
00003100
00000010
00000001
00000000
,
00000200
00000000
00002000
00003300
,
00010000
00001000
00010000
00000000
00100000
01000000
00100000
00000000
,
20000000
00000000
00000000
00020000
00000000
00000000
30030000
00000000
,
02200000
00000000
00000000
03300000
,
00022000
00000000
00000000
00033000
,
00020000
01000000
00032000
00000100
,
00023000
00100000
00032000
00000010
,
00023000
00000000
00130000
20000000
00000000
31000000
00020000
00000000
,
00032000
00000000
00000000
00010000
00020000
00000000
00033000
00000000
,
00002000
00000100
00023000
01000000
,
00032000
00000010
00023000
00100000
,
00032000
00000000
00003010
00000002
00000000
00000103
00002000
00000000
,
00023000
00000000
00000000
00001000
00002000
00000000
00033000
00000000
,
00100000
00010000
00100000
00000000
01000000
10000000
01000000
00000000
,
00010000
00001000
00010000
00000000
00000010
00001000
00000010
00000000
,
00000200
00000000
00000301
00002000
00000000
00003100
00000020
00000000
,
00000032
00000000
00000000
00001000
00002000
00000000
00003003
00000000
,
00000200
00000000
00000020
00000330
,
00020000
00000000
00002000
00033000
,
00100000
01000000
00010000
00001000
,
00010000
00100000
10000000
00010000
,
10010000
00000000
00000000
00000000
,
00000000
00000000
00000000
00000000
,
20000000
00000000
30020000
00000000
,
00032000
00000000
00003002
00000000
,
00000023
00000000
00000000
00000000
,
00000000
00000000
00000000
00000030
,
00000100
00010000
00100000
00001000
,
00000020
00000000
00000000
00000000
,
00000000
00000000
00000000
00000030
00000000
00000000
00000000
00000000
00000000
00000000
00000000
00000000
00000000
00000000
00000000
00000000
;
