#TITLE:Uptown Funk;
#SUBTITLE:(Metal Cover);
#ARTIST:Leo Moracchioli;
#TITLETRANSLIT:;
#SUBTITLETRANSLIT:;
#ARTISTTRANSLIT:;
#GENRE:Popular Songs;
#CREDIT:;
#BANNER:Uptown Funk (Metal Cover).png;
#BACKGROUND:Uptown Funk (Metal Cover)-bg.png;
#LYRICSPATH:;
#CDTITLE:../cdtitle.png;
#MUSIC:Uptown Funk (Metal Cover).ogg;
#OFFSET:3.525000;
#SAMPLESTART:58.769806;
#SAMPLELENGTH:15.000000;
#LASTBEATHINT:5.470834;
#SELECTABLE:YES;
#BPMS:0.000000=130.000000
;
#STOPS:
;
#BGCHANGES:0.333=Uptown Funk (Metal Cover).avi=1.000=0=0=0=StretchNoLoop====,
252.000=Uptown Funk (Metal Cover).avi=1.000=0=0=1===CrossFade_Fastest=#000000=,
99999=-nosongbg-=1.000=0=0=0 // don't automatically add -songbackground-
;
#KEYSOUNDS:;
#ATTACKS:;

//---------------dance-single - ----------------
#NOTES:
     dance-single:
     :
     Beginner:
     3:
     0.132754,0.219487,0.097353,0.000000,0.000000,105.000000,94.000000,11.000000,0.000000,0.000000,0.000000,0.132754,0.219487,0.097353,0.000000,0.000000,105.000000,94.000000,11.000000,0.000000,0.000000,0.000000:
0000
0000
0000
0000
,
0000
0000
0000
0000
,
0000
0000
0000
0000
,
0000
0000
0000
0000
,
0000
0000
0000
0000
,
0000
0000
0000
0000
,
0000
0000
0000
0000
,
0000
0000
0000
0000
,
0000
0000
0000
0000
,
0000
0000
0000
0000
,
0001
0000
0000
0000
,
0001
0000
0000
0000
,
1000
0000
0000
0000
,
1000
0000
0000
0000
,
0010
0000
0000
0000
,
0010
0000
0000
0000
,
0100
0000
0000
0000
,
0100
0000
0000
0000
,
0001
0000
0001
0000
,
0001
0000
0000
0000
,
0010
0000
0010
0000
,
0010
0000
0000
0000
,
1000
0000
1000
0000
,
1000
0000
0000
0000
,
0100
0000
0100
0000
,
0100
0000
0000
0000
,
0001
0000
0000
0000
,
0001
0000
0000
0000
,
0001
0000
0000
0000
,
0001
0000
0000
0000
,
0000
1000
0000
1000
,
0000
0100
0000
0100
,
0000
0010
0000
0010
,
0010
0000
0000
0000
,
1001
0000
0100
0000
,
0010
0010
0010
0000
,
0110
0000
0001
0000
,
1000
1000
1000
0000
,
1001
0000
0100
0000
,
0010
0010
0010
0000
,
0110
0000
1000
0000
,
0001
0001
0001
0000
,
1001
0000
0000
0000
,
1001
0000
0000
0000
,
0110
0000
0000
0000
,
0000
0100
0000
0100
,
0100
0000
0010
0000
,
0100
0000
0001
0001
,
0001
0000
1000
0000
,
0001
0000
0010
0010
,
0010
0000
0100
0000
,
0010
0000
0001
0000
,
1001
0000
0000
0000
,
0000
0000
0000
0000
,
1001
0000
0010
0000
,
0100
0100
0100
0000
,
0110
0000
0001
0000
,
1000
1000
1000
0000
,
0100
0100
0100
0000
,
0010
0010
0010
0000
,
0001
0001
0001
0000
,
1000
1000
1000
0000
,
1001
0000
0000
0000
;

//---------------dance-single - ----------------
#NOTES:
     dance-single:
     :
     Easy:
     6:
     0.304702,0.384101,0.345160,0.336310,0.000000,241.000000,202.000000,39.000000,38.000000,0.000000,0.000000,0.304702,0.384101,0.345160,0.336310,0.000000,241.000000,202.000000,39.000000,38.000000,0.000000,0.000000:
0000
0000
0000
0000
,
0000
0000
0000
0000
,
0000
0000
0000
0000
,
0000
0000
0000
0000
,
0000
0000
0000
0000
,
0000
0000
0000
0000
,
0000
0000
0000
0000
,
0000
0000
0000
0000
,
0000
0000
0000
0000
,
0000
0000
0000
0000
,
0010
0100
0010
0001
,
1000
0010
0100
0101
,
0100
0010
0100
0001
,
1000
0100
0010
0011
,
0010
1000
0010
0001
,
1000
0010
0101
0000
,
0100
1000
0100
0001
,
1000
0100
0011
0000
,
0100
0010
0100
1000
,
0001
0100
0010
1010
,
0010
0100
0010
1000
,
0001
0010
0100
1100
,
0100
0001
0100
1000
,
0001
0100
0010
1010
,
0010
0001
0010
1000
,
0001
0010
0100
1100
,
2000
0100
0010
3001
,
0002
0100
0010
1003
,
2000
0100
0010
3001
,
0002
0100
0010
1003
,
0000
0001
0000
0010
0000
1000
0000
0100
,
0000
0001
0000
0100
0000
1000
0000
0010
,
0000
0001
0000
0010
0000
0100
0000
1000
,
0002
0000
0000
0003
0000
0000
0100
0000
,
2001
3100
0010
0100
,
1200
0310
0201
0310
,
1002
0103
0010
0100
,
0201
0310
1200
0310
,
2001
3010
0100
0001
,
0021
0130
1020
0130
,
1002
0013
0100
1000
,
1020
0130
0021
0130
,
1000
1000
1000
0110
,
0001
0001
0001
0110
,
1000
1000
1000
0110
,
0000
0001
0000
0001
0000
0001
2000
0000
,
3200
0301
0200
1300
,
0020
0031
0010
0110
,
0020
0031
0020
1030
,
0200
0301
0100
0110
,
0020
1030
0020
0031
,
0200
1300
0100
0110
,
1001
0000
0000
0000
,
0000
0000
0000
0100
,
2001
3100
0010
0100
,
1200
0310
0201
0310
,
1002
0103
0010
0100
,
0201
0310
1200
0310
,
2001
0000
3010
0000
0100
0001
0010
0000
,
0021
0130
1020
0130
,
1002
0000
0013
0000
0100
1000
0010
0000
,
1020
0000
0130
0000
0001
0010
0100
0000
,
1001
0000
0000
0000
;

//---------------dance-single - ----------------
#NOTES:
     dance-single:
     :
     Challenge:
     15:
     0.739629,0.795639,0.415962,0.681470,0.814224,585.000000,538.000000,47.000000,77.000000,0.000000,0.000000,0.739629,0.795639,0.415962,0.681470,0.814224,585.000000,538.000000,47.000000,77.000000,0.000000,0.000000:
// measure 0
0000
0000
0000
0000
,  // measure 1
0000
0000
0000
0000
,  // measure 2
0000
0000
0000
0000
,  // measure 3
0000
0000
0000
0000
,  // measure 4
0000
0000
0000
0000
,  // measure 5
0000
0000
0000
0000
,  // measure 6
0000
0000
1000
0100
1000
0000
0000
0000
0000
0000
0001
0100
0001
0000
0000
0000
,  // measure 7
0000
0000
1000
0100
1000
0000
0000
0000
0000
0000
0001
0100
0001
0000
0000
0000
,  // measure 8
0000
0000
1000
0100
0010
0000
0000
0000
0000
0000
0001
0100
0010
0000
0000
0000
,  // measure 9
0000
0000
1000
0010
0100
0000
0000
0000
0000
0000
0001
0010
0100
0000
1000
0000
,  // measure 10
1001
0000
0001
0010
0000
0010
1000
0000
0010
0000
0001
1000
0000
1000
0100
0000
,  // measure 11
0001
0000
0100
1000
0000
1000
0001
0000
1000
0000
0100
0010
0001
0000
1000
0000
,  // measure 12
1001
0000
1000
0010
0000
0010
0001
0000
0010
0000
1000
0001
0000
0001
0100
0000
,  // measure 13
1000
0000
0100
0001
0000
0001
1000
0000
0001
0000
0100
0010
1000
0000
0001
0000
,  // measure 14
1000
0000
0010
0100
0000
0000
1000
0000
0100
0000
0010
1000
0000
0000
0001
0000
,  // measure 15
0010
0100
1000
0100
0000
1000
0000
0001
0010
0001
1000
0000
0010
0000
0100
0000
,  // measure 16
0001
0000
0010
0100
0000
0100
0001
0000
0100
0010
0001
1000
0000
0000
0010
0000
,  // measure 17
0100
0001
0100
0001
0000
1000
0001
0000
1000
0100
1000
0100
0010
0100
1000
0001
,  // measure 18
0020
0100
0031
1000
1200
0010
0301
0100
,  // measure 19
1000
0000
0001
0010
0000
0010
1000
0000
0001
0100
0000
0100
1000
0001
1000
0000
,  // measure 20
0020
0000
0100
0000
1030
0000
0001
0000
0201
0000
0010
0000
1300
0000
0100
0001
,  // measure 21
1000
0000
1000
0010
0000
0010
0001
0000
1000
0100
0000
0100
0001
1000
0001
0000
,  // measure 22
0020
0100
0031
1000
1200
0010
0301
0100
,  // measure 23
0010
0001
0000
1000
0000
1000
0100
1000
0010
1000
0000
0001
0000
0001
0100
0001
,  // measure 24
2000
0000
0100
0000
3001
0000
0100
0000
0210
0000
0001
0000
0301
0000
1000
0001
,  // measure 25
1000
0000
0100
1000
0000
0001
1000
0000
0010
0000
0100
0000
0110
0000
1000
0000
,  // measure 26
0001
0000
1000
0100
0000
1000
0100
0010
0001
0000
1000
0000
0002
0000
0100
0000
,  // measure 27
1003
0000
0001
0010
0000
0001
0010
0100
1000
0000
0001
0000
2000
0000
0100
0000
,  // measure 28
3001
0000
1000
0010
0000
1000
0010
0100
0001
0000
1000
0000
0002
0000
0013
0100
,  // measure 29
1000
0000
0001
0100
0001
0000
0100
0000
0010
1000
0010
1000
0002
0000
0003
0000
,  // measure 30
0100
1010
0100
0011
0100
1010
0100
0011
,  // measure 31
0010
1100
0010
0101
0010
1100
0010
0101
,  // measure 32
0010
1001
0100
1001
1000
0110
0001
0110
,  // measure 33
2002
0000
0000
0000
0000
0000
3003
0000
0000
0000
0000
0010
0100
0020
0000
0030
,  // measure 34
1002
0000
0100
0000
0103
0010
0000
1010
0000
1000
0100
0000
2000
0000
3002
0000
,  // measure 35
0203
0000
0310
1000
0000
1000
0100
0010
0200
0000
0310
0001
0000
0001
0100
0010
,  // measure 36
2000
0000
0100
0000
3100
0010
0000
0011
0000
0001
0100
0000
0002
0000
2003
0000
,  // measure 37
3200
0000
0310
0001
0000
0001
0100
0010
0200
0000
0310
1000
0100
0010
0100
0010
,  // measure 38
0002
0000
0010
0000
0013
0100
0000
1100
0000
1000
0010
0000
2000
0000
3002
0000
,  // measure 39
0023
0000
0130
1000
0000
1000
0010
0100
0020
0000
0130
0001
0000
0001
0010
0100
,  // measure 40
2000
0000
0010
0000
3010
0100
0000
0101
0000
0001
0010
0000
0002
0000
2003
0000
,  // measure 41
3020
0000
0130
0001
0000
0001
0010
0000
0200
0000
0310
0001
1000
0100
1000
0100
,  // measure 42
1000
0000
0000
0000
1000
0000
0100
0000
1000
0000
0010
0100
0010
0100
0010
0100
,  // measure 43
0001
0000
0000
0000
0001
0000
0100
0000
0001
0000
0010
0100
0010
0100
0010
0100
,  // measure 44
1000
0000
0000
0000
1000
0000
0100
0000
1000
0000
0010
0100
0010
0100
0010
0100
,  // measure 45
0000
0101
0000
1010
0000
1001
0220
0330
,  // measure 46
1001
0000
1000
0100
0000
0100
0001
0000
0001
0010
0000
0010
2000
0000
3200
0000
,  // measure 47
0310
0000
0010
0001
0000
0001
2000
0000
3200
0000
0320
0000
0230
0000
2300
0000
,  // measure 48
3001
0000
0001
0100
0000
0100
1000
0000
1000
0010
0000
0010
0002
0000
0203
0000
,  // measure 49
0310
0000
0010
1000
0000
1000
0002
0000
0203
0000
0320
0000
0130
0001
0100
0001
,  // measure 50
2000
0000
3100
1000
0100
0000
0110
0000
0001
0010
0001
0000
0110
0000
1100
0000
,  // measure 51
0002
0000
0103
0001
0100
0000
0110
0000
1000
0010
1000
0000
0110
0000
0101
0000
,  // measure 52
0001
0010
0100
1000
0000
1001
0000
0021
0000
0130
1000
0001
1000
0010
0100
0010
,  // measure 53
2000
0000
3000
1001
0000
0011
0000
2200
0000
0000
3300
0000
0220
0000
0330
0000
,  // measure 54
2001
0000
0100
0000
3100
0010
0000
0011
0000
0001
0100
0000
0002
0000
2003
0000
,  // measure 55
3200
0000
0310
0001
0000
0001
0100
0010
0200
0000
0310
1000
0000
1000
0100
0010
,  // measure 56
0002
0000
0100
0000
0103
0010
0000
1010
0000
1000
0100
0000
2000
0000
3002
0000
,  // measure 57
0203
0000
0310
1000
0000
1000
0100
0010
0200
0000
0310
0001
0100
0010
0100
0010
,  // measure 58
2000
0000
3010
0100
0000
0100
0001
0010
0100
0010
0001
0000
2000
0000
3200
0000
,  // measure 59
0320
0000
0130
1000
0000
1000
0001
0000
0010
0100
2000
0000
3200
0000
0320
0000
,  // measure 60
0032
0000
0103
0010
0000
0010
1000
0100
0010
0100
1000
0000
0002
0000
0023
0000
,  // measure 61
0130
0000
0000
0110
0000
0000
1001
0000
0001
0100
0001
0100
0010
1000
0010
1000
,  // measure 62
0100
0000
0000
0000
;

//---------------dance-single - ----------------
#NOTES:
     dance-single:
     :
     Medium:
     9:
     0.381826,0.493845,0.185856,0.168155,0.123904,302.000000,281.000000,21.000000,19.000000,0.000000,0.000000,0.381826,0.493845,0.185856,0.168155,0.123904,302.000000,281.000000,21.000000,19.000000,0.000000,0.000000:
0000
0000
0000
0000
,
0000
0000
0000
0000
,
0000
0000
0000
0000
,
0000
0000
0000
0000
,
0000
0000
0000
0000
,
0000
0000
0000
0000
,
0000
0000
0000
0000
,
0000
0000
0000
0000
,
0000
0000
0000
0000
,
0000
0000
0000
0000
,
0001
0000
0001
0010
0100
0000
0100
0010
,
0001
0000
1000
0010
0100
0000
0001
0000
,
1000
0000
1000
0100
0010
0000
0010
0100
,
1000
0000
0001
0100
0010
0000
1000
0000
,
0001
0010
1000
0000
1000
0010
0001
0000
,
1000
0100
0001
0000
0110
0000
0001
0000
,
1000
0010
0001
0000
0001
0010
1000
0000
,
0001
0100
1000
0000
0110
0000
1000
0000
,
0001
0000
0001
0100
0010
0000
0010
0100
,
0001
0000
1000
0100
0010
0000
0001
0000
,
1000
0000
1000
0010
0100
0000
0100
0010
,
1000
0000
0001
0010
0100
0000
1000
0000
,
0001
0000
0001
0100
1000
0000
0100
0000
,
0001
0010
1000
0000
1000
0010
0001
0000
,
1000
0000
1000
0010
0001
0000
0010
0000
,
1000
0100
0001
0000
0100
0000
1001
0000
,
0001
0000
0001
0000
0001
0100
0010
0000
,
1000
0000
1000
0000
1000
0100
0010
0000
,
0001
0000
0001
0000
0001
0100
0010
0000
,
1000
0000
1000
0000
1000
0100
0010
0000
,
0000
1100
0000
0101
0000
0011
0000
1010
,
0000
1100
0000
0101
0000
0011
0000
1010
,
0000
1100
0000
0110
0000
1001
0000
0010
,
0200
0000
0000
0300
0000
0000
0110
0000
,
1002
0000
0000
0000
0013
0000
0000
0100
0000
0000
0100
0000
1000
0000
0001
0000
,
0010
0000
0000
0100
0000
0000
1000
0000
0010
0000
0000
0100
0000
0000
0001
0000
,
0020
0000
0000
0000
0130
0000
0000
1000
0000
0000
1000
0000
0001
0000
0100
0000
,
0010
0000
0000
1000
0000
0000
0100
0000
0010
0000
0000
0001
0000
0000
0100
0000
,
0020
0000
0000
0000
0130
0000
0000
0001
0000
0000
0001
0000
1000
0000
0100
0000
,
0010
0000
0000
0010
0000
0000
0010
0000
0100
0000
0000
0100
0000
0000
0100
0000
,
2000
0000
0000
0000
3010
0000
0000
0100
0000
0000
0100
0000
0001
0000
1000
0000
,
0010
0000
0000
0100
0000
0000
0001
0000
0010
0000
0000
0100
0000
0000
1000
0000
,
0001
0000
0001
0000
0001
0100
0001
0100
,
0010
0000
0010
0000
0010
1000
0010
1000
,
0100
0000
0100
0000
0100
0010
0100
0010
,
0000
0001
0000
0110
0000
1000
0002
0000
,
2003
0100
3020
0100
,
2030
0000
0100
0000
3001
0100
0010
1000
,
0002
0100
0023
0100
,
0032
0000
0100
0000
1003
0100
0010
0001
,
2000
0010
3200
0010
,
2300
0000
0010
0000
3001
0010
0100
1000
,
1001
0000
0000
0001
0000
1000
0000
0002
0000
0000
0003
0000
1000
0000
0010
0000
,
0001
0000
0000
0010
0000
0100
0000
0020
0000
0000
0030
0000
0110
0000
0000
0000
,
2001
0000
0000
0000
3100
0000
0000
0010
0000
0000
0010
0000
0001
0000
1000
0000
,
0100
0000
0000
0010
0000
0000
0001
0000
0100
0000
0000
0010
0000
0000
1000
0000
,
0200
0000
0000
0000
0310
0000
0000
0001
0000
0000
0001
0000
1000
0000
0010
0000
,
0100
0000
0000
0001
0000
0000
0010
0000
0100
0000
0000
1000
0000
0000
0010
0000
,
0100
0000
0000
0100
0000
0000
0100
0000
0010
0000
1000
0000
0100
0000
0000
0000
,
0010
0000
0000
0010
0000
0000
0010
0000
0001
0000
0100
0000
0010
0000
0000
0000
,
1000
0000
0000
1000
0000
0000
1000
0000
0100
0000
0010
0000
0001
0000
0000
0000
,
0001
0000
0000
0001
0000
0000
0001
0000
0100
0000
0010
0000
1000
0000
0000
0000
,
1001
0000
0000
0000
;

//---------------dance-single - ----------------
#NOTES:
     dance-single:
     :
     Hard:
     12:
     0.524694,0.603588,0.230107,0.442513,0.455789,415.000000,389.000000,26.000000,50.000000,0.000000,0.000000,0.524694,0.603588,0.230107,0.442513,0.455789,415.000000,389.000000,26.000000,50.000000,0.000000,0.000000:
0000
0000
0000
0000
,
0000
0000
0000
0000
,
0000
0000
0000
0000
,
0000
0000
0000
0000
,
0000
0000
0000
0000
,
0000
0000
0000
0000
,
0000
0000
0000
0000
,
0000
0000
0000
0000
,
0000
0000
0000
0000
,
0000
0000
0000
0000
,
1000
0000
0000
1000
0100
0000
0010
0000
0001
0000
0000
0001
0010
0000
0100
0000
,
1000
0000
0000
1000
0100
0000
0010
0000
0001
0000
1000
0000
0100
0000
0000
0000
,
1000
0000
0000
1000
0010
0000
0100
0000
0001
0000
0000
0001
0100
0000
0010
0000
,
1000
0000
0000
1000
0010
0000
0100
0000
0001
0000
1000
0000
0010
0000
0000
0000
,
1000
0000
0000
0001
0100
0000
0000
0000
0001
0000
0000
1000
0100
0000
0000
0000
,
1000
0000
0000
0001
0010
0000
0000
0000
0200
0000
0000
0000
1300
0000
0000
0000
,
0001
0000
0000
1000
0010
0000
0000
0000
1000
0000
0000
0001
0010
0000
0000
0000
,
0001
0000
0000
1000
0100
0000
0000
0000
0010
0000
0001
0000
0100
0000
0001
0000
,
2000
0000
3100
0010
1020
0000
0031
1000
,
0010
0000
0000
0001
0000
0000
0001
0000
0010
1000
0000
0100
0000
0000
0010
0000
,
0002
0000
0013
0100
0201
0000
1300
0001
,
0100
0000
0000
1000
0000
0000
1000
0000
0100
0001
0000
0010
0000
0000
0100
0000
,
2000
0000
3100
0010
2001
0000
3020
0000
,
0130
0001
0000
0010
0000
0000
0010
0000
0100
1000
0000
0010
0000
0000
0010
0000
,
2000
0000
3100
0010
2001
0000
3010
0100
,
0001
1000
0000
0001
0000
0000
0001
0000
0010
0000
0100
0000
0110
0000
0000
0000
,
1001
0000
0000
0001
0000
1000
0100
0000
0010
0000
0001
0000
0010
0000
0100
0000
,
1000
0000
0000
1000
0000
0001
0100
0000
0010
0000
1000
0000
0010
0000
0100
0000
,
0001
0000
0000
0001
0000
0100
0010
0000
1000
0000
0100
0000
0010
0000
0000
0100
,
1000
0000
0001
0000
0010
0000
0001
0000
1000
0000
0010
0100
0000
0000
0000
0000
,
0001
0100
1000
0100
0001
0100
1000
0100
,
0001
0010
1000
0010
0001
0010
1000
0010
,
0001
1000
0010
0001
0010
1000
0100
0010
,
2002
0000
0000
3003
0000
0000
0110
0000
,
1002
0000
0000
0000
0103
0010
0000
1000
0000
1000
0100
0000
0010
0000
0001
0000
,
0010
0000
0010
0100
0000
0100
1000
0000
0010
0000
0010
0100
0000
0100
0001
0000
,
2001
0000
0000
0000
3100
0010
0000
0001
0000
0001
0100
0000
0010
0000
1000
0000
,
0010
0000
0010
0100
0000
0100
0001
0000
0010
0000
0010
0100
0000
0100
1000
0000
,
1002
0000
0000
0000
1003
0100
0000
0010
0000
0010
0001
0000
1000
0000
0100
0000
,
0010
0000
0010
0001
0000
0001
0100
0000
0010
0000
0010
1000
0000
1000
0100
0000
,
2001
0000
0000
0000
3001
0100
0000
0010
0000
0010
1000
0000
0001
0000
0100
0000
,
0010
0000
0010
1000
0000
1000
0100
0000
0010
0000
0001
1000
0001
1000
0001
0000
,
1000
0000
0000
0000
1000
0000
0000
0000
1000
0000
0100
0010
0100
0010
0100
0000
,
0001
0000
0000
0000
0001
0000
0000
0000
0001
0000
0100
0010
0100
0010
0100
0000
,
1000
0000
0000
0000
1000
0000
0000
0000
1000
0000
0010
0100
0010
0100
0010
0000
,
0000
0101
0000
1100
0000
1001
0220
0330
,
2001
0000
0000
3200
0000
0000
0302
0000
0000
0023
0000
0000
2030
0000
3200
0000
,
0320
0000
0000
0032
0000
0000
2003
0000
3100
0000
0010
0000
0100
0000
1000
0000
,
0002
0000
0000
0203
0000
0000
2300
0000
0000
3020
0000
0000
0032
0000
0203
0000
,
0320
0000
0000
2030
0000
0000
3002
0000
0013
0000
0100
0000
0010
0000
0001
0000
,
2001
0000
0000
3020
0000
0000
0032
0000
0000
0203
0000
0000
2300
0000
3020
0000
,
0230
0000
0000
0302
0000
0000
2003
0000
3010
0000
0100
0000
0010
0000
1000
0000
,
1001
0000
1000
0001
0000
0100
0000
0020
0000
0000
0130
0000
0001
0000
0010
0000
,
0100
0000
0100
1000
0000
0001
0000
0020
0000
0000
0000
0000
0200
0000
0330
0000
,
2001
0000
0000
0000
3010
0100
0000
0001
0000
0001
0010
0000
0100
0000
1000
0000
,
0100
0000
0100
0010
0000
0010
0001
0000
0100
0000
0100
0010
0000
0010
1000
0000
,
1002
0000
0000
0000
0013
0100
0000
1000
0000
1000
0010
0000
0100
0000
0001
0000
,
0100
0000
0100
0010
0000
0010
1000
0000
0100
0000
0100
0010
0000
0010
0001
0000
,
1001
0000
0001
0010
0000
0010
0100
0000
1000
0000
0010
0000
0100
0000
0010
0000
,
1000
0000
1000
0100
0000
0100
0010
0000
0001
0000
0100
0000
0010
0000
0100
0000
,
1001
0000
1000
0010
0000
0010
0100
0000
0001
0000
0010
0000
0100
0000
0010
0000
,
0001
0000
0000
1100
0000
0000
1001
0000
0001
0000
1000
0000
0010
0100
0010
0000
,
1001
0000
0000
0000
;
