#VERSION:0.83;
#TITLE:Up;
#SUBTITLE:;
#ARTIST:Cardi B;
#TITLETRANSLIT:;
#SUBTITLETRANSLIT:;
#ARTISTTRANSLIT:;
#GENRE:Popular Songs;
#ORIGIN:;
#CREDIT:;
#BANNER:Up.png;
#BACKGROUND:Up-bg.png;
#PREVIEWVID:;
#JACKET:Up-jacket.png;
#CDIMAGE:;
#DISCIMAGE:;
#LYRICSPATH:;
#CDTITLE:../cdtitle.png;
#MUSIC:Up.ogg;
#OFFSET:2.658000;
#SAMPLESTART:34.931999;
#SAMPLELENGTH:15.000000;
#SELECTABLE:YES;
#BPMS:0.000=83.000;
#STOPS:;
#DELAYS:;
#WARPS:;
#TIMESIGNATURES:0.000=4=4;
#TICKCOUNTS:0.000=4;
#COMBOS:0.000=1;
#SPEEDS:0.000=1.000=0.000=0;
#SCROLLS:0.000=1.000;
#FAKES:;
#LABELS:0.000=Song Start;
#BGCHANGES:4.000=Up.avi=1.000=0=0=0=StretchNoLoop====,
99999=-nosongbg-=1.000=0=0=0 // don't automatically add -songbackground-
;
#KEYSOUNDS:;
#ATTACKS:
;

//---------------dance-single - ----------------
#NOTEDATA:;
#CHARTNAME:;
#STEPSTYPE:dance-single;
#DESCRIPTION:;
#CHARTSTYLE:;
#DIFFICULTY:Hard;
#METER:10;
#RADARVALUES:0.382275,0.431568,0.482873,0.000000,0.176047,266.000000,218.000000,48.000000,0.000000,0.000000,0.000000,0.000000,0.000000,0.000000,0.382275,0.431568,0.482873,0.000000,0.176047,266.000000,218.000000,48.000000,0.000000,0.000000,0.000000,0.000000,0.000000,0.000000;
#CREDIT:led_light;
#NOTES:
0000
0000
0000
0000
,
0000
0000
0000
0000
,
0000
0000
0000
0000
,
0010
0000
0000
0000
,
1010
0000
0000
0010
0011
0000
0000
0010
1010
0000
0000
0010
0011
0000
0000
0010
,
1010
0000
0100
0000
1001
0000
0010
0000
1000
0000
1000
0001
1000
0000
1100
0000
,
0001
0100
0001
0000
1001
0000
0010
0000
0001
0010
0001
0000
1000
0000
0110
0000
,
1000
0100
1000
0000
0010
0000
0011
0000
0001
0100
0001
0000
0010
0000
1010
0000
,
0001
0000
0110
0000
0001
0100
0001
0000
1000
0000
0000
0000
0000
0000
0000
0000
,
0110
0000
0001
0000
1000
0100
1000
0000
0001
0100
0001
0000
0100
0010
0100
0000
,
0001
0000
0101
0000
1000
0100
1000
0000
0100
0010
0100
0000
1001
0000
0000
0000
,
0001
1000
1000
0000
1000
0001
0001
0000
,
0100
0000
0000
0010
1010
0000
0000
0001
0011
0000
0000
1000
1100
0000
1000
0100
,
0010
0100
0011
0100
0010
0100
1001
0100
,
0010
0100
1010
0100
0010
0100
1001
0110
,
0010
1000
0011
1000
0010
1000
0110
1000
,
0010
0001
1010
0001
0010
0001
0110
1001
,
0101
0000
1000
0000
0100
1000
1000
0000
,
0001
0000
0110
0000
0001
0100
0010
0000
,
1000
0000
0011
0000
1000
1000
0001
0000
,
0010
1010
0100
0011
,
1000
0000
1000
0000
0010
0000
1000
0000
0100
0010
0100
0000
1000
0000
0000
0000
,
0001
0010
0001
0000
0100
0000
0001
0000
0010
0100
0010
0000
0001
0000
0000
0000
,
1000
0000
0100
0000
0001
0100
0001
0000
1000
0000
1000
0010
0001
0000
0000
0000
,
0010
0100
0010
0000
1100
0000
1000
0000
0001
0000
0000
0000
0000
0000
0000
0000
,
1000
0000
0000
0000
0000
0000
0000
0000
0000
0000
0000
0000
1001
0100
0000
0100
,
0001
0000
0100
0000
1000
0100
1000
0000
0010
0100
0010
0000
1001
0000
0000
0000
,
0001
0000
1000
0000
0100
0010
0100
0000
1000
0001
0100
0000
0001
0010
0100
0000
,
1000
0000
0000
0000
,
0010
0100
0011
0100
0010
0100
1001
0100
,
0010
0100
1010
0100
0010
0100
1001
0110
,
0010
1000
0011
0000
0010
1000
0110
0000
,
0011
0000
0000
0010
1010
0000
0000
0010
0011
0000
0000
0010
1010
0000
1100
0000
,
0010
0000
0000
0000
;

//---------------dance-single - ----------------
#NOTEDATA:;
#CHARTNAME:;
#STEPSTYPE:dance-single;
#DESCRIPTION:;
#CHARTSTYLE:;
#DIFFICULTY:Beginner;
#METER:1;
#RADARVALUES:0.061796,0.082994,0.000000,0.000000,0.000000,43.000000,43.000000,0.000000,0.000000,0.000000,0.000000,0.000000,0.000000,0.000000,0.061796,0.082994,0.000000,0.000000,0.000000,43.000000,43.000000,0.000000,0.000000,0.000000,0.000000,0.000000,0.000000,0.000000;
#CREDIT:led_light;
#NOTES:
0000
0000
0000
0000
,
0000
0000
0000
0000
,
0000
0000
0000
0000
,
0100
0000
0000
0000
,
0010
0000
0010
0000
,
0001
0000
0000
0000
,
0001
0000
0000
0000
,
1000
0000
0000
0000
,
1000
0000
0000
0000
,
0001
0000
0000
0000
,
1000
0000
0000
0000
,
0001
0000
0000
0000
,
0100
0000
0100
0000
,
0010
0000
0010
0000
,
0010
0000
0010
0000
,
0010
0000
0010
0000
,
0010
0000
0010
0000
,
1000
0000
0000
0000
,
1000
0000
0000
0000
,
0001
0000
0000
0000
,
0001
0000
0001
0000
,
0001
0000
0000
0000
,
1000
0000
0000
0000
,
0001
0000
0000
0000
,
0001
0000
0000
0000
,
0010
0000
0000
0000
,
0100
0000
0100
0000
,
1000
0000
1000
0000
,
0001
0000
0000
0000
,
0010
0000
0010
0000
,
0010
0000
0010
0000
,
0010
0000
0000
0000
,
0010
0000
0010
0000
,
1000
0000
0000
0000
;

//---------------dance-single - ----------------
#NOTEDATA:;
#CHARTNAME:;
#STEPSTYPE:dance-single;
#DESCRIPTION:;
#CHARTSTYLE:;
#DIFFICULTY:Easy;
#METER:3;
#RADARVALUES:0.116407,0.199185,0.080479,0.000000,0.000000,81.000000,73.000000,8.000000,0.000000,0.000000,0.000000,0.000000,0.000000,0.000000,0.116407,0.199185,0.080479,0.000000,0.000000,81.000000,73.000000,8.000000,0.000000,0.000000,0.000000,0.000000,0.000000,0.000000;
#CREDIT:led_light;
#NOTES:
0000
0000
0000
0000
,
0000
0000
0000
0000
,
0000
0000
0000
0000
,
0100
0000
0000
0000
,
1000
1000
0001
0001
,
1000
0000
1000
0000
,
0001
0000
0100
0000
,
1000
0000
1000
0000
,
0001
0000
0000
0000
,
1000
0000
1000
0000
,
0010
0000
0100
0000
,
0010
0000
0000
0000
,
1000
1000
0100
0100
,
0010
0010
0010
1001
,
0010
0010
0010
1001
,
0010
0010
0010
0110
,
0010
0010
0010
1001
,
0001
0000
0000
0000
,
0010
0000
0000
0000
,
0100
0000
0000
0000
,
1000
1000
0001
0001
,
1000
0000
1000
0000
,
0001
0000
0010
0000
,
1000
0000
1000
0000
,
0001
0000
0000
0000
,
1000
0000
0000
0000
,
0010
0000
0010
0000
,
0001
0000
0001
0000
,
1000
0000
0000
0000
,
0010
0010
0010
1001
,
0010
0010
0010
1001
,
0010
0100
0000
1001
,
0010
0010
0010
1001
,
0100
0000
0000
0000
;

//---------------dance-single - ----------------
#NOTEDATA:;
#CHARTNAME:;
#STEPSTYPE:dance-single;
#DESCRIPTION:;
#CHARTSTYLE:;
#DIFFICULTY:Medium;
#METER:6;
#RADARVALUES:0.257245,0.315376,0.311856,0.000000,0.000000,179.000000,148.000000,31.000000,0.000000,0.000000,0.000000,0.000000,0.000000,0.000000,0.257245,0.315376,0.311856,0.000000,0.000000,179.000000,148.000000,31.000000,0.000000,0.000000,0.000000,0.000000,0.000000,0.000000;
#CREDIT:led_light;
#NOTES:
0000
0000
0000
0000
,
0000
0000
0000
0000
,
0000
0000
0000
0000
,
0010
0000
0000
0000
,
1010
1010
0011
0011
,
0110
0100
1100
0000
0010
0001
0101
0000
,
1000
1000
0011
0000
1000
0100
0001
0000
,
1000
1000
1000
0000
0001
0001
0001
0000
,
0010
0100
0010
0000
1000
0000
0000
0000
,
1001
1000
0001
0000
0001
1000
0100
0000
,
1000
0100
0001
0000
1000
0001
1001
0000
,
1000
0010
0000
0010
,
1100
1100
0101
0101
,
0010
0000
0010
0000
0010
0100
0011
0000
,
0010
0000
0010
0000
0010
0100
1010
0000
,
0010
0000
0010
0000
0010
0100
0110
0000
,
0010
0000
0010
0000
0010
0100
1001
0100
,
0110
0000
0100
0000
0010
1000
0001
0000
,
1000
0000
1000
0000
0100
1000
0010
0000
,
1000
0100
0001
0000
1000
0010
0001
0000
,
1001
1001
0110
0110
,
1001
1000
0001
0000
1000
0100
0001
0000
,
0010
0001
0010
0000
0001
0100
1000
0000
,
0010
1000
0100
1000
0010
0100
0010
0000
,
0010
0001
1000
0100
0001
0000
0000
0000
,
0100
0000
0000
0010
,
0001
0010
1000
0000
0001
1000
1001
0000
,
1000
0100
1100
0000
0010
0001
0011
0000
,
1000
0000
0000
0000
,
0010
0000
0010
0000
0010
0100
0011
0000
,
0010
0000
0010
0000
0010
0100
1010
0000
,
0010
0000
0010
0000
0010
0100
0110
0000
,
0010
0000
0010
0000
0010
0100
1001
0100
,
0010
0000
0000
0000
;

//---------------dance-double - ----------------
#NOTEDATA:;
#CHARTNAME:;
#STEPSTYPE:dance-double;
#DESCRIPTION:;
#CHARTSTYLE:;
#DIFFICULTY:Easy;
#METER:3;
#RADARVALUES:0.129341,0.199185,0.100599,0.000000,0.000000,90.000000,80.000000,10.000000,0.000000,0.000000,0.000000,0.000000,0.000000,0.000000,0.129341,0.199185,0.100599,0.000000,0.000000,90.000000,80.000000,10.000000,0.000000,0.000000,0.000000,0.000000,0.000000,0.000000;
#CREDIT:led_light;
#NOTES:
00000000
00000000
00000000
00000000
,
00000000
00000000
00000000
00000000
,
00000000
00000000
00000000
00000000
,
00001000
00000000
00000000
00000000
,
00100000
00100000
00000010
00000010
,
00100000
00000000
00100000
00000000
,
01000000
00000000
01000000
00000000
,
10000000
00000000
10000000
00000000
,
00010000
00000000
10000000
00000000
,
01000000
00000000
01000000
00000000
,
00010000
00000000
00010000
00011000
,
00001000
00000000
00000100
00000000
,
00000001
00000001
00001000
00001000
,
00000010
00000010
00000010
00001100
,
00000010
00000010
00000010
00011000
,
00100000
00100000
00100000
01010000
,
00100000
00100000
00100000
00011000
,
00000010
00000000
00000010
00000000
,
00000001
00000000
00000001
00000000
,
00000100
00000000
00001000
00000000
,
00000001
00000001
00001000
00001000
,
00000010
00000000
00000010
00000000
,
00100000
00000000
00100000
00000000
,
01000000
00000000
01000000
00000000
,
00010000
00000000
00000000
00000000
,
00000010
00000000
00000000
00000000
,
00001000
00000000
00001000
00011000
,
01000000
00000000
10000000
00000000
,
00010000
00000000
00000000
00000000
,
00100000
00100000
00100000
01010000
,
00100000
00100000
00100000
00011000
,
00000010
00000100
00000000
00001100
,
00000010
00000010
00000010
00011000
,
00100000
00000000
00000000
00000000
;

//---------------dance-double - ----------------
#NOTEDATA:;
#CHARTNAME:;
#STEPSTYPE:dance-double;
#DESCRIPTION:;
#CHARTSTYLE:;
#DIFFICULTY:Medium;
#METER:6;
#RADARVALUES:0.257245,0.298778,0.321915,0.000000,0.000000,179.000000,147.000000,32.000000,0.000000,0.000000,0.000000,0.000000,0.000000,0.000000,0.257245,0.298778,0.321915,0.000000,0.000000,179.000000,147.000000,32.000000,0.000000,0.000000,0.000000,0.000000,0.000000,0.000000;
#CREDIT:led_light;
#NOTES:
00000000
00000000
00000000
00000000
,
00000000
00000000
00000000
00000000
,
00000000
00000000
00000000
00000000
,
00100000
00000000
00000000
00000000
,
00101000
00101000
00010010
00010010
,
00001001
00000100
00000001
00000000
00000001
00000100
00001010
00000000
,
00010000
00010000
00001100
00000000
00010000
00001000
01001000
00000000
,
00010000
00010000
00010000
00000000
00100000
00100000
00100000
00000000
,
10000000
00100000
10000000
00000000
01000000
00000000
00000000
00000000
,
10010000
10000000
00100000
00000000
10000000
00010000
01000000
00000000
,
00100000
00010000
00001000
00000000
00010000
00001000
00011000
00000000
,
00010000
00000100
00000000
00000100
,
00010100
00101000
00011000
10010000
,
00100000
00000000
00100000
00000000
00100000
10000000
11000000
00000000
,
00100000
00000000
00100000
00000000
00100000
00001000
00011000
00000000
,
00000010
00000000
00000010
00000000
00000010
00000001
00000101
00000000
,
00000010
00000000
00000010
00000000
00000010
00010000
00011000
00001000
,
00110000
00000000
01000000
00000000
10000000
01000000
00010000
00000000
,
00001000
00000000
00001000
00000000
00000010
00000001
00001000
00000000
,
00000100
00000001
00000100
00000000
00001000
00000100
00001000
00000000
,
00001010
00001010
00011000
00011000
,
00110000
01000000
00010000
00000000
00100000
10000000
00010000
00000000
,
10000000
01000000
00010000
00000000
00001000
00001000
00001000
00000000
,
00010000
00000100
00010000
00000000
00000010
00000010
00000010
00000000
,
00000100
00000001
00001000
00000100
00000001
00000000
00000000
00000000
,
00000100
00000000
00000000
00001100
,
00000010
00001000
00010000
00000000
00001000
00010000
00011000
00000000
,
00100000
00010000
01100000
00000000
01000000
00010000
10100000
00000000
,
01000000
00000000
00000000
00000000
,
00100000
00000000
00100000
00000000
00100000
10000000
11000000
00000000
,
00100000
00000000
00100000
00000000
00100000
00001000
00011000
00000000
,
00000010
00000000
00000010
00000000
00000010
00000001
00000101
00000000
,
00000010
00000000
00000010
00000000
00000010
00010000
00011000
00001000
,
00100000
00000000
00000000
00000000
;

//---------------dance-double - ----------------
#NOTEDATA:;
#CHARTNAME:;
#STEPSTYPE:dance-double;
#DESCRIPTION:;
#CHARTSTYLE:;
#DIFFICULTY:Hard;
#METER:10;
#RADARVALUES:0.360718,0.414969,0.321915,0.000000,0.181077,251.000000,219.000000,32.000000,0.000000,0.000000,0.000000,0.000000,0.000000,0.000000,0.360718,0.414969,0.321915,0.000000,0.181077,251.000000,219.000000,32.000000,0.000000,0.000000,0.000000,0.000000,0.000000,0.000000;
#CREDIT:led_light;
#NOTES:
00000000
00000000
00000000
00000000
,
00000000
00000000
00000000
00000000
,
00000000
00000000
00000000
00000000
,
00010000
00000000
00000000
00000000
,
00101000
00000000
00000000
00100000
00000010
00000000
00000000
00000010
00100000
00000000
00000000
00100000
00000010
00000000
00000000
00000010
,
00100000
00000000
00001000
00000000
00010010
00000000
00001000
00000000
00100000
00000000
00010000
01000000
00001000
00000000
00011000
00000000
,
00010000
00000100
00010000
00000000
00001000
00000000
00001000
00000000
00000100
00000001
00000100
00000000
00000010
00000000
00000110
00000000
,
00001000
00000001
00001000
00000000
00000100
00000000
00001100
00000000
00010000
00001000
00010000
00000000
00001000
00000000
00011000
00000000
,
00100000
00000000
00100000
00000000
00001000
00010000
01000000
00000000
10000000
00000000
00000000
00000000
00000000
00000000
00000000
00000000
,
01100000
00000000
00010000
00000000
10000000
01000000
10000000
00000000
00010000
01000000
00100000
00000000
01000000
00010000
01000000
00000000
,
00001000
00010000
00001000
00000000
00010000
00000100
00010000
00000000
00000010
00001000
00000010
00000000
00000101
00000000
00000000
00000000
,
00000010
00000001
00000001
00000000
00001000
00000001
00000001
00000000
,
00000100
00000000
00000000
00000100
00000010
00000000
00000000
00000010
00001000
00000000
00000000
00001000
00000100
00000000
00000001
00000100
,
00000010
00000100
00001010
00000001
00000010
00001000
00011000
00001000
,
00100000
01000000
00110000
10000000
00100000
00010000
00011000
00000100
,
00000010
00000100
00001010
00000001
00000010
00001000
00011000
00001000
,
00100000
01000000
00110000
10000000
00100000
00010000
00011000
00001100
,
00000110
00000000
00000001
00000000
00001000
00000001
00000001
00000000
,
00000001
00000000
00001010
00000000
00010000
00001000
00100000
00000000
,
00001000
00000000
00011000
00000000
01000000
01000000
00001000
00000000
,
00010000
00101000
00001000
00110000
,
10000000
01000000
10000000
00000000
00100000
00000000
10000000
00000000
01000000
00100000
01000000
00000000
00010000
00000000
00000000
00000000
,
00001000
00000010
00001000
00000000
00000010
00000000
00000100
00000000
00001000
00000100
00001000
00000000
00000001
00000000
00000000
00000000
,
00000010
00000100
00001000
00000000
00000010
00000000
00000100
00000000
00000010
00000000
00001000
00000001
00001000
00000000
00000000
00000000
,
00000100
00000010
00001000
00000000
00010000
00000000
01000000
00000000
00100000
00000000
00000000
00000000
00000000
00000000
00000000
00000000
,
10000000
00000000
00000000
01100000
,
01000000
00010000
01000000
00000000
10000000
00010000
10000000
00000000
00100000
00010000
00100000
00000000
01010000
00000000
00000000
00000000
,
00001000
00000000
00010000
00000000
00000010
00000100
00000010
00000000
00001000
00000001
00000010
00000000
00001000
00000010
00000001
00000000
,
00001000
00000000
00000000
00000000
,
00000010
00000100
00001010
00000001
00000010
00001000
00011000
00001000
,
00100000
01000000
00110000
10000000
00100000
00010000
00011000
00000100
,
00000010
00000100
00001010
00000000
00000010
00001000
00011000
00000000
,
00101000
00000000
00000000
00100000
00000010
00000000
00000000
00000010
00100000
00000000
00000000
00100000
00000010
00000000
00001010
00000000
,
00010000
00000000
00000000
00000000
;

//---------------dance-single - Freestyle (Single)----------------
#NOTEDATA:;
#CHARTNAME:;
#STEPSTYPE:dance-single;
#DESCRIPTION:Freestyle (Single);
#CHARTSTYLE:;
#DIFFICULTY:Edit;
#METER:5;
#RADARVALUES:0.158083,0.204467,0.171018,0.000000,0.000000,110.000000,93.000000,17.000000,0.000000,76.000000,0.000000,0.000000,0.000000,0.000000,0.158083,0.204467,0.171018,0.000000,0.000000,110.000000,93.000000,17.000000,0.000000,76.000000,0.000000,0.000000,0.000000,0.000000;
#CREDIT:led_light;
#NOTES:
0000
0000
0000
0000
,
0000
0000
0000
0000
,
0000
0000
0000
0000
,
0001
0000
0000
0000
,
0010
0010
0110
1100
,
1001
0100
MMMM
0100
,
1000
0001
MMMM
0001
,
0100
0100
0010
0010
,
1000
0001
MMMM
0000
,
0001
1100
0010
0010
,
1000
0011
0100
0100
,
0001
0100
MMMM
0100
,
0110
0011
1010
1001
,
0010
0010
0010
MMMM
,
0010
0010
0010
MMMM
,
0010
0010
0010
MMMM
,
0010
0010
0010
MMMM
,
1001
0100
MMMM
0100
,
0001
1000
MMMM
1000
,
0001
1100
0010
0100
,
0010
0101
1000
0110
,
1000
0100
MMMM
0100
,
1000
0001
MMMM
0001
,
1000
0101
0001
0110
,
0001
1000
MMMM
0000
,
0100
0000
0000
0001
,
0100
1100
0010
1001
,
0010
0010
0100
0100
,
MMMM
0000
0000
0000
,
0010
0010
0010
MMMM
,
0010
0010
0010
MMMM
,
0010
0010
0010
MMMM
,
0010
0010
0010
MMMM
,
0010
0000
0000
0000
0000
0000
0000
MMMM
;

//---------------dance-double - Freestyle (Double)----------------
#NOTEDATA:;
#CHARTNAME:;
#STEPSTYPE:dance-double;
#DESCRIPTION:Freestyle (Double);
#CHARTSTYLE:;
#DIFFICULTY:Edit;
#METER:5;
#RADARVALUES:0.152335,0.221505,0.150898,0.000000,0.000000,106.000000,91.000000,15.000000,0.000000,160.000000,0.000000,0.000000,0.000000,0.000000,0.152335,0.221505,0.150898,0.000000,0.000000,106.000000,91.000000,15.000000,0.000000,160.000000,0.000000,0.000000,0.000000,0.000000;
#CREDIT:led_light;
#NOTES:
00000000
00000000
00000000
00000000
,
00000000
00000000
00000000
00000000
,
00000000
00000000
00000000
00000000
,
00010000
00000000
00000000
00000000
,
00000010
00000010
00001010
00011000
,
00110000
01000000
MMMMMMMM
01000000
,
10000000
00010000
MMMMMMMM
00010000
,
01000000
01000000
00001000
00001000
,
00100000
00010000
MMMMMMMM
00000000
,
00001000
00000110
00001000
00001000
,
00000001
00000101
00000010
00001001
,
00000001
00001000
MMMMMMMM
00001000
,
00001100
00001100
00011000
01010000
,
00100000
00100000
00100000
MMMMMMMM
,
00100000
00100000
00100000
MMMMMMMM
,
00100000
00100000
00100000
MMMMMMMM
,
00100000
00100000
00100000
MMMMMMMM
,
10010000
00010000
MMMMMMMM
00010000
,
00001000
00000010
MMMMMMMM
00000010
,
00000100
00001000
MMMMMMMM
00001000
,
00000001
00001010
00010000
00001010
,
00000001
00001000
MMMMMMMM
00001000
,
00000100
00010000
MMMMMMMM
00010000
,
01000000
10000000
00010000
10010000
,
00100000
00100000
MMMMMMMM
00000000
,
10000000
00000000
00000000
00000000
,
00010000
10000000
00010000
10010000
,
00001000
00001000
00010000
00010000
,
MMMMMMMM
00000000
00000000
00000000
,
00000010
00000010
00000010
MMMMMMMM
,
00000010
00000010
00000010
MMMMMMMM
,
00000010
00000010
00000010
MMMMMMMM
,
00000010
00000010
00000010
MMMMMMMM
,
00100000
00000000
00000000
00000000
00000000
00000000
00000000
MMMMMMMM
;

//---------------dance-double - ----------------
#NOTEDATA:;
#CHARTNAME:;
#STEPSTYPE:dance-double;
#DESCRIPTION:;
#CHARTSTYLE:;
#DIFFICULTY:Challenge;
#METER:13;
#RADARVALUES:0.518801,0.528205,0.311856,0.000000,0.603591,361.000000,330.000000,31.000000,0.000000,96.000000,0.000000,0.000000,0.000000,0.000000,0.518801,0.528205,0.311856,0.000000,0.603591,361.000000,330.000000,31.000000,0.000000,96.000000,0.000000,0.000000,0.000000,0.000000;
#CREDIT:led_light;
#NOTES:
// measure 0
00000000
00000000
00000000
00000000
,  // measure 1
00000000
00000000
00000000
00000000
,  // measure 2
00000000
00000000
00000000
00000000
,  // measure 3
00100000
00000000
00000000
00000000
,  // measure 4
00001010
00000000
00010000
00001000
00101000
00000000
00001000
00000000
00011000
00001000
00010000
00000100
00001000
00000010
00001000
00000010
,  // measure 5
00000100
00000000
00000100
00000000
00001001
00000000
00001001
00000000
00000010
00000000
00000100
00001000
00000100
00000000
00011000
00000000
,  // measure 6
00010000
00001000
00100000
00010000
00100000
00000000
01010000
00000000
00001000
00010000
00000100
00001000
00000100
00000000
00001001
00000000
,  // measure 7
00000100
00000001
00000100
00000001
00000010
00000100
00000010
00000000
00001000
00010000
00001000
00010000
00100000
01000000
00100000
00000000
,  // measure 8
10000000
00000000
10010000
00000000
10000000
01000000
00010000
00001000
00010000
00000000
00000000
00000000
00000000
00000000
00000000
00000000
,  // measure 9
00001000
00000000
00011000
00000000
00000100
00010000
00001000
00010000
00000010
00001000
00000100
00000000
00000010
00000001
00000100
00000001
,  // measure 10
00000010
00000100
00000010
00000100
00001000
00000100
00001000
00000100
00010000
00000010
00001000
00000100
00000110
00000000
MMMMMMMM
00000000
,  // measure 11
00000100
00000000
00001000
00000000
00000010
00000001
00000010
00000100
00001000
00000100
00000001
00000000
00000100
00001000
00010000
00000000
,  // measure 12
00000100
00000100
00000100
00000000
00010000
00010000
00010000
00001000
00100000
00010000
01000000
00100000
10100000
00000000
01000000
00010000
,  // measure 13
00100000
00000000
00001000
00010000
00010010
00000000
00001000
00001000
00000010
00000000
00001000
00000100
00010100
00000000
00000100
00001000
,  // measure 14
00000010
00000000
00010000
00001000
00101000
00000000
00010000
00010000
00100000
00000000
00010000
10000000
10010000
00000000
MMMMMMMM
00000000
,  // measure 15
00100000
00000000
00100000
01000000
00100000
00000000
00010000
00001000
00000010
00000000
00000100
00000010
00000110
00000000
00000001
00000100
,  // measure 16
00000010
00000000
00000010
00001000
00100000
00000000
00100000
00010000
00000010
00000000
00000010
00100000
00100010
00000000
00011000
00000000
,  // measure 17
00001000
00000000
00010000
00000000
00001000
00000000
00000000
00000000
00100000
00000000
00010000
00000000
01000000
00000000
00001000
00000000
00010000
00000000
00000000
00000100
00010000
00000000
00001000
00000000
00010000
00000000
00001000
00000000
MMMMMMMM
00000000
00000000
00000000
,  // measure 18
00000100
00001000
00000100
00000000
00000010
00000001
00000010
00000000
00000100
00000000
00000100
00010000
00001000
00010000
MMMMMMMM
00000000
,  // measure 19
00100000
00010000
00100000
00000000
01000000
10000000
01000000
10000000
00100000
01000000
00100000
01000000
00010000
00000000
10000000
00000000
,  // measure 20
01000000
01000000
01000000
00000000
00110000
00000000
01100000
00000000
01010000
00000000
00001000
00010000
00001000
00000000
00011000
00000000
,  // measure 21
00001000
00000010
00001000
00000010
00000001
00000000
00001000
00000100
00000010
00000001
00000100
00000010
00001000
00000000
MMMMMMMM
00000000
,  // measure 22
00010000
00100000
00010000
00100000
10000000
00000000
00010000
01000000
00100000
10000000
01000000
00100000
00010000
00000000
MMMMMMMM
00000100
,  // measure 23
00010000
00001000
00010000
00001000
00100000
00010000
01000000
00001000
00100000
00000000
00100000
01000000
00100000
00000000
00100000
00010000
,  // measure 24
10000000
00100000
10000000
00100000
01000000
00000000
00001000
00010000
MMMMMMMM
00000000
00000000
00000000
00000000
00000000
00000000
00000000
,  // measure 25
00000010
00000000
00000000
00000000
00000000
00000000
00000000
00000000
00000000
00000000
00000000
00000000
00001000
00010000
00000000
00010000
,  // measure 26
01000000
00100000
01000000
00100000
00010000
00100000
00010000
00100000
00001000
01000000
00010000
00100000
01100000
00000000
MMMMMMMM
00000000
,  // measure 27
00100000
00000000
00010000
00000000
01000000
10000000
01000000
00100000
00010000
00100000
10000000
00000000
00100000
00010000
00001000
00000000
,  // measure 28
MMMMMMMM
00000000
00000000
00000000
00000000
00000000
00000000
00000000
00000000
00000000
00000000
00000000
00000000
00000000
00000100
00001000
,  // measure 29
00000010
00000000
00010000
00001000
00101000
00000000
00010000
00010000
00100000
00000000
00010000
01000000
01001000
00000000
01000000
00010000
,  // measure 30
00100000
00000000
00001000
00010000
00010010
00000000
00001000
00001000
00000010
00000000
00001000
00000001
00001001
00000000
MMMMMMMM
00000000
,  // measure 31
00000010
00000000
00000010
00000100
00000010
00000000
00001000
00010000
00100000
00000000
01000000
00100000
01100000
00000000
10000000
01000000
,  // measure 32
00100000
00000000
00100000
00010000
00000010
00000000
00000010
00001000
00100000
00000000
00100000
00000010
00100010
00000000
00011000
00000000
,  // measure 33
00001000
00100000
00100000
00000000
00100000
00000000
MMMMMMMM
00000000
00010000
00000010
00000000
00000010
00000010
00000000
MMMMMMMM
00000000
;

//---------------dance-single - ----------------
#NOTEDATA:;
#CHARTNAME:;
#STEPSTYPE:dance-single;
#DESCRIPTION:;
#CHARTSTYLE:;
#DIFFICULTY:Challenge;
#METER:13;
#RADARVALUES:0.536047,0.562283,0.422514,0.000000,0.598561,373.000000,331.000000,42.000000,0.000000,40.000000,0.000000,0.000000,0.000000,0.000000,0.536047,0.562283,0.422514,0.000000,0.598561,373.000000,331.000000,42.000000,0.000000,40.000000,0.000000,0.000000,0.000000,0.000000;
#CREDIT:led_light;
#NOTES:
0000
0000
0000
0000
,
0000
0000
0000
0000
,
0000
0000
0000
0000
,
0010
0000
0000
0000
,
0011
0000
0100
0010
1010
0000
0010
0000
0011
0001
1000
0100
0001
0100
0100
0100
,
0010
0000
0010
0000
1001
0000
1001
0000
0001
0000
0100
0100
0100
0000
0110
0000
,
1000
0100
1000
0100
1000
0000
0011
0000
0001
0100
0001
0100
0001
0000
1010
0000
,
0001
0010
0001
0100
0010
1000
0010
0000
0100
0001
1000
0100
0010
0100
0010
0000
,
0100
0000
0110
0000
1000
0100
0001
0100
1000
0000
0000
0000
0000
0000
0000
0000
,
0010
0000
0110
0000
0001
1000
0100
0010
0100
0010
0001
0000
0010
0100
0010
0001
,
1000
0010
1000
0010
0100
0001
0100
0001
1000
0100
0010
0100
0110
0000
MMMM
0000
,
1000
0000
1000
0000
0100
0010
0001
0000
0010
0100
0010
0000
0001
0100
0001
0000
,
0010
0010
0010
0000
0100
0010
0100
1000
0001
0100
0010
0010
0110
0000
0010
0100
,
0010
0000
0100
0010
0110
0000
0010
0100
0010
0000
0100
0010
1001
0000
0010
0100
,
0010
0000
0100
0010
0110
0000
0010
0100
0010
0000
0100
0010
1010
0000
0011
0000
,
0110
0000
0001
0001
0011
0000
0010
0100
0010
0000
1000
1000
1010
0000
0010
0100
,
0010
0000
0100
0010
0110
0000
0010
0100
0010
0000
0100
0010
0110
0000
1001
0000
,
0001
0000
0010
0000
0001
0000
0000
0000
1000
0000
0100
0000
1000
0000
0001
0000
0100
0000
0000
0001
0100
0000
0010
0000
1000
0000
0001
0000
MMMM
0000
0000
0000
,
0001
1000
0100
0000
1000
1000
1000
0000
0001
0000
0010
0100
0010
0001
MMMM
0000
,
0001
1000
0100
0000
1000
0010
0100
0010
0100
0001
1000
0100
1000
0000
0110
0000
,
1000
1000
1000
0000
0101
0000
0101
0000
0110
0000
0100
0001
0010
0000
0110
0000
,
0100
1000
0100
1000
0001
0000
0010
0001
0100
0010
0100
0010
0100
0000
MMMM
0000
,
1000
0100
1000
0100
0001
0000
0100
1000
0010
0100
0010
0100
0010
0000
MMMM
0001
,
0010
0100
0010
0100
1000
0100
1000
0010
1000
0000
0010
0100
0010
0000
1000
0100
,
1000
0001
1000
0001
0010
0000
0100
0010
MMMM
0000
0000
0000
0000
0000
0000
0000
,
1000
0000
0000
0000
0000
0000
0000
0000
0000
0000
0000
0000
0100
0010
0000
0010
,
0001
0100
0001
0100
1000
0100
1000
0100
0001
0100
0010
1000
1001
0000
MMMM
0000
,
0001
0000
0010
0000
0100
1000
0100
0010
0001
0010
0001
0000
1000
0100
1000
0000
,
MMMM
0000
0000
0000
0000
0000
0000
0000
0000
0000
0000
0000
0000
0000
0010
0100
,
0010
0000
0100
0010
0110
0000
0010
0100
0010
0000
0100
0010
1001
0000
0010
0100
,
0010
0000
0100
0010
0110
0000
0010
0100
0010
0000
0100
0010
1010
0000
0011
0000
,
0110
0000
0001
0001
0011
0000
0010
0100
0010
0000
1000
1000
1010
0000
0100
0010
,
1010
0000
0100
0010
0011
0000
0001
0100
0110
0000
1000
0100
0110
0000
1001
0000
,
0001
1000
0001
0000
1000
0000
MMMM
0000
0100
0100
0000
0010
0100
0000
MMMM
0000
;
