#VERSION:0.83;
#TITLE:Up N' Down;
#SUBTITLE:;
#ARTIST:Britney Spears;
#TITLETRANSLIT:;
#SUBTITLETRANSLIT:;
#ARTISTTRANSLIT:;
#GENRE:Popular Songs;
#ORIGIN:;
#CREDIT:;
#BANNER:Up N' Down.png;
#BACKGROUND:Up N' Down-bg.png;
#PREVIEWVID:;
#JACKET:Up N' Down-jacket.png;
#CDIMAGE:;
#DISCIMAGE:;
#LYRICSPATH:;
#CDTITLE:../cdtitle.png;
#MUSIC:Up N' Down.ogg;
#OFFSET:1.999000;
#SAMPLESTART:55.999001;
#SAMPLELENGTH:15.000000;
#SELECTABLE:YES;
#BPMS:0.000=120.000;
#STOPS:;
#DELAYS:;
#WARPS:;
#TIMESIGNATURES:0.000=4=4;
#TICKCOUNTS:0.000=4;
#COMBOS:0.000=1;
#SPEEDS:0.000=1.000=0.000=0;
#SCROLLS:0.000=1.000;
#FAKES:;
#LABELS:0.000=Song Start;
#BGCHANGES:-99.000=../bg.avi=1.000=0=0=1=====,
99999=-nosongbg-=1.000=0=0=0 // don't automatically add -songbackground-
;
#KEYSOUNDS:;
#ATTACKS:
;

//---------------dance-single - ----------------
#NOTEDATA:;
#CHARTNAME:;
#STEPSTYPE:dance-single;
#DESCRIPTION:;
#CHARTSTYLE:;
#DIFFICULTY:Beginner;
#METER:2;
#RADARVALUES:0.083973,0.123481,0.032656,0.010885,0.000000,54.000000,51.000000,3.000000,1.000000,0.000000,0.000000,0.000000,0.000000,0.000000,0.083973,0.123481,0.032656,0.010885,0.000000,54.000000,51.000000,3.000000,1.000000,0.000000,0.000000,0.000000,0.000000,0.000000;
#CREDIT:led_light;
#NOTES:
0000
0000
0000
0000
,
0000
0000
0000
0000
,
0000
0000
0000
0000
,
0000
0000
0000
0000
,
0000
0000
0000
0000
,
0100
0000
0100
0000
,
0100
0000
0000
0000
,
0010
0000
0010
0000
,
0010
0000
0000
0000
,
0100
0000
0000
0000
,
0100
0000
0000
0000
,
0010
0000
0000
0000
,
0010
0000
0000
0000
,
1000
0000
0000
0000
,
0001
0000
0000
0000
,
1000
0000
0000
0000
,
0001
0000
0000
0000
,
0100
0000
0000
0000
,
0100
0000
0000
0000
,
0010
0000
0010
0000
,
0010
0000
0000
0000
,
1001
0000
0000
0000
,
0000
0000
0000
0000
,
0100
0000
0000
0000
,
0000
0000
0000
0000
,
1001
0000
0000
0000
,
0100
0000
0000
0000
,
0010
0000
0000
0000
,
0000
0000
0000
0000
,
0100
0000
0010
0000
,
0100
0000
0000
0000
,
0100
0000
0010
0000
,
0100
0000
0000
0000
,
0100
0000
0010
0000
,
0100
0000
0000
0000
,
0100
0000
0010
0000
,
0100
0000
0000
0000
,
0110
0000
0000
0000
,
0100
0000
0100
0000
,
0001
0000
1000
0000
,
0001
0000
0000
0000
,
0010
0000
0010
0000
,
0100
0000
0100
0000
,
1000
0000
0001
0000
,
0100
0000
0010
0000
,
0200
0000
0000
0300
0000
0000
0000
0000
;

//---------------dance-single - ----------------
#NOTEDATA:;
#CHARTNAME:;
#STEPSTYPE:dance-single;
#DESCRIPTION:;
#CHARTSTYLE:;
#DIFFICULTY:Easy;
#METER:5;
#RADARVALUES:0.222374,0.271659,0.130625,0.239479,0.000000,143.000000,131.000000,12.000000,22.000000,0.000000,0.000000,0.000000,0.000000,0.000000,0.222374,0.271659,0.130625,0.239479,0.000000,143.000000,131.000000,12.000000,22.000000,0.000000,0.000000,0.000000,0.000000,0.000000;
#CREDIT:led_light;
#NOTES:
0000
0000
0000
0000
,
0000
0000
0000
0000
,
0000
0000
0000
0000
,
0000
0000
0000
0000
,
0000
0000
0000
0000
,
1000
0010
0001
0100
,
1000
1000
0001
0000
,
0001
0010
1000
0010
,
0001
0001
1000
0000
,
0001
0001
0100
0100
,
0001
0010
0200
0300
,
1000
1000
0010
0000
,
1000
0100
0100
0110
,
0001
1000
0002
0003
,
1000
0010
0100
0110
,
0001
1000
0002
0003
,
0010
0100
0220
0330
,
1000
0001
2000
3000
,
0001
0100
0010
0110
,
1000
1000
0001
0001
,
0020
0000
0200
0330
,
2002
0000
0000
3003
,
0200
0000
2300
0000
,
3002
0000
0000
0003
,
0100
0100
0001
0000
,
1000
1000
0100
0000
,
0010
0010
1000
0000
,
0010
0010
0001
1000
,
0220
0000
0000
0330
,
0100
0010
0100
0010
,
0100
0010
0200
0300
,
0100
0010
0100
0010
,
0100
0010
0100
0110
,
0100
0010
0100
0010
,
0100
0010
0200
0300
,
0100
0010
0100
0010
,
0100
0010
0200
0310
,
2002
0000
0000
3003
,
1001
0011
0100
1000
,
0010
0010
0100
0100
,
0001
1000
0200
0300
,
1001
0101
1000
0100
,
0001
0100
1000
0010
,
1000
1000
0001
0001
,
0100
0010
0100
0010
,
0200
0000
0000
0300
0000
0000
0000
0000
;

//---------------dance-single - ----------------
#NOTEDATA:;
#CHARTNAME:;
#STEPSTYPE:dance-single;
#DESCRIPTION:;
#CHARTSTYLE:;
#DIFFICULTY:Medium;
#METER:8;
#RADARVALUES:0.295461,0.395141,0.261250,0.283021,0.092526,190.000000,166.000000,24.000000,26.000000,0.000000,0.000000,0.000000,0.000000,0.000000,0.295461,0.395141,0.261250,0.283021,0.092526,190.000000,166.000000,24.000000,26.000000,0.000000,0.000000,0.000000,0.000000,0.000000;
#CREDIT:led_light;
#NOTES:
0000
0000
0000
0000
,
0000
0000
0000
0000
,
0000
0000
0000
0000
,
0000
0000
0000
0000
,
0000
0000
0000
0000
,
1000
0000
0001
0000
1000
0100
0001
0000
,
0100
1000
0010
0000
0200
0000
0300
0000
,
0001
1000
0001
0010
,
1000
0010
0001
0000
2000
0000
3010
0000
,
0100
0000
0100
0000
0001
0010
0001
0000
,
1000
0100
1000
0000
0020
0000
0030
0000
,
0100
0000
0100
0000
0010
1000
0010
0000
,
0100
0001
0010
0000
0200
0000
0300
0000
,
1100
0101
2002
3003
,
0001
0000
0010
0000
0100
1000
0001
0000
,
0011
0101
0220
0330
,
0001
0000
0010
0100
2000
0000
3000
0000
,
1001
0110
2002
3003
,
1000
0000
0100
0000
0001
0000
0100
1000
,
0000
0010
0000
0010
0000
0100
0000
0100
,
0002
0000
2000
3003
,
0120
0000
0000
0000
,
1000
0000
0001
0030
,
2000
0000
0000
3000
,
0002
2003
3200
0300
,
0110
0000
0100
0000
0100
0000
0000
1000
,
0010
0000
0010
0000
0010
0000
0000
0100
,
0001
0000
0001
0000
0001
0000
0000
1000
,
0200
0000
0300
0110
,
0100
0000
0000
0010
0000
0000
0001
0000
0100
0000
0000
0010
0000
0000
1000
0000
,
0100
0000
0000
0010
0000
0000
0001
0000
0200
0000
0000
0000
1300
0000
0000
0000
,
0100
0000
0000
0010
0000
0000
1000
0000
0100
0000
0000
0010
0000
0000
0001
0000
,
0100
0000
0000
0010
0000
0000
1000
0000
0100
0000
0000
0000
0110
0000
0000
0000
,
0100
0000
0000
0010
0000
0000
0001
0000
0100
0000
0000
0010
0000
0000
1000
0000
,
0100
0000
0000
0010
0000
0000
0001
0000
0200
0000
0000
0000
1300
0000
0000
0000
,
0100
0000
0000
0010
0000
0000
1000
0000
0100
0000
0000
0010
0000
0000
0001
0000
,
0100
0000
0000
0010
0000
0000
1000
0000
0200
0000
0000
0000
0310
0000
0000
0000
,
2002
0000
0000
3003
,
0101
0000
0000
0000
1100
0000
0000
0000
0001
0000
0000
0100
0000
0000
0010
0000
,
1010
0000
0000
0000
0011
0000
0000
0000
1000
0000
0000
0010
0000
0000
0100
0000
,
0001
1000
0200
0300
,
0101
0000
0000
0000
1100
0000
0000
0000
0001
0000
0000
0100
0000
0000
0010
0000
,
1010
0000
0000
0000
0011
0000
0000
0000
1000
0000
0000
0010
0000
0000
0100
0000
,
0101
0000
0000
0000
1100
0000
0000
0000
0001
0000
0000
0100
0000
0000
1000
0000
,
0100
0000
0010
1000
0100
0000
0010
0001
,
0200
0000
0000
0300
0000
0000
0000
0000
;

//---------------dance-single - ----------------
#NOTEDATA:;
#CHARTNAME:;
#STEPSTYPE:dance-single;
#DESCRIPTION:;
#CHARTSTYLE:;
#DIFFICULTY:Hard;
#METER:11;
#RADARVALUES:0.455633,0.493926,0.348333,0.174167,0.174167,293.000000,261.000000,32.000000,16.000000,0.000000,0.000000,0.000000,0.000000,0.000000,0.455633,0.493926,0.348333,0.174167,0.174167,293.000000,261.000000,32.000000,16.000000,0.000000,0.000000,0.000000,0.000000,0.000000;
#CREDIT:led_light;
#NOTES:
0000
0000
0000
0000
,
0000
0000
0000
0000
,
0000
0000
0000
0000
,
0000
0000
0000
0000
,
0000
0000
0000
0000
,
1000
0010
1000
0100
0001
0100
1000
0010
,
0100
0010
1000
0001
0010
0000
0110
0000
,
1000
0100
1000
0010
0001
0010
1000
0001
,
0010
0010
0100
0100
1000
0010
0110
0000
,
0001
0010
0100
0010
0001
0001
0100
0010
,
1000
1000
0010
0100
0001
0000
1001
0000
,
1000
0100
0001
1000
0010
0010
0001
0000
,
1000
0000
1000
0000
0010
0000
0100
0000
0001
0000
0000
0001
0000
0000
1000
0000
,
1100
0000
0101
0000
2100
0000
3010
1000
,
0001
0010
0100
0010
0001
1000
0010
0100
,
0101
0000
1100
0000
0102
0000
0013
0001
,
1000
0010
0100
0010
2000
0000
3001
0000
,
1001
0000
0110
0000
2001
0000
3100
1000
,
0001
0100
1000
0100
0001
0010
1000
0002
,
0000
0103
1000
0002
0000
0013
1000
0010
,
0001
2000
3000
0020
0200
0000
0330
0001
,
1001
0000
0000
0000
1000
0000
0000
0000
0100
0000
0000
0100
0000
0000
0010
0000
,
0001
0000
0000
0000
0001
0000
0000
0000
0100
0000
0000
0100
0000
0000
1000
0000
,
0100
0000
0000
0000
0100
0000
0000
0000
0010
0000
0000
0010
0000
0000
1000
0000
,
0001
0000
0100
0010
2000
0000
3000
0100
,
0110
0000
0000
0000
1100
0000
0000
0000
0001
0000
0000
0100
0000
0000
0010
0000
,
1010
0000
0000
0000
0110
0000
0000
0000
0001
0000
0000
0010
0000
0000
0100
0000
,
1100
0000
0000
0000
1010
0000
0000
0000
0010
0000
0000
0100
0000
0000
0001
0000
,
0020
0000
0030
0110
,
1100
0000
0000
0100
0010
0000
0001
0000
0100
0000
0000
0100
0010
0000
1000
0000
,
0100
0000
0000
0100
0010
0000
0001
0000
0200
0000
0000
0000
1300
0000
0000
0000
,
0100
0000
0000
0100
0010
0000
1000
0000
0100
0000
0000
0100
0010
0000
0001
0000
,
0100
0000
0000
0100
0010
0000
1000
0000
0100
0000
0000
0100
0010
0000
0001
0000
,
0101
0000
0000
0100
0010
0000
1000
0000
0100
0000
0000
0100
0010
0000
0001
0000
,
0100
0000
0000
0100
0010
0000
1000
0000
0200
0000
0000
0000
0301
0000
0000
0000
,
0100
0000
0000
0100
0010
0000
0001
0000
0100
0000
0000
0100
0010
0000
1000
0000
,
0100
0000
0000
0100
0010
0000
0001
0000
0100
0000
0000
0100
0010
0000
1000
0000
,
2002
0000
0000
0000
3003
0000
1100
0001
,
0101
0000
0000
0000
1010
0000
0001
0000
0010
0000
0100
0010
0000
0001
0100
0000
,
0010
0000
1000
0000
0100
0000
1000
0000
0010
0000
0100
0001
0000
1000
0100
0000
,
0010
0000
0000
0010
0100
0000
1000
0000
0001
0000
0000
0000
0101
0000
0010
0000
,
1010
0000
0011
0000
1000
0100
0011
1000
,
1010
0000
0000
0000
0101
0000
1000
0000
0100
0000
0010
0100
0000
1000
0010
0000
,
0100
0000
0001
0000
0010
0000
0001
0000
0100
0000
0010
1000
0000
0001
0010
0000
,
0100
0000
0000
0100
0010
0000
0001
0000
0100
0000
0000
0100
0010
0000
1000
0000
,
0200
0000
0000
0300
0000
0000
0000
0000
;

//---------------dance-double - ----------------
#NOTEDATA:;
#CHARTNAME:;
#STEPSTYPE:dance-double;
#DESCRIPTION:;
#CHARTSTYLE:;
#DIFFICULTY:Easy;
#METER:5;
#RADARVALUES:0.213043,0.296356,0.087083,0.228594,0.000000,137.000000,129.000000,8.000000,21.000000,0.000000,0.000000,0.000000,0.000000,0.000000,0.213043,0.296356,0.087083,0.228594,0.000000,137.000000,129.000000,8.000000,21.000000,0.000000,0.000000,0.000000,0.000000,0.000000;
#CREDIT:led_light;
#NOTES:
// measure 0
00000000
00000000
00000000
00000000
,  // measure 1
00000000
00000000
00000000
00000000
,  // measure 2
00000000
00000000
00000000
00000000
,  // measure 3
00000000
00000000
00000000
00000000
,  // measure 4
00000000
00000000
00000000
00000000
,  // measure 5
00000010
00001000
00000010
00000010
,  // measure 6
00000001
00000100
00001000
00000000
,  // measure 7
00010000
01000000
00010000
00010000
,  // measure 8
00001000
00010000
00100000
00000000
,  // measure 9
10000000
10000000
00010000
00000000
,  // measure 10
10000000
00000000
00020000
00030000
,  // measure 11
00100000
00100000
00100000
00000000
,  // measure 12
01000000
00010000
00001000
00000100
,  // measure 13
00000010
00000010
00000020
00000030
,  // measure 14
00001000
00000100
00000001
00000100
,  // measure 15
00001000
00001000
00002000
00003000
,  // measure 16
00000010
00010000
00002000
00003000
,  // measure 17
01000000
01000000
02000000
03000000
,  // measure 18
00010000
00100000
10000000
00100000
,  // measure 19
00010000
00010000
10000000
10000000
,  // measure 20
02000000
00000000
00200000
03300000
,  // measure 21
20020000
00000000
00000000
30030000
,  // measure 22
20000000
00000000
30200000
00000000
,  // measure 23
02300000
00000000
00000000
00000000
,  // measure 24
03001000
00001000
00010000
00000000
,  // measure 25
00001000
00001000
00001000
00000000
,  // measure 26
00000010
00000010
00000010
00000000
,  // measure 27
00000100
00000100
00001000
00000001
,  // measure 28
00000220
00000000
00000000
00000330
,  // measure 29
00000100
00000010
00000100
00000010
,  // measure 30
00000100
00000010
00000200
00000300
,  // measure 31
00000100
00000010
00000100
00000010
,  // measure 32
00000100
00000010
00000100
00011000
,  // measure 33
01000000
00100000
01000000
00100000
,  // measure 34
01000000
00100000
02000000
03000000
,  // measure 35
01000000
00100000
01000000
00100000
,  // measure 36
01000000
00100000
02000000
03100000
,  // measure 37
20020000
00000000
00000000
30030000
,  // measure 38
01000000
00011000
00100000
00001000
,  // measure 39
00010000
00010000
00000100
00001000
,  // measure 40
00000010
00000010
00000200
00000300
,  // measure 41
00001001
00000011
00000100
00001000
,  // measure 42
00000010
00011000
00000100
00010000
,  // measure 43
00001000
00001000
00100000
00010000
,  // measure 44
01000000
00100000
01000000
00100000
,  // measure 45
02000000
00000000
00000000
03000000
00000000
00000000
00000000
00000000
;

//---------------dance-double - ----------------
#NOTEDATA:;
#CHARTNAME:;
#STEPSTYPE:dance-double;
#DESCRIPTION:;
#CHARTSTYLE:;
#DIFFICULTY:Medium;
#METER:8;
#RADARVALUES:0.289241,0.395141,0.228594,0.239479,0.027214,186.000000,165.000000,21.000000,22.000000,0.000000,0.000000,0.000000,0.000000,0.000000,0.289241,0.395141,0.228594,0.239479,0.027214,186.000000,165.000000,21.000000,22.000000,0.000000,0.000000,0.000000,0.000000,0.000000;
#CREDIT:led_light;
#NOTES:
// measure 0
00000000
00000000
00000000
00000000
,  // measure 1
00000000
00000000
00000000
00000000
,  // measure 2
00000000
00000000
00000000
00000000
,  // measure 3
00000000
00000000
00000000
00000000
,  // measure 4
00000000
00000000
00000000
00000000
,  // measure 5
00001000
00000000
00000010
00000000
00001000
00000001
00000010
00000000
,  // measure 6
00000100
00001000
00000010
00000000
00020000
00000000
00030000
00000000
,  // measure 7
00001000
01000000
00001000
00010000
,  // measure 8
01000000
00100000
01000000
00000000
20000000
00000000
30000000
00000000
,  // measure 9
00010000
00000000
00010000
00000000
01000000
00100000
01000000
00000000
,  // measure 10
00001000
00010000
00001000
00000000
00020000
00000000
00030000
00000000
,  // measure 11
00001000
00000000
00001000
00000000
00000010
00000100
00000010
00000000
,  // measure 12
00000100
00001000
00000001
00000000
00000200
00000000
00000300
00000000
,  // measure 13
00001100
00000101
00002002
00003003
,  // measure 14
00000001
00000000
00000010
00000000
00001000
00010000
00001000
00000000
,  // measure 15
00010000
01000000
22000000
33000000
,  // measure 16
00010000
00000000
01000000
00100000
20000000
00000000
30000000
00000000
,  // measure 17
10010000
01100000
20020000
30030000
,  // measure 18
10000000
00000000
00100000
00000000
00010000
00001000
00010000
00000000
,  // measure 19
00001000
00001000
00000100
00000100
,  // measure 20
00000002
00000000
00002000
00003003
,  // measure 21
00000210
00000000
00000000
00000000
,  // measure 22
00000001
00000000
00001000
00000300
,  // measure 23
00000020
00000000
00000000
00000030
,  // measure 24
00010000
00001000
00010000
00000000
,  // measure 25
00000100
00000000
00000100
00000000
00000100
00000000
00000000
00010000
,  // measure 26
00001000
00000000
00001000
00000000
00001000
00000000
00000000
00100000
,  // measure 27
00010000
00000000
00010000
00000000
00010000
00000000
00000000
10000000
,  // measure 28
00200000
00000000
00300000
01100000
,  // measure 29
01000000
00000000
00100000
10000000
01000000
00000000
00100000
00010000
,  // measure 30
01000000
00000000
00000010
00001000
00000200
00000000
00000301
00000000
,  // measure 31
00000100
00000000
00000010
00000001
00000100
00000000
00000010
00001000
,  // measure 32
00000100
00000000
00100000
00010000
01000000
00000000
00011000
00000000
,  // measure 33
00000100
00000000
00000010
00000001
00000100
00000000
00000010
00001000
,  // measure 34
00000100
00000000
00100000
00010000
02000000
00000000
13000000
00000000
,  // measure 35
01000000
00000000
00100000
10000000
01000000
00000000
00100000
00010000
,  // measure 36
01000000
00000000
00000010
00001000
00000100
00000000
00000010
00000000
,  // measure 37
00002002
00000000
00000000
00003003
,  // measure 38
00000101
00000000
00000000
00000000
00001010
00000000
00000000
00000000
00000100
00000000
00000000
00010000
00000000
00000000
00001000
00000000
,  // measure 39
00011000
00000000
00000000
00000000
00010010
00000000
00000000
00000000
00001000
00000000
00000000
00100000
00000000
00000000
00010000
00000000
,  // measure 40
01000000
10000000
02000000
03000000
,  // measure 41
01100000
00000000
00000000
00000000
10010000
00000000
00000000
00000000
00010000
00000000
00000000
00100000
00000000
00000000
01000000
00000000
,  // measure 42
11000000
00000000
00000000
00000000
00110000
00000000
00000000
00000000
01000000
00000000
00000000
00001000
00000000
00000000
00010000
00000000
,  // measure 43
00011000
00000000
00000000
00000000
00101000
00000000
00000000
00000000
00010000
00000000
00000000
00000010
00000000
00000000
00001000
00000000
,  // measure 44
00000100
00000000
00100000
00010000
01000000
00000000
00000010
00001000
,  // measure 45
00000200
00000000
00000000
00000300
00000000
00000000
00000000
00000000
;

//---------------dance-double - ----------------
#NOTEDATA:;
#CHARTNAME:;
#STEPSTYPE:dance-double;
#DESCRIPTION:;
#CHARTSTYLE:;
#DIFFICULTY:Hard;
#METER:11;
#RADARVALUES:0.421421,0.444533,0.304792,0.152396,0.065313,271.000000,243.000000,28.000000,14.000000,0.000000,0.000000,0.000000,0.000000,0.000000,0.421421,0.444533,0.304792,0.152396,0.065313,271.000000,243.000000,28.000000,14.000000,0.000000,0.000000,0.000000,0.000000,0.000000;
#CREDIT:led_light;
#NOTES:
// measure 0
00000000
00000000
00000000
00000000
,  // measure 1
00000000
00000000
00000000
00000000
,  // measure 2
00000000
00000000
00000000
00000000
,  // measure 3
00000000
00000000
00000000
00000000
,  // measure 4
00000000
00000000
00000000
00000000
,  // measure 5
00100000
00001000
00010000
00001000
00000010
00001000
00010000
00001000
,  // measure 6
00000100
00000010
00000100
00000001
00001000
00000000
00001100
00000000
,  // measure 7
00000001
00000010
00001000
00000010
00000100
00000010
00000001
00000100
,  // measure 8
00001000
00010000
00100000
00010000
00001000
00000000
00110000
00000000
,  // measure 9
10000000
00100000
00010000
00100000
01000000
01000000
00010000
00100000
,  // measure 10
01000000
01000000
00010000
00001000
00010000
00000000
00011000
00000000
,  // measure 11
00000100
00001000
00000001
00000100
00000010
00000100
00000001
00000000
,  // measure 12
00001000
00000000
00001000
00000000
00000100
00000000
00010000
00000000
00001000
00000000
00000000
00001000
00000000
00000000
00010000
00000000
,  // measure 13
00101000
00000000
00011000
00000000
00010020
00000000
00001030
00000010
,  // measure 14
00010000
00001000
00000010
00000100
00000010
00001000
00010000
00000000
,  // measure 15
00110000
00000000
10100000
00000000
12000000
00000000
03100000
00010000
,  // measure 16
10000000
00100000
00010000
00001000
00020000
00000000
00031000
00000000
,  // measure 17
00010010
00000000
00011000
00000000
00201000
00000000
00310000
00100000
,  // measure 18
00001000
00010000
00100000
01000000
00100000
00010000
00001000
00010000
,  // measure 19
00000000
00010000
01000000
00010000
00000000
00010000
00001000
00000100
,  // measure 20
00000010
00001000
00000001
00000000
00000200
00000000
00000300
00000001
,  // measure 21
00001001
00000000
00000000
00000000
00000001
00000000
00000000
00000000
00000010
00000000
00000000
00000010
00000000
00000000
00000010
00000000
,  // measure 22
00000100
00000000
00000000
00000000
00000100
00000000
00000000
00000000
00010000
00000000
00000000
00010000
00000000
00000000
00010000
00000000
,  // measure 23
00001000
00000000
00000000
00000000
00001000
00000000
00000000
00000000
01000000
00000000
00000000
01000000
00000000
00000000
01000000
00000000
,  // measure 24
00010000
00000000
00100000
01000000
20000000
00000000
30000000
01000000
,  // measure 25
01100000
00000000
00000000
00000000
00110000
00000000
00000000
00000000
00001000
00000000
00000000
00010000
00000000
00000000
00000100
00000000
,  // measure 26
00000110
00000000
00000000
00000000
00000011
00000000
00000000
00000000
00001000
00000000
00000000
00000001
00000000
00000000
00000100
00000000
,  // measure 27
00000110
00000000
00000000
00000000
00001010
00000000
00000000
00000000
00010000
00000000
00000000
00001000
00000000
00000000
00100000
00000000
,  // measure 28
02200000
00000000
03300000
10000000
,  // measure 29
11000000
00000000
00100000
00001000
00000100
00000000
00000010
00010000
,  // measure 30
01000000
00000000
00100000
00001000
00000200
00000000
00010300
00000000
,  // measure 31
00000100
00000000
00000010
00010000
01000000
00000000
00100000
00001000
,  // measure 32
00000100
00000000
00000000
00000000
00000010
00000000
00010000
00000000
01000000
00000000
00000000
01000000
00100000
00000000
00001000
00000000
,  // measure 33
00000100
00000000
00000010
00010000
01000000
00000000
00100000
00001000
,  // measure 34
00000100
00000000
00000010
00010000
02000000
00000000
03001000
00000000
,  // measure 35
01000000
00000000
00100000
00001000
00000100
00000000
00000010
00010000
,  // measure 36
01000000
00000000
00000000
00000000
00100000
00000000
00001000
00000000
00000100
00000000
00000000
00000100
00000010
00000000
00001000
00000000
,  // measure 37
00002002
00000000
00000000
00000000
00003003
00000000
00000001
00000010
,  // measure 38
00001100
00000000
00011000
00001000
00100000
00010000
01000000
00100000
,  // measure 39
10000000
01000000
10000000
00100000
01000000
00010000
00100000
00001000
,  // measure 40
00010000
00000000
00000000
00010000
00000100
00000000
00001000
00000000
00000020
00000000
00000000
00000000
00010030
00000000
00001000
00000000
,  // measure 41
00110000
00000000
10010000
00000000
10000000
00100000
01000000
00010000
,  // measure 42
00110000
00000000
00011000
00010000
00000100
00001000
00000010
00000100
,  // measure 43
00000001
00000010
00000001
00000100
00000010
00001000
00000100
00010000
,  // measure 44
01000000
00000000
00000000
01000000
00100000
00000000
00001000
00000000
00000100
00000000
00000000
00000100
00000010
00000000
00010000
00000000
,  // measure 45
02000000
00000000
00000000
03000000
00000000
00000000
00000000
00000000
;
