#TITLE:Unknown Future;
#SUBTITLE:;
#ARTIST:9646 vs. 黒白;
#TITLETRANSLIT:;
#SUBTITLETRANSLIT:;
#ARTISTTRANSLIT:9646 vs. Kuroshiro;
#GENRE:Originals;
#CREDIT:;
#BANNER:Unknown Future.png;
#BACKGROUND:Unknown Future-bg.png;
#LYRICSPATH:;
#CDTITLE:../cdtitle.png;
#MUSIC:Unknown Future.ogg;
#OFFSET:-0.005000;
#SAMPLESTART:33.230000;
#SAMPLELENGTH:15.000000;
#SELECTABLE:YES;
#DISPLAYBPM:130.000000;
#BPMS:0.000000=130.000000
,64.000000=520.000000
,72.000000=260.000000
,74.000000=130.000000
,75.000000=32.500000
,75.500000=130.000000
,169.000000=520.000000
,177.000000=260.000000
,179.000000=130.000000
,180.000000=32.500000
,180.500000=130.000000
,242.000000=520.000000
,250.000000=260.000000
,252.000000=130.000000
,253.000000=32.500000
,253.500000=130.000000
;
#STOPS:75.500000=0.231000,
180.500000=0.231000,
253.500000=0.231000
;
#BGCHANGES:-99.000=../bg.avi=1.000=0=0=1=====,
99999=-nosongbg-=1.000=0=0=0 // don't automatically add -songbackground-
;
#KEYSOUNDS:;
#ATTACKS:;

//---------------dance-single - ----------------
#NOTES:
     dance-single:
     :
     Beginner:
     2:
     0.078629,0.139240,0.034946,0.000000,0.000000,63.000000,59.000000,4.000000,0.000000,0.000000,0.000000,0.078629,0.139240,0.034946,0.000000,0.000000,63.000000,59.000000,4.000000,0.000000,0.000000,0.000000:
0000
0000
0000
0000
,
0000
0000
0000
0000
,
0000
0000
0000
0000
,
0000
0000
0000
0000
,
0000
0000
0000
0000
,
1000
0000
0000
0000
,
1000
0000
0000
0000
,
0001
0000
0000
0000
,
0001
0000
0000
0000
,
1000
0000
0000
0000
,
0010
0000
0000
0000
,
0001
0000
0000
0000
,
0100
0000
0100
0000
,
1000
0000
0000
0000
,
0100
0000
0000
0000
,
0001
0000
0000
0000
,
0110
0000
0000
0000
,
0000
0000
0000
0000
,
0000
0000
0000
0000
,
0000
0001
0000
0000
,
0000
0100
0000
0000
,
0000
1000
0000
0000
,
0000
0010
0000
0010
,
0000
0001
0000
0000
,
0000
0010
0000
0000
,
0000
1000
0000
0000
,
0000
0100
0000
0100
,
0000
0001
0000
0000
,
0000
0001
0000
0000
,
0000
1000
0000
0000
,
0000
1000
0000
0000
,
0000
0001
0000
0000
,
0000
0010
0000
0000
,
0000
0100
0000
0000
,
0000
1000
0000
0000
,
0000
0001
0000
0000
,
0000
0000
0000
0000
,
0000
0001
0000
0000
,
0000
0000
0000
0000
,
0000
1000
0000
0000
,
0000
1000
0000
0000
,
0000
0001
0000
0000
,
0000
0110
0000
0000
,
0000
0000
0000
0000
,
0000
0000
0000
0000
,
0000
0000
1001
0000
,
0000
0000
1000
0000
,
1000
0000
0010
0000
,
0000
0000
0001
0000
,
0001
0000
1000
0000
,
0000
0000
0001
0000
,
0001
0000
0100
0000
,
0000
0000
1000
0000
,
1000
0000
0001
0000
,
0000
0000
0010
0000
,
0000
0000
1000
0000
,
0000
0000
0100
0000
,
0100
0000
0001
0000
,
0000
0000
0100
0000
,
0000
0000
1000
0000
,
0000
0000
0110
0000
,
0000
0000
0000
0000
,
0000
0000
0000
0000
,
0000
0000
0000
0001
;

//---------------dance-single - ----------------
#NOTES:
     dance-single:
     :
     Challenge:
     14:
     0.559142,0.668350,0.297044,0.279571,0.532933,448.000000,414.000000,34.000000,32.000000,12.000000,0.000000,0.559142,0.668350,0.297044,0.279571,0.532933,448.000000,414.000000,34.000000,32.000000,12.000000,0.000000:
0000
0000
0000
0000
,
0000
0000
0000
0000
,
0000
0000
0000
0000
,
0000
0000
0000
0000
,
0000
0000
0000
0000
,
1000
0000
0001
0000
0100
0000
0000
0010
0000
0010
0000
0100
0001
1000
0010
0000
,
0100
0000
0001
0000
1000
0000
0000
0100
0000
0100
0000
0010
0001
1000
0100
0000
,
1000
0000
0010
0000
0100
0000
0000
0001
0000
0001
0000
0100
0010
1000
0001
0000
,
0100
0000
0001
0000
0010
0000
0000
0100
0000
0100
0000
1000
0001
0000
0010
0000
,
0110
0000
1000
0100
0000
1000
0001
0000
0100
0000
0000
0000
1010
0000
0000
0000
,
0200
0000
0301
1000
0020
0000
0130
0000
,
0010
0000
1000
0010
0000
0100
0001
0000
0010
0000
0000
0000
1100
0000
0000
0000
,
0100
0100
0100
0100
,
0010
0000
0001
0100
0000
0001
1000
0000
0100
0000
0000
0000
0011
0000
0000
0000
,
0200
0000
1300
0001
0020
0000
0130
0000
,
0010
0000
0001
0010
0000
0100
1000
0000
0010
0000
0000
0000
0101
0000
0000
0000
,
2200
0000
0000
0000
,
0000
0000
0000
0000
,
0000
0000
0000
0000
0000
0000
0000
0000
0000
0000
0000
0000
0000
0000
0000
0000
0000
0000
0000
0000
0000
0000
0000
0000
0000
0000
0000
3300
MMMM
0000
1000
0000
,
0010
0000
0010
0000
0110
0000
0100
0010
0000
1000
0001
0000
0100
0000
0001
0000
,
1001
0001
0021
0000
0130
1000
2100
0000
,
3001
0000
0000
0000
0010
0000
0100
1000
0000
0001
0010
0000
0100
0000
0010
0000
,
0110
0001
0200
0310
0200
1300
0200
0301
,
0200
0000
0310
0000
1000
0000
0100
0010
0000
0001
1000
0000
0100
0000
1000
0000
,
1001
1000
1020
0000
0130
0001
0102
0000
,
1003
0000
0000
0000
0010
0000
0100
0001
0000
1000
0010
0000
0100
0000
0010
0000
,
0110
1000
0200
0310
0200
0301
0200
1300
,
0200
0000
0310
0000
0001
0100
0001
0000
1000
0000
0100
0010
0000
0100
0010
0000
,
0100
1000
0001
0010
0000
0100
0000
0010
0100
0000
0010
0100
0000
0010
0100
0000
,
1000
0000
0001
0000
0100
0010
0100
0000
0001
0010
0000
1000
0010
0000
0001
0100
,
0010
1000
0001
0010
0000
0100
0000
0010
0100
0000
1000
0100
0000
1000
0100
0000
,
1000
0000
0001
0000
1000
0100
1000
0000
0001
0000
0100
0010
0000
0100
0010
0000
,
0100
0001
1000
0010
0000
0100
0000
0010
0100
0000
0010
0100
0000
0010
0100
0000
,
0001
0000
1000
0000
0010
0100
0010
0000
1000
0100
0000
0001
0100
0000
1000
0010
,
0100
0001
1000
0100
0000
0010
0000
0100
0010
0000
0001
0010
0000
0001
0010
0000
,
0001
1000
0002
0000
0100
0000
0100
0000
,
1000
0100
0010
1000
,
0010
2003
0100
0100
,
0001
0100
0010
0001
,
0010
0000
3001
0000
0101
0000
1000
0100
,
0101
0000
1000
0000
1100
0000
0001
0100
,
1100
0000
0000
0000
1000
0000
0100
0010
0100
0000
0000
0001
0000
0001
1000
0000
,
0010
0100
0010
0000
2002
0000
0000
0000
0000
0000
0000
0000
0000
0000
0000
0000
,
0000
0000
0000
0000
,
0000
0000
0000
0000
,
0000
0000
0000
3003
MMMM
0000
0100
0000
0010
0000
0000
0000
0010
0000
0000
0000
0110
0000
0000
0000
0100
0000
0000
0000
1001
0000
0000
0000
0001
0000
0100
0000
,
0000
0010
1000
0100
0010
0100
1000
0001
0000
0010
0000
0100
1000
0000
0100
1000
,
0000
0100
1000
0000
0001
0000
0100
0000
0010
0100
0010
0000
0100
0001
0000
0100
,
0010
0000
0100
0001
0010
0100
0010
0001
0000
0100
0000
0010
0100
0000
0010
1000
,
0000
0010
1000
0000
0100
0000
0010
0000
0100
0000
0100
0000
1001
0000
1000
0100
,
0000
0010
0001
0100
0010
0100
0001
1000
0000
0010
0000
0100
0001
0000
0100
0001
,
0000
0100
0001
0000
1000
0000
0100
0000
0010
0100
0010
0000
0100
1000
0000
0100
,
0010
0000
0100
1000
0010
0100
0001
0010
0000
1000
0000
0010
0100
0000
0010
0001
,
0000
0010
0001
0000
1000
0000
0001
0000
1001
0000
1000
0100
0000
0001
0100
0000
,
1000
0001
1001
0100
0102
0000
0013
0100
,
2100
0000
0000
0000
3010
0000
0000
0000
0100
0000
0010
1000
0000
0010
1000
0000
,
0100
0010
0110
0001
2000
3100
0002
0103
,
2000
0000
3010
0000
0002
0000
0013
0000
1000
0000
0001
0010
0000
1000
0010
0000
,
0001
1000
1001
0010
2010
0000
3100
0010
,
0012
0000
0000
0000
0103
0000
0000
0000
0010
0000
0100
0001
0000
0100
0001
0000
,
0010
0100
0110
1000
2002
0000
0000
0000
,
0000
0000
0000
0000
,
0000
0000
0000
0000
,
0000
0000
0000
0000
0000
0000
0000
0000
0000
0000
0000
3003
MMMM
0000
0100
0000
0010
0000
0000
0000
0010
0000
0000
0000
1001
0000
0000
0000
0000
0000
0000
0000
;

//---------------dance-single - ----------------
#NOTES:
     dance-single:
     :
     Hard:
     10:
     0.398139,0.473415,0.262098,0.209678,0.139786,319.000000,289.000000,30.000000,24.000000,0.000000,0.000000,0.398139,0.473415,0.262098,0.209678,0.139786,319.000000,289.000000,30.000000,24.000000,0.000000,0.000000:
// measure 0
0000
0000
0000
0000
,  // measure 1
0000
0000
0000
0000
,  // measure 2
0000
0000
0000
0000
,  // measure 3
0000
0000
0000
0000
,  // measure 4
0000
0000
0000
0000
,  // measure 5
1000
0100
0001
0000
0001
0100
1000
0000
,  // measure 6
0001
0010
1000
0000
1000
0010
0001
0000
,  // measure 7
1000
0010
0001
0000
0001
0010
1000
0000
,  // measure 8
0001
0010
0100
0000
0100
1000
0001
1000
,  // measure 9
1100
0100
0001
0000
0100
0000
1001
0000
,  // measure 10
1020
0000
0130
0001
0020
0000
0130
0000
,  // measure 11
0010
0001
0100
0000
1000
0000
0110
0000
,  // measure 12
0100
0100
0010
0100
,  // measure 13
1010
0010
0001
0000
0010
0000
1001
0000
,  // measure 14
1200
0000
0310
0001
0200
0000
0310
0000
,  // measure 15
0100
0001
0010
0000
1000
0000
0110
0000
,  // measure 16
2002
0000
0000
0000
,  // measure 17
0000
0000
0000
0000
,  // measure 18
0000
0000
0000
0000
0000
0000
0000
0000
0000
0000
0000
0000
0000
0000
3003
0100
,  // measure 19
0010
0100
1001
0100
0010
0000
0100
0000
,  // measure 20
0101
0000
2100
0000
3010
0001
0020
0000
,  // measure 21
1030
0000
0100
0001
0100
0000
1000
0000
,  // measure 22
0101
0100
0010
1000
,  // measure 23
0001
0000
1000
0100
0010
0000
0100
0000
,  // measure 24
1100
0000
0102
0000
0013
1000
0020
0000
,  // measure 25
0031
0000
0100
1000
0100
0000
0001
0000
,  // measure 26
1100
0100
0010
0001
,  // measure 27
1000
0000
0000
0000
0100
0000
0001
0000
1000
0000
0000
1000
0000
0000
1000
0000
,  // measure 28
0010
0000
0001
0000
1000
0010
0000
0000
0010
0000
0000
0010
0000
0000
0010
0000
,  // measure 29
0100
0000
0010
0000
0100
0000
0001
0000
0010
0000
0000
0010
0000
0000
0100
0000
,  // measure 30
1000
0000
0001
0000
0010
0100
0000
0000
0100
0000
0000
0100
0000
0000
0100
0000
,  // measure 31
0010
0000
0100
0000
1000
0000
0001
0000
0010
0000
0000
1000
0000
0000
1000
0000
,  // measure 32
0010
0000
0001
0000
1000
0001
0000
0000
0001
0000
0000
0001
0000
0000
0001
0000
,  // measure 33
0100
0000
0001
0000
1000
0000
0100
0000
0010
0000
0000
0010
0000
0000
0100
0000
,  // measure 34
0001
0000
0100
1000
0000
0010
0000
0000
0010
0000
0000
0010
0000
0000
0010
0000
,  // measure 35
0001
0010
2000
0000
0100
0000
0001
0000
,  // measure 36
0100
0010
0100
3002
,  // measure 37
0100
0023
1000
0100
,  // measure 38
1000
0001
1000
0230
,  // measure 39
0001
0000
2300
0000
0100
0000
3001
0100
,  // measure 40
0110
0000
0002
0000
0100
0000
1003
0100
,  // measure 41
0110
0000
0100
1000
0010
0000
0010
0100
,  // measure 42
0001
0010
0220
0000
0000
0000
0000
0000
,  // measure 43
0000
0000
0000
0000
,  // measure 44
0000
0000
0000
0000
,  // measure 45
0000
0000
0330
1000
0001
0000
0001
0000
0110
0000
0100
0000
0001
0000
0000
1000
,  // measure 46
0000
0000
1000
0000
0010
0000
0100
0001
0000
1000
0000
0000
1000
0000
0000
1000
,  // measure 47
0000
0000
1000
0000
0100
0000
1000
0000
0001
0000
0010
0000
0100
0000
0000
0100
,  // measure 48
0000
0000
0100
0000
0001
0000
0100
1000
0000
0001
0000
0000
0001
0000
0000
0001
,  // measure 49
0000
0000
0001
0000
1000
0000
0001
0000
0100
0000
0010
0000
1000
0000
0000
0100
,  // measure 50
0000
0000
0100
0000
0010
0000
0001
0010
0000
0100
0000
0000
0100
0000
0000
0100
,  // measure 51
0000
0000
0100
0000
1000
0000
0001
0000
0001
0000
0100
0000
0010
0000
0000
1000
,  // measure 52
0000
0000
1000
0000
0100
0000
0010
0001
0000
0010
0000
0000
0110
0000
0000
0100
,  // measure 53
0000
0100
1000
0001
1001
0010
0100
0000
,  // measure 54
0010
0000
0011
0000
2010
0000
3100
0001
,  // measure 55
0200
0000
1300
0000
0010
0001
0010
0000
,  // measure 56
1000
0011
0010
0100
,  // measure 57
1000
0000
0001
0000
1000
0010
0100
0000
,  // measure 58
0010
0000
1010
0000
0012
0000
0103
1000
,  // measure 59
0200
0000
0301
0000
0010
1000
0010
0000
,  // measure 60
0001
1010
0220
0000
,  // measure 61
0000
0000
0000
0000
,  // measure 62
0000
0000
0000
0000
,  // measure 63
0000
0000
0000
0000
0000
0000
0330
1000
0001
0000
1000
0000
1001
0000
0000
0000
;

//---------------dance-single - ----------------
#NOTES:
     dance-single:
     :
     Medium:
     8:
     0.324502,0.389871,0.244625,0.174732,0.000000,260.000000,232.000000,28.000000,20.000000,0.000000,0.000000,0.324502,0.389871,0.244625,0.174732,0.000000,260.000000,232.000000,28.000000,20.000000,0.000000,0.000000:
0000
0000
0000
0000
,
0000
0000
0000
0000
,
0000
0000
0000
0000
,
0000
0000
0000
0000
,
0000
0000
0000
0000
,
1000
0000
0100
0000
0001
0010
1000
0000
,
0100
0000
0001
0000
0010
1000
0100
0000
,
0001
0000
0100
0000
1000
0010
0001
0000
,
0100
1000
0010
0110
,
1000
0100
1000
0000
0010
0000
0011
0000
,
2000
3100
0002
0013
,
0100
0100
0010
1100
,
0001
0100
0001
0100
,
0010
1000
0010
0000
1000
0000
1100
0000
,
0002
0013
2000
3100
,
0010
0010
0100
0011
,
2002
0000
0000
0000
,
0000
0000
0000
0000
,
0000
0000
0000
0000
0000
0000
0000
3003
,
0100
0000
1001
0000
0001
0000
1000
0100
,
1000
2000
3010
2000
,
3001
0000
0001
0100
0001
0000
0010
0000
,
0110
0100
1000
0100
,
1000
0000
0001
0000
1000
0000
0001
0100
,
0001
0002
0013
0002
,
1003
0000
1000
0100
1000
0000
0010
0000
,
0110
0100
0001
0100
,
0001
0000
1000
0100
0010
0000
0010
0100
,
1000
0001
0001
0001
,
0101
0000
0001
0100
0010
0000
0010
0100
,
0001
1000
1000
1000
,
1100
0000
0001
0010
0100
0000
0100
0010
,
0001
1000
1000
1000
,
1010
0000
1000
0010
0100
0000
0100
0010
,
1000
0001
0001
0001
,
0011
0200
0010
0000
,
0010
0000
0010
0000
,
0010
2300
0001
0000
,
0001
0000
0001
0000
,
0001
3001
0101
1000
,
1100
0010
0110
1000
,
1001
0000
0001
0100
0010
0000
1000
0100
,
0001
0220
0000
0000
,
0000
0000
0000
0000
,
0000
0000
0000
0000
,
0000
0330
0100
0000
1001
0000
0010
0000
,
0100
1000
0010
0000
0100
0000
0100
0000
,
0100
0010
1100
0000
0001
0100
0001
0000
,
0010
0100
0010
0000
0001
0000
0001
0000
,
0001
0010
1001
0000
0001
0100
0010
0000
,
0100
0001
0010
0000
0100
0000
0100
0000
,
0100
0010
0101
0000
1000
0100
1000
0000
,
0010
0100
0001
0000
0010
0000
0010
0000
,
0010
0100
1100
0000
0001
0100
0001
0000
,
0010
1010
0002
0103
,
2000
0000
3010
0000
0100
0010
0100
0000
,
0010
0101
1000
0100
,
1000
0000
0100
0000
0010
0001
0010
0000
,
0001
0101
2000
3010
,
0002
0000
0103
0000
0010
0100
0010
0000
,
0100
1010
0202
0000
,
0000
0000
0000
0000
,
0000
0000
0000
0000
,
0000
0000
0000
0303
0010
1000
0100
0000
;

//---------------dance-single - ----------------
#NOTES:
     dance-single:
     :
     Easy:
     6:
     0.245873,0.334175,0.192205,0.279571,0.000000,197.000000,175.000000,22.000000,32.000000,0.000000,0.000000,0.245873,0.334175,0.192205,0.279571,0.000000,197.000000,175.000000,22.000000,32.000000,0.000000,0.000000:
0000
0000
0000
0000
,
0000
0000
0000
0000
,
0000
0000
0000
0000
,
0000
0000
0000
0000
,
0000
0000
0000
0000
,
1000
0100
0001
0011
,
0001
0100
1000
1010
,
0100
0001
0010
1010
,
0010
0001
0100
0100
,
1001
0100
1000
0001
,
0020
0030
0200
0300
,
1000
1000
0010
0110
,
0001
0010
0100
1000
,
1001
0100
0001
1000
,
0020
0030
0200
0300
,
0001
0001
0010
0110
,
2002
0000
0000
0000
,
0000
0000
0000
0000
,
0000
0000
0000
0000
0000
0000
0000
3003
,
0100
1001
0010
0001
,
1000
0200
0300
0020
,
0030
0001
0001
0100
,
0110
1000
0100
0010
,
0001
1001
0010
1000
,
0001
0200
0300
0020
,
0030
1000
1000
0100
,
0110
0001
0100
0010
,
1000
0100
0010
1000
,
0001
0200
0010
0000
,
0310
0001
1000
0010
,
0100
2000
0001
0000
,
3001
0010
0100
0001
,
1000
0200
0010
0000
,
0310
1000
0001
0100
,
0010
0002
1000
0000
,
1003
2000
0000
0000
,
0000
0000
0000
0200
,
0300
3020
0000
0000
,
0000
0000
0000
0230
,
0000
0302
0010
0000
,
0010
0000
0010
0200
,
0300
2003
0100
0000
,
3001
0220
0000
0000
,
0000
0000
0000
0000
,
0000
0000
0000
0000
,
0000
0330
0100
0000
1001
0000
0001
0000
,
1000
1000
0002
0100
,
1000
0013
0100
1000
,
0001
0010
0200
0001
,
0010
1300
0001
0101
,
1000
1100
0010
0100
,
0100
0010
1000
0100
,
0001
0100
0020
1000
,
0001
0130
1001
0010
,
0001
1000
0200
0310
,
0020
0130
0001
0001
,
0100
0110
1000
0100
,
0010
0001
1001
0010
,
1000
0001
0200
0310
,
0020
0130
1000
1000
,
0100
0110
2002
0000
,
0000
0000
0000
0000
,
0000
0000
0000
0000
,
0000
0000
0000
3003
0010
0000
0110
0000
;

//---------------dance-double - ----------------
#NOTES:
     dance-double:
     :
     Challenge:
     14:
     0.550406,0.668350,0.401884,0.227152,0.480513,441.000000,395.000000,46.000000,26.000000,24.000000,0.000000,0.550406,0.668350,0.401884,0.227152,0.480513,441.000000,395.000000,46.000000,26.000000,24.000000,0.000000:
00000000
00000000
00000000
00000000
,
00000000
00000000
00000000
00000000
,
00000000
00000000
00000000
00000000
,
00000000
00000000
00000000
00000000
,
00000000
00000000
00000000
00000000
,
00010000
00000000
00001000
00000000
00011000
00000000
00100000
00010000
00000000
00010000
00000000
10000000
01000000
00100000
00010000
00000000
,
10000000
00000000
00100000
00000000
01100000
00000000
00010000
00001000
00000000
00001000
00000000
00010000
00001000
00000010
00000001
00000000
,
00000010
00000000
00000100
00000000
00000110
00000000
00001000
00000001
00000000
00000001
00000000
00000100
00000010
00001000
00000100
00000000
,
00010000
00000000
00001000
00000000
00011000
00000000
00100000
00010000
00000000
00010000
00000000
01000000
00100000
00000000
10000000
00000000
,
10010000
00000000
10000000
01000000
00000000
10000000
01000000
00000000
00100000
00000000
00010000
00000000
00011000
00000000
00000000
00000000
,
00001200
00000000
00000310
00000001
00000201
00000000
00000310
00000000
,
00001000
00000000
00000001
00000010
00000000
00000100
00000010
00000000
00000100
00000000
00001000
00000000
00001001
00000000
00000000
00000000
,
00000001
00000100
00001000
00010000
,
00011000
00000000
00010000
00001000
00000000
00100000
00010000
00000000
10000000
00000000
01000000
00000000
01100000
00000000
00000000
00000000
,
00120000
00000000
01030000
00100000
20100000
00000000
31000000
00000000
,
00100000
00000000
01000000
00010000
00000000
01000000
00010000
00000000
00001000
00000000
00000100
00000000
00000110
00000000
00000000
00000000
,
00000202
00000000
00000000
00000000
,
00000000
00000000
00000000
00000000
,
00000000
00000000
00000000
00000000
00000000
00000000
00000000
00000000
00000000
00000000
00000000
00000000
00000000
00000000
00000000
00000000
00000000
00000000
00000000
00000000
00000000
00000000
00000000
00000000
00000000
00000000
00000000
00000303
MMMMMMMM
00000000
00001000
00000000
,
00000100
00000000
00000010
00000000
00001001
00000000
00000001
00000010
00000000
00000001
00000010
00000000
00000100
00000000
00001000
00000000
,
00011000
00000000
00210000
00000000
01300000
10000000
10200000
00000000
,
01300000
00000000
00000000
00000000
00010000
00000000
10000000
01000000
00000000
00100000
01000000
00000000
00100000
00000000
01000000
00000000
,
10010000
10000000
00100000
00010000
,
00001000
00000000
00000000
00000000
00011000
00000000
00001000
00010000
00000000
00000100
00001000
00000000
00000001
00000000
00000010
00000000
,
00000110
00000000
00002100
00000000
00003010
00000100
00000102
00000000
,
00000013
00000000
00000000
00000000
00000100
00000000
00000010
00001000
00000000
00000010
00001000
00000000
00010000
00000000
00100000
00000000
,
10010000
01000000
00010000
00001000
,
00000100
00000000
00000000
00000000
00001001
00000000
00001000
00000000
00000010
00000000
00000100
00000001
00000000
00000100
00000010
00000000
,
00001000
00000000
00000001
00000010
00000000
00000100
00000000
00001000
00000100
00000000
00001000
00000100
00000000
00010000
00001000
00000000
,
00010000
00000000
00001000
00000000
00100000
01000000
00100000
00000000
00010000
00100000
00000000
01000000
10000000
00000000
00010000
00000000
,
10000000
01000000
00100000
00010000
00000000
01000000
00000000
00100000
00010000
00000000
00100000
00010000
00000000
00001000
00010000
00000000
,
00001000
00000000
00010000
00000000
00001000
00000000
00100000
00000000
00110000
00000000
01000000
10000000
00000000
01000000
00100000
00000000
,
00010000
00000000
10000000
00100000
00000000
01000000
00000000
00010000
01000000
00000000
00010000
01000000
00000000
00001000
00010000
00000000
,
00001000
00000000
00010000
00000000
00000010
00000100
00000010
00000000
00001000
00000010
00000000
00000100
00000001
00000000
00001000
00000000
,
00000001
00000100
00000010
00001000
00000000
00000100
00000000
00000010
00001000
00000000
00000010
00001000
00000000
00010000
00001000
00000000
,
00010000
00001000
00200000
00000000
01000000
00000000
10000000
00000000
,
00010000
00302000
00000100
00010000
,
00000010
00023000
01000000
00001000
,
00100000
00030020
00000100
00000001
,
00001000
00000000
00010030
00000000
00011000
00000000
01000000
10000000
,
10100000
00000000
00010000
00000000
00011000
00000000
00000100
00000001
,
00000011
00000000
00000000
00000000
00000100
00000000
00001000
00000010
00000100
00000000
00000000
00001000
00000000
00010000
00001000
00000000
,
01000000
00010000
00100000
00000000
02200000
00000000
00000000
00000000
00000000
00000000
00000000
00000000
00000000
00000000
00000000
00000000
,
00000000
00000000
00000000
00000000
,
00000000
00000000
00000000
00000000
,
00000000
00000000
00000000
03300000
MMMMMMMM
00000000
10000000
00000000
00010000
00000000
00000000
00000000
10000000
00000000
00000000
00000000
11000000
00000000
00000000
00000000
00010000
00000000
00000000
00000000
01000000
00000000
00000000
00000000
00100000
00000000
10000000
00000000
,
00000000
00100000
01000000
00000000
00010000
00000000
10000000
01000000
00000000
00100000
00000000
00010000
00100000
00000000
00001000
00010000
,
00000000
00000010
00001000
00000000
00000001
00000000
00000010
00000000
00000100
00000010
00000100
00000000
00001000
00000100
00000000
00000010
,
00000001
00000000
00001000
00000000
00000001
00000010
00000100
00001000
00000000
00000010
00000000
00000100
00001000
00000000
00000100
00001000
,
00000000
00010000
00001000
00000000
00010000
00000000
00000010
00000000
00001000
00000000
00000100
00000000
00001100
00000000
00000010
00000001
,
00000000
00000010
00000100
00000000
00001000
00000000
00000001
00000100
00000000
00000010
00000000
00001000
00000100
00000000
00010000
00001000
,
00000000
01000000
00010000
00000000
10000000
00000000
00100000
00000000
01000000
00100000
01000000
00000000
00010000
00100000
00000000
01000000
,
10000000
00000000
00010000
00000000
10000000
01000000
00010000
01000000
00000000
00100000
00000000
00001000
00010000
00000000
00000100
00001000
,
00000000
00000001
00000100
00000000
00000010
00000000
00001000
00000000
00001001
00000000
00000001
00000100
00000000
00000001
00000100
00000000
,
00000010
00001000
00011000
00000000
02010000
00000000
03100000
10000000
,
12000000
00000000
00000000
00000000
03100000
00000000
00000000
00000000
00010000
00000000
10000000
00100000
00000000
01000000
00100000
00000000
,
01000000
00010000
01010000
00010000
20000000
31000000
00020000
01030000
,
20000000
00000000
30100000
00000000
00020000
00000000
00031000
00000000
00011000
00000000
00001000
00010000
00000000
00000010
00001000
00000000
,
00000001
00000100
00000110
00000000
00002010
00000000
00003100
00000010
,
00000012
00000000
00000000
00000000
00000103
00000000
00000000
00000000
00000010
00000000
00000100
00001000
00000000
00000100
00001000
00000000
,
00010000
01000000
01100000
00000000
22000000
00000000
00000000
00000000
,
00000000
00000000
00000000
00000000
,
00000000
00000000
00000000
00000000
,
00000000
00000000
00000000
00000000
00000000
00000000
00000000
00000000
00000000
00000000
00000000
33000000
MMMMMMMM
00000000
00010000
00000000
01000000
00000000
00000000
00000000
00001000
00000000
00000000
00000000
00011000
00000000
00000000
00000000
00000000
00000000
00000000
00000000
;

//---------------dance-double - ----------------
#NOTES:
     dance-double:
     :
     Hard:
     11:
     0.405628,0.529110,0.218415,0.174732,0.187837,325.000000,300.000000,25.000000,20.000000,0.000000,0.000000,0.405628,0.529110,0.218415,0.174732,0.187837,325.000000,300.000000,25.000000,20.000000,0.000000,0.000000:
00000000
00000000
00000000
00000000
,
00000000
00000000
00000000
00000000
,
00000000
00000000
00000000
00000000
,
00000000
00000000
00000000
00000000
,
00000000
00000000
00000000
00000000
,
00010000
01000000
10000000
00000000
10000000
01000000
00010000
00000000
,
00001000
00000010
00000001
00000000
00000001
00000010
00001000
00000000
,
00010000
00100000
10000000
00000000
10000000
00100000
00010000
00000000
,
00001000
00000100
00000010
00000000
00001000
00000100
00000010
00000001
,
00001001
00000001
00000010
00000000
00000100
00000000
00011000
00000000
,
00000020
00001030
00200000
00310000
,
00001000
00010000
01000000
00000000
00100000
00000000
11000000
00000000
,
00100000
00010000
00001000
00000100
,
00000001
00001000
00000010
00000000
00001000
00000000
00011000
00000000
,
02000000
03010000
00000200
00001300
,
00010000
00001000
00000010
00000000
00000100
00000000
00001001
00000000
,
00022000
00000000
00000000
00000000
,
00000000
00000000
00000000
00000000
,
00000000
00000000
00000000
00000000
00000000
00000000
00000000
00000000
00000000
00000000
00000000
00000000
00000000
00000000
00033000
01000000
,
00010000
10000000
10010000
10000000
00100000
00000000
01000000
00000000
,
00011000
00200000
00310000
00000020
,
00001030
00000000
00010000
00001000
00000100
00000000
00000010
00000000
,
00000101
00000010
00001000
00010000
,
01000000
00000000
10000000
00010000
00100000
00000000
00010000
00000000
,
00011000
00000200
00001300
02000000
,
03010000
00000000
00001000
00010000
00100000
00000000
01000000
00000000
,
10010000
01000000
00010000
00001000
,
00000010
00000000
00000000
00000000
00000001
00000000
00001000
00000000
00000010
00000000
00000100
00000010
00000000
00000010
00001000
00000000
,
00000001
00000000
00000010
00000100
00000000
00001000
00000000
00000000
00010000
00000000
00000000
00100000
00000000
00000000
01000000
00000000
,
00100000
00000000
00010000
00000000
10000000
00000000
01000000
00000000
00100000
00010000
00000000
10000000
01000000
00000000
10000000
00000000
,
00100000
00000000
01000000
00100000
00000000
00010000
00000000
00000000
00001000
00000000
00000000
00000100
00000000
00000000
00000010
00000000
,
00001000
00000000
00000100
00000000
00000010
00000000
00000100
00000000
00001000
00000000
00000001
00000010
00000000
00000001
00000010
00000000
,
00000100
00000000
00010000
00001000
00000000
00100000
00000000
00000000
00010000
00000000
00000000
00001000
00000000
00000000
00010000
00000000
,
00100000
00000000
00001000
00000000
00010000
00000000
01000000
00000000
10000000
01000000
00000000
00100000
00010000
00000000
01000000
00000000
,
00100000
00000000
10000000
00010000
00000000
00100000
00000000
00000000
01100000
00000000
00000000
01000000
00000000
00000000
10000000
00000000
,
01000000
00010000
00002000
00000000
00000100
00000000
00010000
00000000
,
00010000
00100000
00010000
01000000
,
00010000
00023000
01000000
00001000
,
00001000
00000010
00001000
00000100
,
00001000
00000000
00030010
00000000
00000101
00000000
00000100
00001000
,
00010000
00000000
00100000
00000000
11000000
00000000
01000000
00010000
,
00001000
00000000
00001000
00000100
00000010
00000000
00010000
00100000
,
01000000
20020000
00000000
00000000
,
00000000
00000000
00000000
00000000
,
00000000
00000000
00000000
00000000
,
00000000
00000000
30030000
01000000
00100000
00000000
10000000
00000000
11000000
00000000
00010000
00000000
01000000
00000000
00100000
01000000
,
00000000
01000000
00010000
00000000
10000000
00000000
01000000
00100000
00000000
00010000
00000000
00000000
00001000
00000000
00000000
00000100
,
00000000
00000000
00000010
00000000
00000100
00000000
00001000
00000000
00000001
00000000
00000010
00000000
00000100
00001000
00000000
00000001
,
00000010
00000000
00000001
00000000
00000100
00000000
00000010
00000100
00000000
00001000
00000000
00000000
00010000
00000000
00000000
00100000
,
00000000
00000000
01000000
00000000
00010000
00000000
00100000
00000000
01000000
00000000
00100000
00000000
00010000
00000000
10000000
01000000
,
00000000
10000000
01000000
00000000
00100000
00000000
00001000
00010000
00000000
00000100
00000000
00000000
00001000
00000000
00000000
00010000
,
00000000
00000000
00001000
00000000
00000100
00000000
00010000
00000000
00001000
00000000
00000010
00000000
00000001
00000010
00000000
00000100
,
00001000
00000000
00000010
00000000
00000100
00000000
00000001
00001000
00000000
00000100
00000000
00000000
00000110
00000000
00000000
00000010
,
00000000
00000001
00000010
00001000
00011000
00010000
00001000
00000000
,
00000010
00000000
00001001
00000000
00000020
00000000
00001030
00010000
,
00200000
00000000
00310000
00000000
00001000
00010000
01000000
00000000
,
00100000
11000000
00100000
00010000
,
00001000
00000000
00000100
00000000
00011000
00010000
01000000
00000000
,
00100000
00000000
10010000
00000000
02000000
00000000
03010000
00001000
,
00000200
00000000
00001300
00000000
00010000
00001000
00000010
00000000
,
00000100
00001001
00022000
00000000
,
00000000
00000000
00000000
00000000
,
00000000
00000000
00000000
00000000
,
00000000
00000000
00000000
00000000
00000000
00000000
00033000
00010000
00001000
00000000
00010000
00000000
00011000
00000000
00000000
00000000
;

//---------------dance-double - ----------------
#NOTES:
     dance-double:
     :
     Medium:
     8:
     0.325750,0.389871,0.262098,0.227152,0.000000,261.000000,231.000000,30.000000,26.000000,0.000000,0.000000,0.325750,0.389871,0.262098,0.227152,0.000000,261.000000,231.000000,30.000000,26.000000,0.000000,0.000000:
00000000
00000000
00000000
00000000
,
00000000
00000000
00000000
00000000
,
00000000
00000000
00000000
00000000
,
00000000
00000000
00000000
00000000
,
00000000
00000000
00000000
00000000
,
00010000
00000000
01000000
00000000
10000000
00100000
00010000
00000000
,
00001000
00000000
00000100
00000000
00000001
00000010
00001000
00000000
,
00010000
00000000
01000000
00000000
10000000
00100000
00010000
00000000
,
00001000
00000100
00000001
00000000
00000010
00000000
00000110
00000000
,
00000001
00000100
00000001
00000000
00000010
00000000
00001100
00000000
,
00020000
00031000
00000020
00001030
,
00010000
01000000
00010000
00000000
01000000
00000000
10010000
00000000
,
10000000
01000000
00100000
00010000
,
10000000
01000000
10000000
00000000
00100000
00000000
01010000
00000000
,
00002000
00013000
00200000
00310000
,
00001000
00000100
00001000
00000000
00000100
00000000
00001001
00000000
,
00000220
00000000
00000000
00000000
,
00000000
00000000
00000000
00000000
,
00000000
00000000
00000000
00000000
00000000
00000000
00000000
00000330
,
00000110
00000000
00001001
00000000
00000010
00000000
00000001
00000100
,
00001000
00020000
01030000
20000000
,
30100000
00000000
00010000
00100000
10000000
00000000
00100000
00000000
,
01010000
10000000
01000000
00100000
,
00010000
00000000
10010000
00000000
01000000
00000000
10000000
00100000
,
00010000
00002000
00003010
00000002
,
00000103
00000000
00001000
00000100
00000001
00000000
00000100
00000000
,
00001010
00000001
00000010
00000100
,
00001000
00000000
00000001
00000100
00000010
00000000
00010000
00001000
,
00010000
00001000
00001000
00001000
,
00101000
00000000
00010000
01000000
00100000
00000000
10000000
01000000
,
10000000
00010000
00010000
00010000
,
01100000
00000000
10000000
00100000
01000000
00000000
00001000
00010000
,
00001000
00010000
00010000
00010000
,
00010100
00000000
00001000
00000010
00000100
00000000
00000001
00000010
,
00000001
00000000
00001000
00000100
00001000
00000000
00001000
00000010
,
00001000
00012000
00000010
00000000
,
00000010
00000000
00010000
00000020
,
00000030
00023000
01000000
00000000
,
01000000
00000000
00001000
02000000
,
03000000
00031000
10010000
10000000
,
00011000
00010000
00001001
00000001
,
00011000
00000000
01000000
00010000
00001000
00000000
00000100
00001000
,
00010000
02200000
00000000
00000000
,
00000000
00000000
00000000
00000000
,
00000000
00000000
00000000
00000000
,
00000000
03300000
01100000
00000000
10010000
00000000
00100000
00000000
,
10000000
01000000
00010000
00000000
00002000
00000000
00000010
00000000
,
00010000
00000000
00003010
00000000
00000001
00000100
00000010
00000000
,
00000100
00000001
00000010
00000000
00000200
00000000
00000001
00000000
,
00000010
00001300
00000100
00001001
,
00000001
00000010
00001000
00000000
00020000
00000000
01000000
00000000
,
00001000
00000000
01030000
00000000
10000000
00100000
01000000
00000000
,
00100000
10000000
01000000
00000000
00200000
00000000
10000000
00000000
,
01000000
00000000
00310000
00000000
10000000
01000000
10000000
00000000
,
00100000
01010000
00002000
00013000
,
00200000
00000000
00310000
00000000
00001000
00000100
00001000
00000000
,
00000100
00001001
00000001
00000100
,
00000010
00000000
00001000
00000000
00000001
00000100
00000001
00000000
,
00000010
00001100
00020000
00031000
,
00000020
00000000
00001030
00000000
00010000
01000000
00010000
00000000
,
01000000
10010000
02200000
00000000
,
00000000
00000000
00000000
00000000
,
00000000
00000000
00000000
00000000
,
00000000
00000000
00000000
03300000
01100000
00000000
10010000
00000000
;

//---------------dance-double - ----------------
#NOTES:
     dance-double:
     :
     Easy:
     6:
     0.247121,0.334175,0.227152,0.235888,0.000000,198.000000,172.000000,26.000000,27.000000,0.000000,0.000000,0.247121,0.334175,0.227152,0.235888,0.000000,198.000000,172.000000,26.000000,27.000000,0.000000,0.000000:
00000000
00000000
00000000
00000000
,
00000000
00000000
00000000
00000000
,
00000000
00000000
00000000
00000000
,
00000000
00000000
00000000
00000000
,
00000000
00000000
00000000
00000000
,
10000000
01000000
00010000
01000000
,
10000000
00100000
00010000
00001000
,
00000010
00000001
00000010
00001000
,
00000010
00000001
00000100
00000110
,
00000001
00000010
00000001
00000101
,
00000020
00000030
00020000
00030000
,
00001000
00100000
00010000
11000000
,
00100000
01000000
00100000
00010000
,
10000000
01000000
10000000
10100000
,
02000000
03000000
00002000
00003000
,
00010000
00000100
00001000
00000011
,
00000220
00000000
00000000
00000000
,
00000000
00000000
00000000
00000000
,
00000000
00000000
00000000
00000000
00000000
00000000
00000000
00000330
,
00000100
00001001
00000100
00000001
,
00000010
00002000
00003000
00020000
,
00030000
00001000
00010000
01000000
,
01100000
00010000
01000000
00100000
,
10000000
10010000
00100000
10000000
,
01000000
00020000
00030000
00002000
,
00003000
00010000
00001000
00000010
,
00000110
00001000
00000010
00000100
,
00000001
00000010
00001100
00000010
,
00000101
00000010
00001000
00000000
,
00001000
00010000
00110000
10000000
,
11000000
00100000
01000000
00000000
,
01000000
10000000
01100000
00010000
,
01100000
10000000
01000000
00000000
,
01000000
00010000
00011000
00000010
,
00001010
00000001
00000010
00000000
,
00000010
00002000
00000000
00000000
,
00000000
00000000
00000000
00000200
,
00000300
00023000
00000000
00000000
,
00000000
00000000
00000000
02000000
,
03000000
00032000
00000100
00000000
,
00010000
00000000
00000100
00000000
,
00010000
00013000
01000000
00100000
,
00010000
02200000
00000000
00000000
,
00000000
00000000
00000000
00000000
,
00000000
00000000
00000000
00000000
,
00000000
03300000
01000000
00000000
10010000
00000000
01000000
00000000
,
00010000
00001000
00000200
00000010
,
00000000
00000310
00001000
00000100
,
00000001
00000100
00020000
00001000
,
00000000
00031000
00000010
00001000
,
00010000
00100000
02000000
10000000
,
00000000
13000000
01000000
00010000
,
00100000
10000000
00200000
00010000
,
00000000
00310000
10010000
01000000
,
10000000
00100000
00020000
00031000
,
00002000
00013000
00010000
00001000
,
00000100
00000110
00001000
00000100
,
00000010
00000001
00001001
00000010
,
00000001
00000100
00002000
00013000
,
00020000
00031000
00001000
00010000
,
00100000
01100000
20020000
00000000
,
00000000
00000000
00000000
00000000
,
00000000
00000000
00000000
00000000
,
00000000
00000000
00000000
30030000
00010000
00000000
00011000
00000000
;
