#VERSION:0.83;
#TITLE:Ugh;
#SUBTITLE:;
#ARTIST:Kawai Sprite;
#TITLETRANSLIT:;
#SUBTITLETRANSLIT:;
#ARTISTTRANSLIT:;
#GENRE:Friday Night Funkin';
#ORIGIN:;
#CREDIT:;
#BANNER:Ugh.png;
#BACKGROUND:../bg.png;
#PREVIEWVID:;
#JACKET:Ugh-jacket.png;
#CDIMAGE:;
#DISCIMAGE:;
#LYRICSPATH:;
#CDTITLE:../cdtitle.png;
#MUSIC:Ugh.ogg;
#OFFSET:0.747000;
#SAMPLESTART:0.756000;
#SAMPLELENGTH:15.000000;
#SELECTABLE:YES;
#BPMS:0.000=160.000;
#STOPS:;
#DELAYS:;
#WARPS:;
#TIMESIGNATURES:0.000=4=4;
#TICKCOUNTS:0.000=4;
#COMBOS:0.000=1;
#SPEEDS:0.000=1.000=0.000=0;
#SCROLLS:0.000=1.000;
#FAKES:;
#LABELS:0.000=Song Start;
#BGCHANGES: -1.000=Ugh.avi=1.000=0=0=0=StretchNoLoop====,
99999=-nosongbg-=1.000=0=0=0 // don't automatically add -songbackground-
;
#KEYSOUNDS:;
#ATTACKS:
;

//---------------dance-single - FNF Hard----------------
#NOTEDATA:;
#CHARTNAME:;
#STEPSTYPE:dance-single;
#DESCRIPTION:FNF Hard;
#CHARTSTYLE:;
#DIFFICULTY:Edit;
#METER:16;
#RADARVALUES:0.820764,0.847139,0.000000,1.579399,0.526466,502.000000,502.000000,0.000000,138.000000,0.000000,0.000000,0.000000,0.000000,0.000000,0.820764,0.847139,0.000000,1.579399,0.526466,502.000000,502.000000,0.000000,138.000000,0.000000,0.000000,0.000000,0.000000,0.000000;
#CREDIT:led_light (FNF Hard);
#NOTES:
0000
0000
0000
0000
,
0001
0000
0000
0000
0001
0000
0000
0000
2000
3000
0000
0000
0001
0000
0000
0000
0020
0030
0000
0000
0001
0000
0000
0000
2000
3000
0000
0000
0010
0000
0010
0000
,
0001
0000
0010
0000
0001
0000
0100
0000
1000
0000
0100
0000
2000
3000
0000
0000
0200
0000
0000
0000
0000
0000
0300
0000
0002
0000
0000
0000
0000
0000
0003
0000
,
0001
0000
0000
0000
0001
0000
0000
0000
2000
3000
0000
0000
0001
0000
0000
0000
0020
0030
0000
0000
0001
0000
0000
0000
0200
0000
0000
0000
0000
0000
0300
0000
,
0001
0000
0010
0000
0100
0000
1000
0000
0002
0000
0000
0003
0010
0000
0000
0000
,
0001
0000
0000
0000
0001
0000
0000
0000
2000
3000
0000
0000
0001
0000
0000
0000
0020
0030
0000
0000
0001
0000
0000
0000
2000
3000
0000
0000
0010
0000
0010
0000
,
0001
0000
0010
0000
0001
0000
0100
0000
1000
0000
0100
0000
2000
3000
0000
0000
0200
0000
0000
0000
0000
0000
0300
0000
0002
0000
0000
0000
0000
0000
0003
0000
,
0001
0000
0000
0000
0001
0000
0000
0000
2000
3000
0000
0000
0001
0000
0000
0000
0020
0030
0000
0000
0001
0000
0000
0000
0200
0000
0000
0000
0000
0000
0300
0000
,
0001
0000
0010
0000
0100
0000
1000
0000
0002
0000
0000
0003
0200
0000
0000
0300
,
0001
0000
0001
0000
0100
0000
0000
0000
1000
0000
0000
0000
0100
0000
0000
0000
1000
0000
0100
0000
0001
0000
0100
0000
2000
3000
0000
0000
0100
0000
0000
0000
,
0002
0003
0000
0000
0100
0000
0000
0000
0002
0003
0000
0000
1000
0000
0000
0000
0010
0000
0000
0000
0001
0000
0000
0000
1000
0000
0000
0000
0001
0000
0000
0000
,
0001
0000
0001
0010
0001
0000
0010
0100
0010
0000
0100
1000
0100
0000
1000
0000
,
0200
0300
0000
0000
0020
0030
0000
0000
0002
0003
0000
0000
2000
3000
0000
0000
0200
0300
0000
0000
1000
0000
0100
0000
0002
0003
0000
0000
1000
0000
0000
0000
,
0001
0000
0001
0000
0100
0000
0000
0000
1000
0000
0000
0000
0100
0000
0000
0000
1000
0000
0100
0000
0001
0000
0100
0000
2000
3000
0000
0000
0100
0000
0000
0000
,
0002
0003
0000
0000
0100
0000
0000
0000
0002
0003
0000
0000
1000
0000
0000
0000
0010
0000
0000
0000
0001
0000
0000
0000
1000
0000
0000
0000
0001
0000
0000
0000
,
0001
0000
0001
0010
0001
0000
0010
0100
0010
0000
0100
1000
0100
0000
1000
0000
,
0200
0300
0000
0000
0020
0030
0000
0000
0002
0003
0000
0000
2000
3000
0000
0000
0200
0300
0000
0000
1000
0000
0100
0000
0002
0003
0000
0000
1000
0000
0000
0000
,
0100
1000
0100
0010
0001
0000
0100
1000
0100
0010
0001
0000
0100
1000
0100
0010
,
0001
0000
0000
0000
0100
0000
1000
0000
0100
0000
0010
0000
0002
0003
0000
0000
2000
0000
0000
0000
0000
0000
3000
0000
0200
0300
0000
0000
0002
0003
0000
0000
,
0100
1000
0100
0010
0001
0000
0100
1000
0100
0010
0001
0000
0100
1000
0100
0010
,
0001
0000
0000
0000
0100
0000
1000
0000
0100
0000
0010
0000
0002
0003
0000
0000
2000
0000
0000
0000
0000
0000
3000
0000
0200
0300
0000
0000
0002
0003
0000
0000
,
2000
3000
0000
0000
0100
0000
0010
0000
0001
0000
0000
0000
2000
3000
0000
0000
0100
0000
0010
0000
0001
0000
0000
0000
2000
3000
0000
0000
0100
0000
0010
0000
,
0001
0000
0000
0000
2000
3000
0000
0000
1000
0000
0100
0000
0020
0030
0000
0000
0200
0000
0000
0000
0000
0000
0300
0000
0002
0000
0000
0000
0000
0000
0003
0000
,
2000
3000
0000
0000
0100
0000
0010
0000
0001
0000
0000
0000
2000
3000
0000
0000
0100
0000
0010
0000
0001
0000
0000
0000
2000
3000
0000
0000
0100
0000
0010
0000
,
0001
0000
0000
0000
2000
3000
0000
0000
1000
0000
0100
0000
0020
0030
0000
0000
0200
0000
0000
0000
0000
0000
0300
0000
0002
0000
0000
0000
0000
0000
0003
0000
,
0001
0000
0000
0000
0001
0000
0000
0000
0020
0030
0000
0000
0001
0000
0000
0000
0200
0300
0000
0000
0001
0000
0000
0000
2000
3000
0000
0000
0010
0000
0010
0000
,
0001
0000
0010
0000
0001
0000
0100
0000
1000
0000
0100
0000
2000
3000
0000
0000
0200
0000
0000
0000
0000
0000
0300
0000
0002
0000
0000
0000
0000
0000
0003
0000
,
0001
0000
0000
0000
0001
0000
0000
0000
0020
0030
0000
0000
0001
0000
0000
0000
0200
0300
0000
0000
0001
0000
0000
0000
2000
0000
0000
0000
0000
0000
3000
0000
,
1000
0000
0100
0000
0010
0000
0001
0000
2000
0000
0000
3000
0010
0000
0000
0000
,
0001
0000
0000
0000
0001
0000
0000
0000
0020
0030
0000
0000
0001
0000
0000
0000
0200
0300
0000
0000
0001
0000
0000
0000
2000
3000
0000
0000
0010
0000
0010
0000
,
0001
0000
0010
0000
0001
0000
0100
0000
1000
0000
0100
0000
2000
3000
0000
0000
0200
0000
0000
0000
0000
0000
0300
0000
0002
0000
0000
0000
0000
0000
0003
0000
,
0001
0000
0000
0000
0001
0000
0000
0000
0020
0030
0000
0000
0001
0000
0000
0000
0200
0300
0000
0000
0001
0000
0000
0000
2000
0000
0000
0000
0000
0000
3000
0000
,
1000
0000
0100
0000
0010
0000
0001
0000
2000
0000
0000
3000
0200
0000
0000
0300
,
0100
1000
0100
0010
0001
0000
0100
1000
0100
0010
0001
0000
0010
0000
0000
0000
,
0002
0003
0000
0000
0100
0000
0000
0000
0002
0003
0000
0000
1000
0000
0000
0000
0010
0000
0000
0000
0001
0000
0000
0000
1000
0000
0000
0000
0001
0000
0000
0000
,
0001
0000
0001
0010
0001
0000
0010
0100
0010
0000
0100
1000
0100
0000
1000
0000
,
0200
0300
0000
0000
0020
0030
0000
0000
0002
0003
0000
0000
2000
3000
0000
0000
0200
0300
0000
0000
1000
0000
0100
0000
0002
0003
0000
0000
1000
0000
0000
0000
,
0100
1000
0100
0010
0001
0000
0100
1000
0100
0010
0001
0000
0200
0000
0000
0300
,
0002
0003
0000
0000
0100
0000
0000
0000
0002
0003
0000
0000
1000
0000
0000
0000
0010
0000
0000
0000
0001
0000
0000
0000
1000
0000
0000
0000
0001
0000
0000
0000
,
0001
0000
0001
0010
0001
0000
0010
0100
0010
0000
0100
1000
0100
0000
1000
0000
,
0200
0300
0000
0000
0020
0030
0000
0000
0002
0003
0000
0000
2000
3000
0000
0000
0200
0300
0000
0000
1000
0000
0100
0000
0002
0003
0000
0000
1000
0000
0000
0000
,
0001
0000
0001
0000
0100
0000
0000
0000
1000
0000
0000
0000
0100
0000
0000
0000
1000
0000
0100
0000
0001
0000
0100
0000
2000
3000
0000
0000
0100
0000
0000
0000
,
0002
0003
0000
0000
0100
0000
0000
0000
0002
0003
0000
0000
1000
0000
0000
0000
0010
0000
0000
0000
0001
0000
0000
0000
1000
0000
0000
0000
0001
0000
0000
0000
,
0001
0000
0001
0010
0001
0000
0010
0100
0010
0000
0100
1000
0100
0000
1000
0000
,
0200
0300
0000
0000
0020
0030
0000
0000
0002
0003
0000
0000
2000
3000
0000
0000
0200
0300
0000
0000
1000
0000
0100
0000
0002
0003
0000
0000
1000
0000
0000
0000
,
0001
0000
0001
0000
0100
0000
0000
0000
1000
0000
0000
0000
0100
0000
0000
0000
1000
0000
0100
0000
0001
0000
0100
0000
2000
3000
0000
0000
0100
0000
0000
0000
,
0002
0003
0000
0000
0100
0000
0000
0000
0002
0003
0000
0000
1000
0000
0000
0000
0010
0000
0000
0000
0001
0000
0000
0000
1000
0000
0000
0000
0001
0000
0000
0000
,
0001
0000
0001
0010
0001
0000
0010
0100
0010
0000
0100
1000
0100
0000
1000
0000
,
0200
0300
0000
0000
0020
0030
0000
0000
0002
0003
0000
0000
2000
3000
0000
0000
0200
0300
0000
0000
1000
0000
0100
0000
0002
0003
0000
0000
1000
0000
0000
0000
,
0001
0000
0000
0000
0001
0000
0000
0000
0020
0030
0000
0000
0001
0000
0000
0000
0200
0300
0000
0000
0001
0000
0000
0000
2000
3000
0000
0000
0010
0000
0010
0000
,
0001
0000
0010
0000
0001
0000
0100
0000
1000
0000
0100
0000
2000
3000
0000
0000
0200
0000
0000
0000
0000
0000
0300
0000
0002
0000
0000
0000
0000
0000
0003
0000
,
0001
0000
0000
0000
0001
0000
0000
0000
0020
0030
0000
0000
0001
0000
0000
0000
0200
0300
0000
0000
0001
0000
0000
0000
2000
0000
0000
0000
0000
0000
3000
0000
,
1000
0000
0100
0000
0010
0000
0001
0000
2000
0000
0000
3000
0010
0000
0000
0000
,
0001
0000
0000
0000
0001
0000
0000
0000
0020
0030
0000
0000
0001
0000
0000
0000
0200
0300
0000
0000
0001
0000
0000
0000
2000
3000
0000
0000
0010
0000
0010
0000
,
0001
0000
0010
0000
0001
0000
0100
0000
1000
0000
0100
0000
2000
3000
0000
0000
0200
0000
0000
0000
0000
0000
0300
0000
0002
0000
0000
0000
0000
0000
0003
0000
,
0001
0000
0000
0000
0001
0000
0000
0000
0020
0030
0000
0000
0001
0000
0000
0000
0200
0300
0000
0000
0001
0000
0000
0000
2000
0000
0000
0000
0000
0000
3000
0000
,
1000
0000
0100
0000
0010
0000
0001
0000
2000
0000
0000
3000
0200
0000
0000
0300
;

//---------------dance-single - ----------------
#NOTEDATA:;
#CHARTNAME:;
#STEPSTYPE:dance-single;
#DESCRIPTION:;
#CHARTSTYLE:;
#DIFFICULTY:Hard;
#METER:15;
#RADARVALUES:0.814224,0.717597,0.125894,0.160229,0.446352,498.000000,487.000000,11.000000,14.000000,0.000000,0.000000,0.000000,0.000000,0.000000,0.814224,0.717597,0.125894,0.160229,0.446352,498.000000,487.000000,11.000000,14.000000,0.000000,0.000000,0.000000,0.000000,0.000000;
#CREDIT:led_light;
#NOTES:
// measure 0
0000
0000
0000
0000
,  // measure 1
1000
0100
0001
0100
1000
0100
0001
0000
,  // measure 2
0100
1000
0100
1000
0001
0000
0010
0000
0100
0000
0000
0000
0110
0000
0000
0000
,  // measure 3
0010
0100
1000
0100
0010
0100
1000
0000
,  // measure 4
1000
0001
0100
0010
1000
0000
0011
0000
,  // measure 5
0001
0010
1000
0010
0001
0010
1000
0000
,  // measure 6
0010
0001
0010
0001
1000
0000
0100
0000
0010
0000
0000
0000
0110
0000
0000
0000
,  // measure 7
0100
0010
0001
0010
0100
0010
0001
0000
,  // measure 8
0001
0001
1000
1000
0100
0100
0001
0100
,  // measure 9
1000
0100
1000
0000
0100
0000
0010
0000
0001
0100
0001
0000
0100
0000
0010
0000
,  // measure 10
1000
0100
1000
0001
0001
0100
0001
1000
,  // measure 11
0010
0000
0100
1000
0100
0000
0010
0100
0010
0000
1000
0010
1000
0000
0100
0000
,  // measure 12
0010
0000
0001
0000
0010
0000
0100
0000
1000
0000
0001
0100
0010
0000
1000
0000
,  // measure 13
0001
0000
0010
0000
0001
0000
0010
0000
0100
1000
0010
1000
0010
0000
0100
0000
,  // measure 14
0001
0010
0001
1000
1000
0010
1000
0001
,  // measure 15
0100
0000
0010
0001
0010
0000
0100
0010
0100
0000
0001
0100
0001
0000
0010
0000
,  // measure 16
0100
0000
1000
0000
0100
0000
0010
0000
0001
0000
1000
0010
0100
0000
0001
0000
,  // measure 17
0010
0100
0010
0000
0001
0000
1000
0100
1000
0000
0001
0000
1000
0100
0010
0000
,  // measure 18
0001
0000
0010
0100
1000
0000
0001
0000
0200
0000
0000
0000
0301
0000
0100
0000
,  // measure 19
0010
0100
0010
0000
1000
0000
0001
0100
0001
0000
1000
0000
0001
0100
0010
0000
,  // measure 20
1000
0000
0010
0100
0001
0000
1000
0000
0200
0000
0000
0000
1300
0000
0100
0000
,  // measure 21
0010
0000
0100
1000
0001
0000
0010
0000
0001
1000
0010
0000
0100
0000
0010
1000
,  // measure 22
0001
0000
0100
0000
0001
1000
0100
0000
0020
0000
0000
0000
0130
0000
0000
0000
,  // measure 23
0100
0000
0010
0001
1000
0000
0100
0000
1000
0001
0100
0000
0010
0000
0100
0001
,  // measure 24
1000
0000
0010
0000
1000
0001
0010
0000
0200
0000
0000
0000
0320
0000
0000
0000
,  // measure 25
0031
0000
0001
0000
0100
0000
0010
0000
0100
0000
0001
0000
0100
0000
0100
0001
,  // measure 26
1000
0100
1000
0100
0010
0100
1000
0000
0001
0000
0000
0000
0201
0000
0000
0000
,  // measure 27
0310
0010
1000
0100
1000
0001
2000
0000
,  // measure 28
3010
0100
0010
1000
0010
0100
0001
0000
1000
0000
0000
0000
1001
0000
0000
0000
,  // measure 29
1000
1000
0100
0010
0100
1000
0100
0010
,  // measure 30
0001
0100
0001
0100
0010
0100
0001
0000
1000
0000
0000
0000
1200
0000
0000
0000
,  // measure 31
0310
0010
0001
0100
0001
1000
0002
0000
,  // measure 32
0013
0100
0010
0001
0010
0100
1000
0000
0001
0000
0000
0000
1001
0000
0000
0000
,  // measure 33
1000
0100
1000
0000
0001
0000
1000
0100
1000
0000
0000
0000
0110
0000
0000
0000
,  // measure 34
0001
0000
1000
0000
0100
0000
0010
0000
0001
0000
1000
0000
0100
0010
0100
0000
,  // measure 35
1000
0000
0001
0100
0001
0000
0100
0010
0100
0000
0010
1000
0010
0000
1000
0000
,  // measure 36
0100
0000
0001
0000
0100
0000
1000
0000
0001
0000
0010
0100
0010
0000
0100
0000
,  // measure 37
1000
0010
1000
0000
0001
0000
1000
0010
1000
0000
0100
0000
0020
0000
0000
0000
,  // measure 38
0031
0001
1000
0010
0100
0001
1000
0010
,  // measure 39
0100
0000
0001
0010
0001
0000
0010
0100
0010
0000
0100
1000
0100
0000
1000
0000
,  // measure 40
0010
0000
0001
0000
0010
0000
1000
0000
0001
0000
0100
0010
0100
0000
0010
0000
,  // measure 41
1000
0100
0010
0000
0100
0000
1000
0000
0100
0010
0001
0000
1000
0000
0001
0000
,  // measure 42
0100
0010
1000
0100
1000
0100
0010
0001
,  // measure 43
1000
0000
0100
0010
0100
0000
0001
0100
0001
0000
0100
0010
0100
0000
1000
0000
,  // measure 44
0001
0000
0010
0000
0100
0000
1000
0000
0100
0000
0010
0001
0010
0000
0100
0000
,  // measure 45
1000
0000
0010
0000
0100
0000
0010
0000
1000
0010
0100
0001
1000
0000
0001
0000
,  // measure 46
0010
0100
1000
0010
1000
0010
0100
0001
,  // measure 47
1000
0000
0010
0100
0010
0000
0001
0010
0001
0000
0010
0100
0010
0000
1000
0000
,  // measure 48
0001
0000
0100
0000
0010
0000
1000
0000
0010
0000
0100
0001
0100
0000
0010
0000
,  // measure 49
1000
0000
0100
0000
0001
0000
0100
0000
1000
0000
0100
0000
0001
0000
0100
0010
,  // measure 50
0100
1000
0100
1000
0100
0010
0001
0000
0100
0000
0000
0000
1001
0000
0000
0000
,  // measure 51
1000
0010
0001
0010
1000
0010
0002
0000
,  // measure 52
0013
1000
0100
0010
0001
0000
0110
0000
,  // measure 53
0001
0000
0010
0000
1000
0000
0010
0000
0001
0000
0010
0000
1000
0000
0010
0100
,  // measure 54
0010
0001
0010
0001
0010
0100
1000
0000
0010
0000
0000
0000
1001
0000
0000
0000
,  // measure 55
0001
0100
1000
0100
0001
0100
2000
0000
,  // measure 56
3100
0001
0010
0100
2000
0000
3002
0000
,  // measure 57
0003
0000
0000
0000
;

//---------------dance-single - ----------------
#NOTEDATA:;
#CHARTNAME:;
#STEPSTYPE:dance-single;
#DESCRIPTION:;
#CHARTSTYLE:;
#DIFFICULTY:Medium;
#METER:12;
#RADARVALUES:0.637646,0.554506,0.171674,0.034335,0.000000,390.000000,375.000000,15.000000,3.000000,0.000000,0.000000,0.000000,0.000000,0.000000,0.637646,0.554506,0.171674,0.034335,0.000000,390.000000,375.000000,15.000000,3.000000,0.000000,0.000000,0.000000,0.000000,0.000000;
#CREDIT:led_light;
#NOTES:
// measure 0
0000
0000
0000
0000
,  // measure 1
1000
0100
1000
0100
0001
0100
1000
0000
,  // measure 2
0001
0010
0100
1000
0010
0000
0110
0000
,  // measure 3
0001
0100
0001
0100
1000
0100
0001
0000
,  // measure 4
1000
0100
0001
0100
1000
0000
1001
0000
,  // measure 5
0001
0010
0001
0010
1000
0010
0001
0000
,  // measure 6
1000
0100
0010
0001
0100
0000
0110
0000
,  // measure 7
1000
0010
1000
0010
0001
0010
1000
0000
,  // measure 8
0001
0010
1000
0010
0001
1000
0001
1000
,  // measure 9
0100
0001
0100
1000
0100
0010
0001
0000
,  // measure 10
1000
0100
1000
0001
1000
0100
1000
0000
,  // measure 11
0010
1000
0010
0000
0100
1000
0100
0000
,  // measure 12
0001
0100
0001
0010
0100
1000
0001
0000
,  // measure 13
0100
1000
0100
0001
0100
0010
1000
0000
,  // measure 14
0001
0100
0001
1000
0001
0100
0001
0000
,  // measure 15
0010
0001
0010
0000
0100
0001
0100
0000
,  // measure 16
1000
0100
1000
0010
0100
0001
1000
0000
,  // measure 17
0001
0010
1000
0010
0001
1000
0001
0010
,  // measure 18
1000
0010
0001
0100
0001
0000
1010
0000
,  // measure 19
1000
0010
0001
0010
1000
0001
1000
0010
,  // measure 20
0001
0010
1000
0100
1000
0000
0011
0000
,  // measure 21
1000
0100
0001
0100
1000
0001
1000
0100
,  // measure 22
0001
0100
1000
0010
1000
0000
0101
0000
,  // measure 23
0001
0100
1000
0100
0001
1000
0001
0100
,  // measure 24
1000
0100
0001
0010
0200
0000
0320
0000
,  // measure 25
0031
0010
0001
0010
1000
0010
0001
0000
,  // measure 26
1000
0100
0010
0001
0100
0000
0110
0000
,  // measure 27
1000
0010
1000
0010
0001
0010
1000
0000
,  // measure 28
0001
0010
1000
0010
0001
0000
1001
0000
,  // measure 29
1000
0100
1000
0100
0001
0100
1000
0000
,  // measure 30
0001
0010
0100
1000
0010
0000
0110
0000
,  // measure 31
0001
0100
0001
0100
1000
0100
0001
0000
,  // measure 32
1000
0100
0001
0100
1000
0000
1001
0000
,  // measure 33
0001
0010
0100
0010
0001
0000
0101
0000
,  // measure 34
0001
0100
0010
1000
0001
0100
0001
0000
,  // measure 35
1000
0100
0010
0000
0100
1000
0010
0000
,  // measure 36
1000
0100
0010
0001
0100
0010
1000
0000
,  // measure 37
1000
0100
0010
0100
1000
0000
1010
0000
,  // measure 38
1000
0010
0100
0001
1000
0010
1000
0000
,  // measure 39
0001
0010
0100
0000
0010
0001
0100
0000
,  // measure 40
0001
0010
0100
1000
0010
0100
0001
0000
,  // measure 41
0001
0100
0001
0100
0010
1000
0001
0000
,  // measure 42
0010
0100
0010
0100
1000
0100
0010
0000
,  // measure 43
0001
0100
1000
0000
1000
0100
0001
0000
,  // measure 44
0001
0100
0010
1000
0100
0001
0100
0000
,  // measure 45
1000
0100
1000
0100
0010
0001
1000
0000
,  // measure 46
0010
0100
0010
0100
0001
0100
0010
0000
,  // measure 47
1000
0100
0001
0000
0001
0100
1000
0000
,  // measure 48
1000
0100
0010
0001
0100
1000
0100
0001
,  // measure 49
1000
0100
1000
0100
0001
0100
1000
0000
,  // measure 50
0001
0010
0100
1000
0010
0000
0110
0000
,  // measure 51
0001
0100
0001
0100
1000
0100
0001
0000
,  // measure 52
1000
0100
0001
0100
1000
0000
1001
0000
,  // measure 53
0001
0010
0001
0010
1000
0010
0001
0000
,  // measure 54
1000
0100
0010
0001
0100
0000
0110
0000
,  // measure 55
1000
0010
1000
0010
0001
0010
1000
0000
,  // measure 56
0001
0010
1000
0010
0001
0000
2000
0000
,  // measure 57
3000
0000
0000
0000
;

//---------------dance-single - ----------------
#NOTEDATA:;
#CHARTNAME:;
#STEPSTYPE:dance-single;
#DESCRIPTION:;
#CHARTSTYLE:;
#DIFFICULTY:Easy;
#METER:9;
#RADARVALUES:0.452892,0.424034,0.206009,0.114449,0.000000,277.000000,259.000000,18.000000,10.000000,0.000000,0.000000,0.000000,0.000000,0.000000,0.452892,0.424034,0.206009,0.114449,0.000000,277.000000,259.000000,18.000000,10.000000,0.000000,0.000000,0.000000,0.000000,0.000000;
#CREDIT:led_light;
#NOTES:
// measure 0
0000
0000
0000
0000
,  // measure 1
1000
0000
0100
0000
0001
0100
1000
0000
,  // measure 2
0001
0010
0100
0110
,  // measure 3
0001
0000
0100
0000
1000
0100
0001
0000
,  // measure 4
0100
0100
0001
1001
,  // measure 5
0001
0000
0010
0000
1000
0010
0001
0000
,  // measure 6
1000
0100
0010
0110
,  // measure 7
1000
0000
0010
0000
0001
0010
1000
0000
,  // measure 8
0010
0000
0010
0000
0100
0001
0100
0001
,  // measure 9
2000
0000
3100
0000
,  // measure 10
1000
0000
1000
0000
0001
0100
0001
0000
,  // measure 11
0010
0000
0010
0000
0100
0010
0001
0000
,  // measure 12
1000
0100
0010
0000
0011
0000
0000
0000
,  // measure 13
0001
0100
0001
0000
0100
0010
1000
0000
,  // measure 14
0001
0000
0001
0000
1000
0100
1000
0000
,  // measure 15
0010
0000
0010
0000
0100
0010
1000
0000
,  // measure 16
0001
0100
0010
0000
0020
0000
1030
0000
,  // measure 17
0001
0000
0010
0100
0000
0100
0010
0000
,  // measure 18
0001
0100
0000
0100
0002
0000
1003
0000
,  // measure 19
1000
0000
0100
0010
0000
0010
0100
0000
,  // measure 20
1000
0010
0000
0010
2000
0000
3001
0000
,  // measure 21
0010
0000
0100
1000
0000
0010
0100
0000
,  // measure 22
0010
1000
0000
0100
0020
0000
0031
0000
,  // measure 23
0100
0000
0010
1000
0000
0100
0010
0000
,  // measure 24
0100
1000
0010
0000
0200
0000
0320
0000
,  // measure 25
0130
0000
0100
0000
0001
1000
0010
0000
,  // measure 26
0100
0001
1000
1001
,  // measure 27
0001
0000
0010
0000
0100
1000
0001
0000
,  // measure 28
0010
0100
0010
1001
,  // measure 29
0010
0000
0010
0000
0001
1000
0100
0000
,  // measure 30
0010
0001
1000
1001
,  // measure 31
0001
0000
0100
0000
0010
1000
0001
0000
,  // measure 32
0001
0100
0010
0000
0010
0000
0100
0000
,  // measure 33
0220
0330
1001
0000
,  // measure 34
0001
1000
1100
0000
,  // measure 35
1000
0000
1000
0000
0001
0100
0001
0000
,  // measure 36
0100
0010
0100
0000
1010
0000
0000
0000
,  // measure 37
0010
0100
1001
0000
,  // measure 38
1000
0001
0011
0000
,  // measure 39
0001
0000
0001
0000
1000
0010
1000
0000
,  // measure 40
0010
0100
0010
0000
0101
0000
0000
0000
,  // measure 41
1000
0100
1000
0000
0001
0010
0001
0000
,  // measure 42
0010
0100
1000
0001
,  // measure 43
1000
0100
1000
0000
0010
0100
0010
0000
,  // measure 44
0100
0001
1000
0000
0110
0000
0000
0000
,  // measure 45
0001
0100
0001
0000
1000
0010
1000
0000
,  // measure 46
0010
0100
0001
1000
,  // measure 47
0001
0100
0001
0000
0010
0100
0010
0000
,  // measure 48
0100
0000
0010
0000
0001
0100
0010
0000
,  // measure 49
1000
0000
0100
0000
0001
0100
1000
0000
,  // measure 50
0001
0010
0100
0110
,  // measure 51
0001
0000
0100
0000
1000
0100
0001
0000
,  // measure 52
0100
0100
0001
1001
,  // measure 53
0001
0000
0010
0000
1000
0010
0001
0000
,  // measure 54
1000
0100
0010
0110
,  // measure 55
1000
0000
0010
0000
0001
0010
1000
0000
,  // measure 56
0010
0100
0010
0000
1000
0000
0002
0000
,  // measure 57
0003
0000
0000
0000
;

//---------------dance-single - ----------------
#NOTEDATA:;
#CHARTNAME:;
#STEPSTYPE:dance-single;
#DESCRIPTION:;
#CHARTSTYLE:;
#DIFFICULTY:Beginner;
#METER:3;
#RADARVALUES:0.160229,0.194850,0.000000,0.011445,0.000000,98.000000,98.000000,0.000000,1.000000,0.000000,0.000000,0.000000,0.000000,0.000000,0.160229,0.194850,0.000000,0.011445,0.000000,98.000000,98.000000,0.000000,1.000000,0.000000,0.000000,0.000000,0.000000,0.000000;
#CREDIT:led_light;
#NOTES:
// measure 0
0000
0000
0000
0000
,  // measure 1
0001
0000
0001
0000
,  // measure 2
0001
0001
0001
0000
,  // measure 3
0010
0000
0010
0000
,  // measure 4
0100
0100
0100
0000
,  // measure 5
1000
0000
1000
0000
,  // measure 6
1000
1000
1000
0000
,  // measure 7
0010
0000
0010
0000
,  // measure 8
0100
0100
0100
0000
,  // measure 9
0001
0000
0000
0000
,  // measure 10
0001
0000
0000
0000
,  // measure 11
0010
0000
0000
0000
,  // measure 12
0001
0000
0000
0000
,  // measure 13
1000
0000
0000
0000
,  // measure 14
1000
0000
0000
0000
,  // measure 15
0100
0000
0000
0000
,  // measure 16
1000
0000
0000
0000
,  // measure 17
0010
0000
0100
0000
,  // measure 18
0010
0000
0000
0000
,  // measure 19
0001
0000
1000
0000
,  // measure 20
0001
0000
0000
0000
,  // measure 21
0100
0000
0010
0000
,  // measure 22
0100
0000
0000
0000
,  // measure 23
1000
0000
0001
0000
,  // measure 24
1000
0000
0000
0000
,  // measure 25
0001
0000
0001
0000
,  // measure 26
0001
0001
0001
0000
,  // measure 27
0100
0000
0100
0000
,  // measure 28
0010
0010
0010
0000
,  // measure 29
1000
0000
1000
0000
,  // measure 30
1000
1000
1000
0000
,  // measure 31
0100
0000
0100
0000
,  // measure 32
0010
0010
0010
0000
,  // measure 33
0001
0000
0000
0000
,  // measure 34
0001
0000
0000
0000
,  // measure 35
0100
0000
0000
0000
,  // measure 36
0001
0000
0000
0000
,  // measure 37
1000
0000
0000
0000
,  // measure 38
1000
0000
0000
0000
,  // measure 39
0010
0000
0000
0000
,  // measure 40
1000
0000
0000
0000
,  // measure 41
0100
0000
0010
0000
,  // measure 42
0100
0000
0000
0000
,  // measure 43
0001
0000
1000
0000
,  // measure 44
0001
0000
0000
0000
,  // measure 45
0010
0000
0100
0000
,  // measure 46
0010
0000
0000
0000
,  // measure 47
1000
0000
0001
0000
,  // measure 48
1000
0000
0000
0000
,  // measure 49
0010
0000
0010
0000
,  // measure 50
0010
0010
0010
0000
,  // measure 51
1000
0000
1000
0000
,  // measure 52
0001
0001
0001
0000
,  // measure 53
0100
0000
0100
0000
,  // measure 54
0100
0100
0100
0000
,  // measure 55
1000
0000
1000
0000
,  // measure 56
0002
0000
0000
0003
;
