#TITLE:U GOT HEXED!;
#SUBTITLE:;
#ARTIST:Hex Haywire;
#TITLETRANSLIT:;
#SUBTITLETRANSLIT:;
#ARTISTTRANSLIT:;
#GENRE:にじさんじ;
#CREDIT:;
#BANNER:U GOT HEXED!.png;
#BACKGROUND:U GOT HEXED!-bg.png;
#LYRICSPATH:;
#CDTITLE:../cdtitle.png;
#MUSIC:U GOT HEXED!.ogg;
#OFFSET:1.669000;
#SAMPLESTART:5.882000;
#SAMPLELENGTH:15.000000;
#LASTBEATHINT:1.583300;
#SELECTABLE:YES;
#BPMS:0.000000=142.000000
;
#STOPS:39.000000=0.845000,
48.000000=0.423000,
76.000000=0.845000,
108.000000=0.845000,
139.000000=0.423000,
146.000000=0.423000
;
#BGCHANGES:;
#KEYSOUNDS:;
#ATTACKS:;

//---------------dance-single - ----------------
#NOTES:
     dance-single:
     :
     Beginner:
     1:
     0.057467,0.079419,0.000000,0.035495,0.000000,34.000000,34.000000,0.000000,3.000000,0.000000,0.000000,0.057467,0.079419,0.000000,0.035495,0.000000,34.000000,34.000000,0.000000,3.000000,0.000000,0.000000:
0000
0000
0000
0000
,
0000
0000
0000
0000
,
0000
0000
0000
0000
,
0000
0000
0000
0000
,
0000
0000
0000
0000
,
0100
0000
0000
0000
,
0100
0000
0000
0000
,
1000
0000
0000
0000
,
0001
0000
0000
0000
,
1000
0000
0000
0000
,
0000
0000
0010
0000
,
0000
0000
0000
0000
,
0000
0000
0000
0100
,
0000
0000
0000
0100
,
0000
0000
0000
0001
,
0000
0000
0000
0001
,
0000
0000
0000
1000
,
0000
0000
0000
0100
,
0000
0000
0000
0010
,
0000
0000
0000
0002
,
0000
0000
0000
0003
,
0000
0000
0000
2000
,
0000
0000
0000
3000
,
0000
0000
0000
0000
,
0000
0010
0000
0000
,
0000
0010
0000
0000
,
0000
0100
0000
0000
,
0000
0000
0000
0010
,
0000
0000
0000
0010
,
0000
0000
0000
0001
,
0000
0000
0000
0001
,
0000
0000
0000
1000
,
0000
0000
0000
1000
,
0000
0000
0000
0100
,
0000
0000
0000
0000
,
0000
0000
0100
0000
,
0000
0000
0000
0000
,
0000
0001
0000
0000
,
0000
0001
0000
0000
,
0000
0010
0000
0000
,
0000
0100
0000
0000
,
0000
1000
0000
0000
,
0000
1000
0000
0000
,
0000
0010
0000
0000
,
0000
0200
0000
0300
;

//---------------dance-single - ----------------
#NOTES:
     dance-single:
     :
     Easy:
     4:
     0.165641,0.211784,0.070989,0.212967,0.000000,98.000000,92.000000,6.000000,18.000000,0.000000,0.000000,0.165641,0.211784,0.070989,0.212967,0.000000,98.000000,92.000000,6.000000,18.000000,0.000000,0.000000:
0000
0000
0000
0000
,
0000
0000
0000
0000
,
0000
0000
0000
0000
,
0000
0000
0000
0000
,
0000
0000
0000
0000
,
2200
3300
0001
0001
,
0100
0000
1000
0100
,
0001
0010
1000
0010
,
0001
0000
1000
0000
,
0002
0000
0103
0010
,
1000
0000
0001
0100
,
0100
0002
0000
0000
,
0003
1000
0000
0100
,
0001
0001
0000
0100
,
0000
1000
0000
0010
,
0100
0100
0000
0010
,
0000
0001
0000
0010
,
1000
1000
0000
0010
,
0000
0001
0000
1000
,
0000
0100
0100
0002
,
0000
0000
0000
1003
,
0000
0100
0000
2000
,
0000
0000
0000
3001
,
0000
0100
0000
0002
,
0000
0103
0000
2000
,
0000
3100
0000
0002
,
0000
0013
0000
2000
,
0000
3000
0000
0000
0000
0000
0000
0000
1001
0000
0000
0000
0000
0000
0000
0000
0000
0000
0000
0000
0000
0000
0000
0000
0100
0000
0000
0000
0000
0000
0000
0000
,
0000
1000
0000
0100
,
0000
0110
0000
0001
,
0000
2000
0000
3001
,
0000
1001
0000
0010
,
0000
0001
0000
0010
,
0000
0110
0000
1000
,
0000
0002
0000
0003
,
0100
0100
0020
0000
,
0000
0030
0000
2020
,
3030
0001
0001
0010
,
0000
1000
0010
0001
,
0100
1000
0100
0001
,
0000
1000
0000
0002
,
0000
0013
0100
0000
,
0000
1000
0000
0001
,
0000
0010
0010
0002
,
0000
2003
0000
3100
;

//---------------dance-single - ----------------
#NOTES:
     dance-single:
     :
     Medium:
     6:
     0.245081,0.291203,0.094652,0.283956,0.000000,145.000000,137.000000,8.000000,24.000000,0.000000,0.000000,0.245081,0.291203,0.094652,0.283956,0.000000,145.000000,137.000000,8.000000,24.000000,0.000000,0.000000:
0000
0000
0000
0000
,
0000
0000
0000
0000
,
0000
0000
0000
0000
,
0000
0000
0000
0000
,
0000
0000
0000
0000
,
2200
0000
3300
0000
0001
0100
1000
0000
,
0100
0000
0001
0100
,
0010
0000
0010
0000
1000
0100
0001
0000
,
0100
0000
1000
1000
,
0100
0100
1000
0001
,
0101
0000
0100
0000
0010
0000
1000
0100
,
0001
0200
0000
0000
,
0300
1100
1000
0010
,
2000
0000
3000
0000
0001
0100
0010
0000
,
1000
0100
0100
1000
,
0200
0000
0300
0000
0010
0001
1000
0000
,
0100
1000
1000
0010
,
0200
0000
0300
0000
1000
0100
0010
0000
,
0100
0000
0001
0000
0001
0010
0100
0000
,
0010
0001
0001
2000
,
0000
0100
0000
0002
,
0003
3100
1000
0020
,
0000
0100
0000
2000
,
3000
0200
0030
0301
,
0000
0101
0000
1000
,
0000
1100
0000
0001
,
0000
1010
0000
0100
,
0000
0000
0001
0000
0000
0000
1000
0100
,
1000
0001
0100
0100
,
0001
0020
0100
0032
,
0010
2003
0001
3020
,
0100
1030
0000
0010
,
0100
0001
1000
0000
0100
0000
0100
0000
,
1000
0020
0100
2030
,
0010
3002
0000
0003
,
1000
0100
1000
0010
2000
0000
0000
0000
,
0000
3000
0000
0202
,
0303
0000
1000
0100
0001
0000
0100
0000
,
0000
1000
0100
0010
,
0010
0000
0001
0100
1000
0000
0100
0000
,
0000
0001
0001
0010
,
0010
1000
0010
0002
,
0003
0110
0001
1000
,
0100
0100
0010
0000
0001
0000
2000
0000
,
0000
0002
3000
0103
;

//---------------dance-single - ----------------
#NOTES:
     dance-single:
     :
     Hard:
     9:
     0.365087,0.423568,0.094652,0.272125,0.000000,216.000000,208.000000,8.000000,23.000000,0.000000,0.000000,0.365087,0.423568,0.094652,0.272125,0.000000,216.000000,208.000000,8.000000,23.000000,0.000000,0.000000:
0000
0000
0000
0000
,
0000
0000
0000
0000
,
0000
0000
0000
0000
,
0000
0000
0000
0000
,
0000
0000
0000
0000
,
0110
0100
0200
0000
0301
1000
0100
1000
,
0002
0000
0003
0000
1000
0100
0010
0000
,
0001
0000
1000
0100
1000
0010
0100
0001
,
1000
0000
0001
0100
0010
0000
1000
0000
,
0200
0000
0310
0100
1000
0000
0001
0000
,
1100
1000
0001
0000
0100
0100
0001
1000
,
0010
0000
0120
0000
0000
0100
2030
0200
,
3300
0000
0110
0010
0010
0001
1000
0000
,
0200
0000
0300
0000
1000
0100
1000
0000
,
0010
0000
0100
0100
0001
1000
0010
0100
,
0002
0000
0003
0000
0010
0100
0010
0000
,
0100
0000
1000
0100
0001
0100
1000
0000
,
0001
0000
0000
0000
1000
0100
1000
0000
,
1000
0000
0001
0010
1000
0010
0001
0000
,
1000
0011
1000
0002
,
0000
0103
0000
2000
,
0000
0000
3100
0010
0100
0000
0002
0000
,
0000
0000
0013
0100
0010
0000
2000
0000
,
0000
0002
3003
0100
,
0000
0000
0110
0000
0010
1000
0020
0000
,
0030
0110
0010
0001
,
0010
0001
0010
0000
0100
0000
2000
0000
,
3000
0000
0100
0100
0000
1000
0002
0000
,
1003
0001
0100
0000
0100
0000
0001
1000
,
0010
0000
0100
0000
0010
0100
0010
0000
,
1000
0000
0002
0000
0010
0000
1003
0010
,
0100
0001
1000
1000
0000
0100
0020
0000
,
0130
1000
0010
0000
0010
0000
0001
0010
,
0100
0000
0001
0000
0001
1000
0100
0000
,
0010
0200
0001
1300
,
0001
0001
0100
0100
0010
1000
0100
0010
,
0100
0000
2000
0000
3000
0000
0110
0010
,
0010
0001
1000
0000
0002
0000
0103
0000
,
0001
1000
0010
0000
0100
0000
0010
0010
,
1000
0100
1000
0001
0010
0100
1000
0000
,
0100
0100
0010
0100
1000
0000
0001
0001
,
1000
0010
0100
0001
2000
0000
3100
0000
,
1000
0100
0010
0000
0001
0000
1000
0100
,
1000
0100
0001
0100
0001
0100
1000
0010
,
0001
0010
1000
0100
0020
0000
0031
0000
;

//---------------dance-double - ----------------
#NOTES:
     dance-double:
     :
     Easy:
     4:
     0.165641,0.211784,0.106484,0.189304,0.000000,98.000000,89.000000,9.000000,16.000000,0.000000,0.000000,0.165641,0.211784,0.106484,0.189304,0.000000,98.000000,89.000000,9.000000,16.000000,0.000000,0.000000:
00000000
00000000
00000000
00000000
,
00000000
00000000
00000000
00000000
,
00000000
00000000
00000000
00000000
,
00000000
00000000
00000000
00000000
,
00000000
00000000
00000000
00000000
,
00022000
00033000
00000100
00000100
,
00010000
00000000
00001000
00001000
,
00010000
00001000
01000000
00001000
,
00010000
00000000
00010000
00000000
,
00000020
00000000
00001030
00000001
,
00000100
00000000
00000001
00000010
,
00000010
00002000
00000000
00000000
,
00003000
00010000
00000000
00001000
,
00000000
00100000
00000000
00010000
,
00000000
01000000
00000000
00100000
,
01000000
01000000
00000000
10000000
,
00000000
01000000
00000000
00010000
,
00100000
00000000
00100000
00010000
,
00000000
10000000
00000000
00010000
,
01000000
00010000
00000000
00200000
,
00000000
00000000
00000000
02300000
,
00000000
00000000
00000000
03020000
,
00000000
00000000
00000000
00032000
,
00000000
00000000
00000000
00003010
,
00000000
00000110
00000000
00001000
,
00000000
00001100
00000000
00010000
,
00000000
00011000
00000000
02000000
,
03000000
10010000
00000000
01000000
,
00000000
10000000
00000000
00100000
,
00000000
01100000
00000000
00010000
,
00000000
00002000
00000000
00003100
,
00000000
00001001
00000000
00000100
,
00000000
00000001
00000000
00000010
,
00000000
00000110
00000000
00001000
,
00000000
00020000
00000000
00030000
,
01000000
01000000
00200000
00000000
,
00000000
00300000
00000000
20020000
,
30030000
01000000
01000000
00001000
,
00000000
00010000
00010000
00001000
,
00010000
00000100
00010000
00001000
,
00000000
00001000
00000000
00100000
,
00000000
00010000
10000000
00010000
,
00000000
10000000
00000000
00100000
,
00000000
01000000
01000000
00002000
,
00000000
00020000
00000000
00033000
;

//---------------dance-double - ----------------
#NOTES:
     dance-double:
     :
     Medium:
     6:
     0.245081,0.317676,0.106484,0.272125,0.000000,145.000000,136.000000,9.000000,23.000000,0.000000,0.000000,0.245081,0.317676,0.106484,0.272125,0.000000,145.000000,136.000000,9.000000,23.000000,0.000000,0.000000:
// measure 0
00000000
00000000
00000000
00000000
,  // measure 1
00000000
00000000
00000000
00000000
,  // measure 2
00000000
00000000
00000000
00000000
,  // measure 3
00000000
00000000
00000000
00000000
,  // measure 4
00000000
00000000
00000000
00000000
,  // measure 5
00022000
00000000
00033000
00000000
00010000
00001000
00010000
00000000
,  // measure 6
00100000
00000000
00010000
00010000
,  // measure 7
00000010
00000000
00001000
00000000
00000100
00000010
00000100
00000000
,  // measure 8
00010000
00000000
00001000
00001000
,  // measure 9
00000010
00001000
00010000
01100000
,  // measure 10
11000000
00000000
10000000
00000000
00010000
00000000
00010000
01000000
,  // measure 11
00010000
00200000
00000000
00000000
,  // measure 12
00300000
00011000
00001000
00010000
,  // measure 13
00000200
00000000
00000300
00000000
00010000
00001000
00010000
00000000
,  // measure 14
00010000
00000010
00000010
00001000
,  // measure 15
00000200
00000000
00000300
00000000
00000100
00000010
00000001
00000000
,  // measure 16
00000010
00000001
00000001
00000100
,  // measure 17
00002000
00000000
00003000
00000000
00010000
00001000
00010000
00000000
,  // measure 18
00001000
00000000
01000000
00000000
01000000
00010000
00100000
00000000
,  // measure 19
01000000
10000000
00010000
20000000
,  // measure 20
00000000
01000000
00000000
30020000
,  // measure 21
00000000
01030000
00001000
00020000
,  // measure 22
00000000
00001000
00000000
00030020
,  // measure 23
00000000
00002030
00000000
00003001
,  // measure 24
00000000
00000101
00000000
00000000
,  // measure 25
00000000
00001100
00000000
00000010
,  // measure 26
00000000
00001010
00000000
00010000
,  // measure 27
00000000
00000000
00001000
00000000
00000000
00000000
00100000
00010000
,  // measure 28
00100000
00001000
00010000
00010000
,  // measure 29
00001000
00000000
02000000
00000000
03000000
00000000
00001000
00010000
,  // measure 30
00001000
00200000
01300000
00020000
,  // measure 31
00031000
00010000
00000000
00001000
,  // measure 32
00010000
00000100
00010000
00000000
00001000
00000000
00010000
00000000
,  // measure 33
00010000
00000020
00000100
00020030
,  // measure 34
00001000
00030200
00000000
00000300
,  // measure 35
00000010
00000001
00000010
00000001
00002000
00000000
00000000
00000000
,  // measure 36
00000000
00003000
00000000
00022000
,  // measure 37
00033000
00000000
00010000
00001000
00010000
00000000
01000000
00000000
,  // measure 38
00000000
00010000
00010000
00000100
,  // measure 39
00001000
00000000
00000010
00000100
00000010
00000000
00010000
00000000
,  // measure 40
00000000
00001000
00001000
01000000
,  // measure 41
01000000
00010000
00100000
02000000
,  // measure 42
03000000
11000000
10000000
00100000
,  // measure 43
10000000
01000000
00010000
00000000
00001000
00000000
00000200
00000000
,  // measure 44
00000000
00000002
00000300
00001003
;

//---------------dance-double - ----------------
#NOTES:
     dance-double:
     :
     Hard:
     10:
     0.388750,0.450041,0.130147,0.201136,0.000000,230.000000,219.000000,11.000000,17.000000,0.000000,0.000000,0.388750,0.450041,0.130147,0.201136,0.000000,230.000000,219.000000,11.000000,17.000000,0.000000,0.000000:
00000000
00000000
00000000
00000000
,
00000000
00000000
00000000
00000000
,
00000000
00000000
00000000
00000000
,
00000000
00000000
00000000
00000000
,
00000000
00000000
00000000
00000000
,
01000000
01000000
01000000
00001000
00010000
00000010
00000100
00000001
,
00002000
00000000
00003000
00000000
00000100
00010000
00001000
00000000
,
00010000
00000000
01000000
10000000
01000000
00100000
00010000
10000000
,
00010000
00000000
10000000
01000000
00010000
00000000
00001000
00000000
,
00000020
00000000
00001030
00010000
00001000
00000000
00110000
00000000
,
11000000
10000000
00010000
00000000
01000000
01000000
00100000
00010000
,
00001000
00000000
00010020
00000000
00000000
00001030
00000200
00020000
,
00030300
00000000
00000010
00000100
00000010
00000100
00000001
00001000
,
00000100
00000010
00000001
00000000
00000100
00000010
00001000
00000000
,
00011000
00000000
00100000
00010000
01000000
00001000
00010000
00000100
,
00000010
00000001
00001000
00000000
00000100
00010000
00001000
00000000
,
00011000
00000000
00010000
00000010
00000100
00000010
00001000
00000000
,
00000001
00000000
00000000
00000000
00000001
00000100
00000001
00000000
,
00000010
00000000
00001000
00010000
01000000
00010000
00001000
00000000
,
01000000
00011000
00001000
00020000
,
00000000
00031000
00000000
00000020
,
00000000
00000000
00001030
00010000
00001000
00000000
00200000
00000000
,
00000000
00000000
00301000
00010000
00001000
00000000
02000000
00000000
,
00000000
00200000
03300000
10000000
,
00000000
00000000
01010000
00000000
00100000
10000000
02000000
00000000
,
03000000
00110000
00001000
00010000
,
00010000
00001000
00000010
00000000
00000001
00000000
00002000
00000000
,
00003000
00000000
00000100
00000100
00000000
00000001
00000100
00000000
,
00001000
00000010
00000100
00000000
00000100
00000000
00000010
00010000
,
00001000
00000000
01000000
00000000
00001000
00010000
00001000
01000000
,
00100000
00000000
00020000
00000000
00130000
00000000
10000000
01000000
,
10000000
01000000
00100000
00100000
00000000
10000000
00100000
00000000
,
00010000
01000000
00100000
00000000
00100000
00000000
01000000
00001000
,
00010000
00000000
00000010
00000000
00000010
00001000
00000100
00000010
,
00000100
00001000
00000002
00000000
00000020
00000000
00000033
00000000
,
00000100
00000100
00010000
00010000
00001000
00010000
00100000
01000000
,
00100000
10000000
00020000
00000000
00030000
00000000
00100000
00100000
,
00100000
00001000
00010000
00000100
00000010
00000001
00001000
00000000
,
00000100
00000010
00000001
00000000
00000011
00000000
00000010
00000100
,
00000010
00000001
00000100
00001000
00000100
00000010
00001000
00000000
,
00000010
00000010
00010000
00000000
00011000
00000000
00001000
00100000
,
00010000
00001000
00010000
00100000
00010000
10000000
01000000
00000000
,
00010000
01000000
10000000
00000000
10010000
00000000
10000000
01000000
,
10000000
01000000
00010000
01000000
00010000
01000000
00010000
00001000
,
00000100
00000001
00000010
00001000
00020000
00000000
00031000
00000000
;
