#TITLE:Twinkle Wonderland;
#SUBTITLE:;
#ARTIST:Qrispy Joybox feat. Sana;
#TITLETRANSLIT:;
#SUBTITLETRANSLIT:;
#ARTISTTRANSLIT:;
#GENRE:BEMANI;
#CREDIT:;
#BANNER:Twinkle Wonderland.png;
#BACKGROUND:Twinkle Wonderland-bg.png;
#LYRICSPATH:;
#CDTITLE:../cdtitle.png;
#MUSIC:Twinkle Wonderland.ogg;
#OFFSET:0.322000;
#SAMPLESTART:11.165000;
#SAMPLELENGTH:15.000000;
#SELECTABLE:YES;
#BPMS:0.000000=188.000000
;
#STOPS:
;
#BGCHANGES:-0.500=Twinkle Wonderland.avi=1.000=0=0=0=StretchNoLoop====,
324.000=Twinkle Wonderland.avi=1.000=0=0=1====#000000=,
99999=-nosongbg-=1.000=0=0=0 // don't automatically add -songbackground-
;
#KEYSOUNDS:;
#ATTACKS:;

//---------------dance-single - ----------------
#NOTES:
     dance-single:
     :
     Beginner:
     3:
     0.155986,0.225205,0.048746,0.136488,0.000000,112.000000,107.000000,5.000000,14.000000,0.000000,0.000000,0.155986,0.225205,0.048746,0.136488,0.000000,112.000000,107.000000,5.000000,14.000000,0.000000,0.000000:
0000
0000
0000
0000
,
0000
0000
0000
0000
,
0000
0000
0000
0000
,
0000
0000
0000
0000
,
0000
0000
0000
0000
,
0000
0000
0000
0000
,
0000
0000
0000
0000
,
0000
0000
0000
0000
,
0000
0000
0000
0000
,
1000
0000
0001
0000
,
0100
0100
0100
0000
,
0010
0000
1000
0000
,
0001
0001
0001
0000
,
1000
0000
0001
0000
,
1000
1000
1000
0000
,
0100
0000
0010
0000
,
0200
0000
0300
0000
,
0010
0010
0010
0000
,
0001
0000
0000
0000
,
0010
0010
0010
0000
,
1000
0000
0000
0000
,
0010
0010
0010
0000
,
0001
0000
0000
0000
,
0010
0010
0010
0000
,
0110
0000
0000
0000
,
0001
0000
0100
0000
,
0010
0000
0000
0000
,
0100
0000
0001
0000
,
1000
0000
0000
0000
,
0001
0000
0010
0000
,
0100
0000
0000
0000
,
1000
0000
0001
0001
,
0000
0000
1001
0000
,
2000
0000
3000
0000
,
0002
0000
0000
0000
,
0000
0000
0000
0000
,
0003
0000
0000
0000
,
0002
0000
0003
0000
,
2000
0000
0000
0000
,
0000
0000
0000
0000
,
3000
0000
0000
0000
,
1000
0000
0010
0000
,
0100
0000
0000
0000
,
0010
0000
1000
0000
,
0001
0000
0000
0000
,
1000
0000
0100
0000
,
0010
0000
0000
0000
,
0001
0000
1000
1000
,
0000
1001
0000
0000
,
0200
0000
0000
0000
,
0000
0000
0300
0000
,
0002
0000
0000
0000
,
0000
0000
0003
0000
,
2000
0000
0000
0000
,
0000
0000
3000
0000
,
1001
0000
0000
0000
,
0000
0000
0000
0000
,
1000
0000
0001
0000
,
0100
0100
0100
0000
,
0010
0000
1000
0000
,
0001
0001
0001
0000
,
1000
0000
0001
0000
,
1000
1000
1000
0000
,
0100
0000
0010
0000
,
0200
0000
0300
0000
,
0010
0000
0001
0000
,
0100
0100
0100
0000
,
0001
0000
1000
0000
,
0001
0001
0001
0000
,
0010
0000
0100
0000
,
1000
1000
1000
0000
,
0001
0000
1000
0000
,
0002
0000
0003
0000
,
0020
0000
0030
0000
,
0200
0000
0300
0000
,
2002
0000
0000
0000
,
0000
0000
0000
0000
,
3003
0000
0000
0000
;

//---------------dance-single - ----------------
#NOTES:
     dance-single:
     :
     Hard:
     13:
     0.537596,0.675616,0.243729,0.506956,0.000000,386.000000,361.000000,25.000000,52.000000,0.000000,0.000000,0.537596,0.675616,0.243729,0.506956,0.000000,386.000000,361.000000,25.000000,52.000000,0.000000,0.000000:
// measure 0
0000
0000
0000
0000
,  // measure 1
0000
0000
0000
0000
,  // measure 2
0000
0000
0000
0000
,  // measure 3
0000
0000
0000
0000
,  // measure 4
0000
0000
0000
0000
,  // measure 5
0000
0000
0000
0000
,  // measure 6
0000
0000
0000
0000
,  // measure 7
0220
0330
2200
3300
,  // measure 8
0000
0101
0000
0110
0000
2002
0000
3003
,  // measure 9
1000
0100
1000
0100
0010
0001
0010
0001
,  // measure 10
1000
0100
0010
0100
1000
0001
0010
0100
,  // measure 11
1000
0010
1000
0010
0100
0001
0100
0001
,  // measure 12
1000
0010
0001
1000
0100
0001
1000
0100
,  // measure 13
0010
0001
0010
0001
1000
0100
1000
0100
,  // measure 14
0010
0001
0010
0100
1000
0001
0010
0001
,  // measure 15
0200
0000
0000
0020
0000
0000
0330
2002
,  // measure 16
0000
0000
0000
3003
,  // measure 17
0001
0100
0010
0000
0001
0010
1000
0100
,  // measure 18
0001
0100
1000
0000
0100
0010
0001
0000
,  // measure 19
1000
0010
0100
0000
1000
0100
0001
0010
,  // measure 20
1000
0010
0001
0000
0010
0100
1000
0000
,  // measure 21
0001
0100
1000
0000
0100
0001
1000
0100
,  // measure 22
0001
0100
1000
0000
0001
0010
0100
0000
,  // measure 23
1000
0010
0001
0000
0010
1000
0001
0011
,  // measure 24
0000
0110
0000
2200
0000
3300
0000
0000
,  // measure 25
0001
0010
0100
0010
0001
0100
0010
1000
,  // measure 26
0001
1000
0000
0000
0000
0000
0000
0000
,  // measure 27
0100
0010
0001
0010
0100
1000
0010
0100
,  // measure 28
0001
1000
0000
0000
0000
0000
0000
0000
,  // measure 29
0001
0010
0100
0010
0001
0100
0010
1000
,  // measure 30
0001
1000
0000
0000
0000
0000
0000
0000
,  // measure 31
0100
0010
0001
0010
0100
1000
2200
0000
,  // measure 32
3300
2002
0000
3003
0022
0000
0033
0000
,  // measure 33
0001
0010
0200
0000
1300
0001
0100
1000
,  // measure 34
0100
0010
0100
0010
0001
0010
0001
0010
,  // measure 35
1000
0001
0100
0010
1000
0001
0010
0100
,  // measure 36
2000
0000
3001
0100
0010
0120
0000
0000
,  // measure 37
1030
0010
0200
0000
0301
1000
0100
0001
,  // measure 38
0100
0010
0100
0010
1000
0010
1000
0010
,  // measure 39
0001
1000
0100
0010
0001
1000
0010
0110
,  // measure 40
0000
2002
0000
0000
0000
0000
3003
0000
,  // measure 41
1000
0100
0010
0100
1000
0010
0100
0001
,  // measure 42
1000
0001
0100
0000
0010
1000
0100
0000
,  // measure 43
0010
0100
1000
0100
0010
0001
0100
0010
,  // measure 44
1000
0001
0010
0000
0100
0010
0001
0000
,  // measure 45
1000
0100
0010
0100
1000
0010
0100
0001
,  // measure 46
1000
0001
0100
0000
0010
1000
0100
0000
,  // measure 47
0010
0100
1000
0100
0010
0001
2000
0000
,  // measure 48
0000
0002
0000
0000
0000
0000
3000
0000
,  // measure 49
0200
0000
0000
0000
0000
0003
0000
0020
,  // measure 50
0000
0000
0000
0330
,  // measure 51
2000
0000
0000
0000
0000
0000
0000
0200
,  // measure 52
0000
0000
0000
3300
,  // measure 53
0002
0000
0000
0000
0000
0000
0000
0020
,  // measure 54
0000
0000
0000
0033
,  // measure 55
0220
0330
2200
3300
,  // measure 56
0000
0101
0000
0110
0000
2002
0000
3003
,  // measure 57
1000
0100
1000
0100
0010
0001
0010
0001
,  // measure 58
1000
0100
0010
0100
1000
0001
0010
0100
,  // measure 59
1000
0010
1000
0010
0100
0001
0100
0001
,  // measure 60
1000
0010
0001
1000
0100
0001
1000
0100
,  // measure 61
0010
0001
0010
0001
1000
0100
1000
0100
,  // measure 62
0010
0001
0010
0100
1000
0001
0010
0001
,  // measure 63
0200
0000
0000
0020
0000
0000
0330
2002
,  // measure 64
0000
0000
0000
3003
,  // measure 65
0001
0010
0001
0010
1000
0010
1000
0010
,  // measure 66
0001
1000
0010
0100
0001
0100
0010
1000
,  // measure 67
0001
1000
0001
1000
0100
0010
0100
0010
,  // measure 68
1000
0001
0100
1000
0001
0100
0010
1000
,  // measure 69
0001
0010
0001
0010
1000
0010
1000
0010
,  // measure 70
0001
1000
0010
0100
0001
0100
0010
1000
,  // measure 71
0002
0000
0000
2000
0000
0000
3003
0220
,  // measure 72
0000
0000
0000
0330
,  // measure 73
0022
0000
0000
0000
0000
0000
0033
2200
,  // measure 74
0000
0000
0000
3300
,  // measure 75
2002
0000
0000
0000
,  // measure 76
0000
0000
0000
0000
,  // measure 77
3003
0000
0000
0000
;

//---------------dance-single - ----------------
#NOTES:
     dance-single:
     :
     Easy:
     6:
     0.289689,0.337808,0.097492,0.204732,0.000000,208.000000,198.000000,10.000000,21.000000,0.000000,0.000000,0.289689,0.337808,0.097492,0.204732,0.000000,208.000000,198.000000,10.000000,21.000000,0.000000,0.000000:
0000
0000
0000
0000
,
0000
0000
0000
0000
,
0000
0000
0000
0000
,
0000
0000
0000
0000
,
0000
0000
0000
0000
,
0000
0000
0000
0000
,
0000
0000
0000
0000
,
1001
0000
0110
0000
,
0000
0100
0000
0010
0000
0010
0000
0000
,
1000
1000
0100
0100
,
0010
0100
1000
0001
,
0100
0100
0010
0010
,
0001
0010
1000
0100
,
0010
0010
0001
0001
,
0100
0010
1000
0001
,
1000
0000
0000
0001
0000
0000
0000
0220
,
0000
0000
0000
0330
,
1000
0100
0001
0000
,
1000
0010
0001
0000
,
0001
0100
1000
0000
,
0001
0010
1000
0000
,
1000
0100
0010
0000
,
0001
0010
0100
0000
,
1000
0000
0010
0000
0100
0000
0000
0001
,
0000
1000
0000
0001
0000
0000
0000
0000
,
0100
0010
1000
0001
,
0100
0000
0000
0000
,
0001
0010
0100
1000
,
0001
0000
0000
0000
,
0100
0010
1000
0001
,
0100
0000
0000
0000
,
0001
0010
0100
1000
,
0000
0001
0000
0000
1001
0000
0000
0000
,
1000
0100
0001
0100
,
2000
0001
0000
3001
,
0020
0100
0000
0130
,
1000
0000
0001
0000
0000
1001
0000
0000
,
0001
0100
1000
0100
,
0002
1000
0000
1003
,
0020
0000
0100
0000
0000
0000
0130
0010
,
0000
0010
0000
0000
0000
0000
0000
0000
,
1000
0100
0010
0001
,
0100
0010
1000
1000
,
0010
0100
0001
1000
,
0010
0100
0001
0000
,
1000
0100
0010
0001
,
0100
0010
1000
1000
,
0010
0100
0001
1000
,
0000
0200
0000
0000
0000
0000
0300
0000
,
0020
0000
0000
0000
0000
0030
0000
0002
,
0000
0000
0000
0003
,
0200
0000
0000
0000
0000
0300
0000
0020
,
0000
0000
0000
0030
,
2000
0000
0000
0000
0000
3000
0000
0002
,
0000
0000
0000
0003
,
1001
0000
0110
0000
,
0000
0100
0000
0010
0000
0010
0000
0000
,
1000
1000
0100
0100
,
0010
0100
1000
0001
,
0100
0100
0010
0010
,
0001
0010
1000
0100
,
0010
0010
0001
0001
,
0100
0010
1000
0001
,
1000
0000
0000
0001
0000
0000
0000
0220
,
0000
0000
0000
0330
,
1000
0100
0010
0001
,
0001
0100
0010
1000
,
0001
0010
1000
0010
,
0001
0100
1000
0100
,
0001
0100
0010
1000
,
1000
0100
0010
0001
,
0100
0000
0000
0010
0000
0000
0000
2002
,
0000
0000
0000
3003
,
0020
0000
0000
0000
0000
0030
0000
0200
,
0000
0000
0000
0300
,
2002
0000
0000
0000
,
0000
0000
0000
0000
,
3003
0000
0000
0000
;

//---------------dance-single - ----------------
#NOTES:
     dance-single:
     :
     Medium:
     9:
     0.363504,0.450411,0.087742,0.575200,0.000000,261.000000,252.000000,9.000000,59.000000,0.000000,0.000000,0.363504,0.450411,0.087742,0.575200,0.000000,261.000000,252.000000,9.000000,59.000000,0.000000,0.000000:
0000
0000
0000
0000
,
0000
0000
0000
0000
,
0000
0000
0000
0000
,
0000
0000
0000
0000
,
0000
0000
0000
0000
,
0000
0000
0000
0000
,
0000
0000
0000
0000
,
0110
0000
1001
0000
,
0000
0100
0000
0010
0000
0110
0000
0000
,
0001
0010
0100
0000
1000
0000
1000
0020
,
0000
0032
0000
0023
0000
0230
0000
0301
,
0010
0100
1000
0000
0001
0000
0100
2000
,
0000
3200
0000
0320
0000
0032
0000
0013
,
0100
0001
1000
0000
0100
0000
0010
2000
,
0000
3020
0000
0032
0000
2003
0000
3010
,
0200
0000
0000
0002
0000
0300
0000
2000
,
0000
0000
0000
3003
,
0001
0000
0100
0000
0010
1000
0010
1000
,
0000
0001
0010
0000
0100
0000
0100
0000
,
1000
0000
0001
0000
0100
0010
0100
0010
,
0000
1000
0100
0000
1000
0002
0000
0000
,
1003
0000
0010
0000
0100
0001
0100
0001
,
0000
1000
0100
0000
0010
0000
0010
0000
,
0001
0000
1000
0000
0010
0100
0000
0010
,
0000
0010
0000
0110
0000
0000
0000
0000
,
1000
0100
0010
0000
0100
0000
1000
0001
,
0000
1000
0000
0000
0000
0000
0000
0000
,
0001
0100
0010
0000
0100
0000
0001
1000
,
0000
0100
0010
0100
0000
0000
0000
0000
,
1000
0100
0010
0000
0100
0000
1000
0001
,
0000
1000
0000
0000
0000
0000
0000
0000
,
0001
0100
0010
0000
0100
0000
0002
0000
,
0000
2003
0000
0000
3100
0000
0000
0000
,
0020
0000
0100
0000
0100
0000
0130
2000
,
0000
0001
0001
3001
,
0200
0000
0010
0000
0010
0000
0310
0100
,
0001
0000
0001
1000
0000
1001
0000
0000
,
0200
0000
0010
0000
0010
0000
0310
0002
,
0000
1000
1000
1003
,
0020
0000
0100
0000
0100
0000
0130
0010
,
0000
0010
0000
0000
0000
0000
0000
0000
,
0001
0010
0100
0000
0010
0000
0001
1000
,
0000
0001
0100
0000
0010
0000
0010
0000
,
1000
0010
0100
0000
0010
0000
1000
0001
,
0000
0010
0100
0010
0000
0002
0000
1003
,
0001
0010
0100
0000
0010
0000
0001
1000
,
0000
0001
0100
0000
0010
0000
0010
0000
,
1000
0010
0100
0000
0010
0000
2000
0000
,
0000
0002
0000
0000
0000
0000
3003
0000
,
0020
0000
0000
0000
0000
0000
0000
0200
,
0000
0000
0000
0330
,
2000
0000
0000
0000
0000
0000
0000
0020
,
0000
0000
0000
3030
,
0002
0000
0000
0000
0000
0000
0000
0200
,
0000
0000
0000
0303
,
0110
0000
1001
0000
,
0000
0100
0000
0010
0000
0110
0000
0000
,
0001
0010
0100
0000
1000
0000
1000
0020
,
0000
0032
0000
0023
0000
0230
0000
0301
,
0010
0100
1000
0000
0001
0000
0100
2000
,
0000
3200
0000
0320
0000
0032
0000
0013
,
0100
0001
1000
0000
0100
0000
0010
2000
,
0000
3020
0000
0032
0000
2003
0000
3010
,
0200
0000
0000
0002
0000
0300
0000
2000
,
0000
0000
0000
3003
,
0010
0100
0001
0000
1000
0100
0010
0000
,
0002
1000
1000
0103
,
0010
0000
1000
0001
0000
1000
0200
0000
,
0010
0000
0010
0000
1300
0002
0000
0000
,
0103
0010
1000
0000
0001
0010
0100
0000
,
2000
0001
0001
3010
,
0200
0000
0000
0002
0000
0300
0000
0020
,
0000
0000
0000
0003
,
0200
0000
0000
0000
0000
0030
0000
2000
,
0000
0000
0000
3300
,
2002
0000
0000
0000
,
0000
0000
0000
0000
,
3003
0000
0000
0000
;

//---------------dance-double - ----------------
#NOTES:
     dance-double:
     :
     Easy:
     6:
     0.291082,0.337808,0.097492,0.204732,0.000000,209.000000,199.000000,10.000000,21.000000,0.000000,0.000000,0.291082,0.337808,0.097492,0.204732,0.000000,209.000000,199.000000,10.000000,21.000000,0.000000,0.000000:
00000000
00000000
00000000
00000000
,
00000000
00000000
00000000
00000000
,
00000000
00000000
00000000
00000000
,
00000000
00000000
00000000
00000000
,
00000000
00000000
00000000
00000000
,
00000000
00000000
00000000
00000000
,
00000000
00000000
00000000
00000000
,
00011000
00000000
00011000
00000000
,
00000000
00100000
00000000
01000000
00000000
01000000
00000000
00000000
,
10000000
10000000
00010000
00010000
,
01000000
00100000
10000000
01000000
,
00010000
00010000
00001000
00001000
,
00000100
00000001
00000010
00000100
,
00001000
00001000
00000001
00000001
,
00000100
00000010
00001000
00000100
,
00010000
00000000
00000000
00001000
00000000
00000000
00000000
00022000
,
00000000
00000000
00000000
00033000
,
00010000
01000000
10000000
00000000
,
10000000
01000000
00010000
00000000
,
00001000
00000100
00000001
00000000
,
00000001
00000100
00001000
00000000
,
00010000
01000000
10000000
00000000
,
10000000
00100000
00010000
00000000
,
00001000
00000000
00000010
00000000
00000001
00000000
00000000
00001000
,
00000000
00000001
00000000
00001000
00000000
00000000
00000000
00000000
,
00000001
00000100
00000010
00010000
,
00001000
00000000
00000000
00000000
,
00100000
01000000
10000000
00010000
,
10000000
00000000
00000000
00000000
,
10000000
01000000
00100000
00001000
,
00010000
00000000
00000000
00000000
,
00000010
00000100
00000001
00001000
,
00000000
00000001
00000000
00000000
00001001
00000000
00000000
00000000
,
00000001
00000100
00001000
00000100
,
00000002
00001000
00000000
00001003
,
00000200
00010000
00000000
00010300
,
00001000
00000000
00010000
00000000
00000000
01100000
00000000
00000000
,
10000000
01000000
00010000
01000000
,
20000000
00010000
00000000
30010000
,
02000000
00000000
00001000
00000000
00000000
00000000
03001000
00010000
,
00000000
00001000
00000000
00000000
00000000
00000000
00000000
00000000
,
10000000
00100000
01000000
00001000
,
00010000
00001000
00000010
00000100
,
00000100
00000010
00000001
00001000
,
00000001
00000100
00000010
00001000
,
00000001
00000010
00000100
00010000
,
00001000
00010000
00100000
01000000
,
01000000
00100000
10000000
00010000
,
00000000
20000000
00000000
00000000
00000000
00000000
30000000
00000000
,
02000000
00000000
00000000
00000000
00000000
03000000
00000000
00020000
,
00000000
00000000
00000000
00030000
,
00002000
00000000
00000000
00000000
00000000
00003000
00000000
00000200
,
00000000
00000000
00000000
00000300
,
00000020
00000000
00000000
00000000
00000000
00000030
00000000
00020000
,
00000000
00000000
00000000
00030000
,
00011000
00000000
00011000
00000000
,
00000000
00000100
00000000
00000010
00000000
00000010
00000000
00000000
,
00000001
00000001
00001000
00001000
,
00000010
00000100
00000001
00000010
,
00001000
00001000
00010000
00010000
,
00100000
10000000
01000000
00100000
,
00010000
00010000
10000000
10000000
,
00100000
01000000
00010000
00100000
,
00001000
00000000
00000000
00010000
00000000
00000000
00000000
00022000
,
00000000
00000000
00000000
00033000
,
00001000
00000100
00000001
00000010
,
00001000
00010000
00100000
00010000
,
00001000
00010000
01000000
10000000
,
00010000
01000000
00001000
00001000
,
00010000
01000000
10000000
00100000
,
00010000
00001000
00000010
00001000
,
00010000
00000000
00000000
00001000
00000000
00000000
00000000
00022000
,
00000000
00000000
00000000
00033000
,
00000020
00000000
00000000
00000000
00000000
00000030
00000000
00000200
,
00000000
00000000
00000000
00000300
,
00002002
00000000
00000000
00000000
,
00000000
00000000
00000000
00000000
,
00003003
00000000
00000000
00000000
;

//---------------dance-double - ----------------
#NOTES:
     dance-double:
     :
     Hard:
     13:
     0.536204,0.675616,0.243729,0.516705,0.000000,385.000000,360.000000,25.000000,53.000000,0.000000,0.000000,0.536204,0.675616,0.243729,0.516705,0.000000,385.000000,360.000000,25.000000,53.000000,0.000000,0.000000:
00000000
00000000
00000000
00000000
,
00000000
00000000
00000000
00000000
,
00000000
00000000
00000000
00000000
,
00000000
00000000
00000000
00000000
,
00000000
00000000
00000000
00000000
,
00000000
00000000
00000000
00000000
,
00000000
00000000
00000000
00000000
,
00022000
00033000
00220000
00330000
,
00000000
01100000
00000000
10100000
00000000
20020000
00000000
30030000
,
10000000
01000000
10000000
01000000
00100000
00001000
00100000
00001000
,
00010000
00000010
00001000
00000001
00000010
00000100
00001000
00000001
,
00000100
00000010
00000100
00000010
00010000
00001000
00010000
00001000
,
00100000
00010000
01000000
00100000
10000000
00010000
00100000
01000000
,
10000000
00010000
10000000
00010000
01000000
00100000
01000000
00100000
,
00010000
00001000
00000100
00000001
00000010
00001000
00010000
00100000
,
02000000
00000000
00000000
00200000
00000000
00000000
03300000
20020000
,
00000000
00000000
00000000
30030000
,
00010000
10000000
01000000
00000000
00100000
00010000
10000000
00100000
,
00010000
00001000
00010000
00000000
00001000
00000010
00000001
00000000
,
00001000
00000001
00000100
00000000
00000010
00001000
00000001
00000010
,
00001000
00010000
00001000
00000000
00010000
00100000
10000000
00000000
,
00010000
00100000
01000000
00000000
10000000
00100000
00010000
00100000
,
01000000
00001000
00010000
00000000
00001000
00000010
00000001
00000000
,
00001000
00000100
00000010
00000000
00000001
00000100
00001000
00011000
,
00000000
00110000
00000000
22000000
00000000
33000000
00000000
00000000
,
00010000
01000000
00100000
01000000
00001000
00010000
00000100
00000010
,
00000001
00001000
00000000
00000000
00000000
00000000
00000000
00000000
,
00000001
00000100
00001000
00000100
00000010
00010000
00001000
00100000
,
01000000
10000000
00000000
00000000
00000000
00000000
00000000
00000000
,
00010000
01000000
00100000
01000000
00001000
00010000
00000100
00000010
,
00000001
00001000
00000000
00000000
00000000
00000000
00000000
00000000
,
00000001
00000100
00001000
00000100
00000010
00010000
00022000
00000000
,
00033000
00220000
00000000
00330000
20200000
00000000
30300000
00000000
,
00010000
00100000
02000000
00000000
13000000
00100000
01000000
00001000
,
00010000
00000100
00010000
00000100
00001000
00000010
00001000
00000010
,
00000100
00000001
00000010
00000100
00001000
00000100
00000010
00001000
,
00020000
00000000
00031000
00000100
00000010
00000120
00000000
00000000
,
00001030
00000100
00000020
00000000
00000031
00000100
00000010
00010000
,
00001000
00100000
00001000
00100000
00010000
01000000
00010000
01000000
,
00100000
10000000
01000000
00100000
00010000
00100000
01000000
01100000
,
00000000
20020000
00000000
00000000
00000000
00000000
30030000
00000000
,
10000000
00100000
01000000
00100000
10000000
01000000
00010000
01000000
,
00100000
00001000
00010000
00000000
00000010
00001000
00000100
00000000
,
00000010
00000100
00001000
00000001
00000010
00000001
00001000
00000010
,
00000100
00000001
00000010
00000100
00000000
00001000
00000000
00001000
,
00000001
00000010
00000100
00000010
00000001
00000100
00001000
00000100
,
00000010
00010000
00001000
00000000
00100000
00010000
01000000
00000000
,
00100000
01000000
00010000
10000000
00100000
01000000
00020000
00000000
,
00000000
20000000
00000000
00000000
00000000
00000000
00030000
00000000
,
02000000
00000000
00000000
00000000
00000000
30000000
00000000
00200000
,
00000000
00000000
00000000
03300000
,
00002000
00000000
00000000
00000000
00000000
00000000
00000000
00020000
,
00000000
00000000
00000000
00033000
,
00000020
00000000
00000000
00000000
00000000
00000000
00000000
00000200
,
00000000
00000000
00000000
00000330
,
00022000
00033000
00002200
00003300
,
00000000
00000110
00000000
00000101
00000000
00002002
00000000
00003003
,
00000001
00000010
00000001
00000010
00000100
00010000
00000100
00010000
,
00001000
01000000
00010000
10000000
01000000
00100000
00010000
10000000
,
00100000
01000000
00100000
01000000
00001000
00010000
00001000
00010000
,
00000100
00001000
00000010
00000100
00000001
00001000
00000100
00000010
,
00000001
00001000
00000001
00001000
00000010
00000100
00000010
00000100
,
00001000
00010000
00100000
10000000
01000000
00010000
00001000
00000100
,
00000020
00000000
00000000
00000200
00000000
00000000
00000330
00002002
,
00000000
00000000
00000000
00003003
,
00000001
00000010
00000100
00001000
00000001
00000100
00000010
00001000
,
00000001
00000010
00001000
00010000
01000000
10000000
00100000
01000000
,
00010000
00100000
00010000
00100000
01000000
00010000
01000000
00010000
,
01000000
10000000
00010000
00100000
01000000
20000000
00000000
30010000
,
10000000
00100000
01000000
00010000
10000000
01000000
00100000
00010000
,
10000000
00100000
00010000
00001000
00000100
00000001
00000010
00000100
,
00002000
00000000
00000000
00000002
00000000
00000000
00003003
00000220
,
00000000
00000000
00000000
00000330
,
00002002
00000000
00000000
00000000
00000000
00000000
00003003
00022000
,
00000000
00000000
00000000
00033000
,
20020000
00000000
00000000
00000000
,
00000000
00000000
00000000
00000000
,
30030000
00000000
00000000
00000000
;

//---------------dance-double - ----------------
#NOTES:
     dance-double:
     :
     Medium:
     9:
     0.360719,0.450411,0.087742,0.350970,0.000000,259.000000,250.000000,9.000000,36.000000,0.000000,0.000000,0.360719,0.450411,0.087742,0.350970,0.000000,259.000000,250.000000,9.000000,36.000000,0.000000,0.000000:
00000000
00000000
00000000
00000000
,
00000000
00000000
00000000
00000000
,
00000000
00000000
00000000
00000000
,
00000000
00000000
00000000
00000000
,
00000000
00000000
00000000
00000000
,
00000000
00000000
00000000
00000000
,
00000000
00000000
00000000
00000000
,
00001001
00000000
00000110
00000000
,
00000000
00001000
00000000
00010000
00000000
00011000
00000000
00000000
,
00010000
00001000
00100000
00000000
00001000
00000000
00010000
00000010
,
00000000
00000100
00000000
00000001
00000000
00000010
00000000
00000100
,
00001000
00000001
00000010
00000000
00000001
00000000
00000100
00000010
,
00000000
00010000
00000000
00001000
00000000
00100000
00000000
00010000
,
01000000
00100000
10000000
00000000
00010000
00000000
00100000
01000000
,
00000000
10000000
00000000
00100000
00000000
00010000
00000000
00100000
,
02000000
00000000
00000000
00002000
00000000
03000000
00000000
00020000
,
00000000
00000000
00000000
00033000
,
00001000
00000000
00010000
00000000
00000100
00001000
00000100
00001000
,
00000000
00000001
00000010
00000000
00000100
00000000
00000100
00000000
,
00001000
00000000
00000001
00000000
00000100
00000010
00000100
00000010
,
00000000
00001000
00000010
00000000
00010000
00002000
00000000
00000000
,
00013000
00000000
00001000
00000000
00100000
00010000
00100000
00010000
,
00000000
10000000
01000000
00000000
00100000
00000000
00100000
00000000
,
00010000
00000000
10000000
00000000
00100000
01000000
00000000
00010000
,
00000000
10000000
00000000
10010000
00000000
00000000
00000000
00000000
,
00010000
00100000
01000000
00000000
10000000
00000000
00100000
01000000
,
00000000
00001000
00000000
00000000
00000000
00000000
00000000
00000000
,
00010000
00000100
00001000
00000000
00000010
00000000
00000100
00000001
,
00000000
00001000
00000000
00000001
00000000
00000000
00000000
00000000
,
00001000
00000100
00000010
00000000
00000001
00000000
00000100
00000010
,
00000000
00010000
00000000
00000000
00000000
00000000
00000000
00000000
,
00001000
00100000
00010000
00000000
01000000
00000000
00200000
00000000
,
00300000
20000000
00000000
30000000
00020000
00000000
00030000
00000000
,
00200000
00000000
01000000
00000000
01000000
00000000
01300000
20000000
,
00000000
00010000
00010000
30010000
,
02000000
00100000
00100000
03100000
,
00010000
00000000
00001000
00010000
00000000
00011000
00000000
00000000
,
00000200
00000000
00000010
00000000
00000010
00000000
00000310
00000002
,
00000000
00001000
00001000
00001003
,
00000020
00000000
00000100
00000000
00000100
00000000
00000130
00001000
,
00000000
00010000
00000000
00000000
00000000
00000000
00000000
00000000
,
00001000
00010000
00001000
00000000
00100000
00000000
00010000
10000000
,
00000000
00100000
01000000
00000000
00010000
00000000
00010000
00000000
,
10000000
01000000
00100000
00000000
00001000
00000000
00010000
00000010
,
00000000
00001000
00000100
00001000
00000000
00000002
00000000
00000103
,
00001000
00010000
00001000
00000000
00100000
00000000
00010000
10000000
,
00000000
00100000
01000000
00000000
00010000
00000000
00010000
00000000
,
10000000
01000000
00100000
00000000
00001000
00000000
00020000
00000000
,
00000000
00002000
00000000
00000000
00000000
00000000
00033000
00000000
,
00200000
00000000
00000000
00000000
00000000
00000000
00000000
02000000
,
00000000
00000000
00000000
03300000
,
00020000
00000000
00000000
00000000
00000000
00000000
00000000
00002000
,
00000000
00000000
00000000
00033000
,
00000200
00000000
00000000
00000000
00000000
00000000
00000000
00000020
,
00000000
00000000
00000000
00000330
,
00001001
00000000
00000110
00000000
,
00000000
00001000
00000000
00010000
00000000
00011000
00000000
00000000
,
00010000
00001000
00100000
00000000
00001000
00000000
00010000
00000010
,
00000000
00000100
00000000
00000001
00000000
00000010
00000000
00000100
,
00001000
00000001
00000010
00000000
00000001
00000000
00000100
00000010
,
00000000
00010000
00000000
00001000
00000000
00100000
00000000
00010000
,
01000000
00100000
10000000
00000000
00010000
00000000
00100000
01000000
,
00000000
10000000
00000000
00100000
00000000
00010000
00000000
00100000
,
02000000
00000000
00000000
00002000
00000000
03000000
00000000
00020000
,
00000000
00000000
00000000
00033000
,
00000010
00001000
00000100
00000000
00000010
00000001
00001000
00000000
,
00000020
00000100
00001000
00010030
,
00001000
00000000
00100000
01000000
00000000
10000000
00020000
00000000
,
00100000
00000000
10000000
00000000
10030000
00200000
00000000
00000000
,
01300000
00010000
00100000
00000000
01000000
10000000
00010000
00000000
,
02000000
00100000
00010000
03001000
,
00002000
00000000
00000000
00200000
00000000
00003000
00000000
02000000
,
00000000
00000000
00000000
00300000
,
20000000
00000000
00000000
00000000
00000000
03000000
00000000
00020000
,
00000000
00000000
00000000
30030000
,
02200000
00000000
00000000
00000000
,
00000000
00000000
00000000
00000000
,
03300000
00000000
00000000
00000000
;
