#TITLE:Tutorial;
#SUBTITLE:;
#ARTIST:Kawai Sprite;
#TITLETRANSLIT:;
#SUBTITLETRANSLIT:;
#ARTISTTRANSLIT:;
#GENRE:Friday Night Funkin';
#CREDIT:;
#BANNER:Tutorial.png;
#BACKGROUND:../bg.png;
#LYRICSPATH:;
#CDTITLE:../cdtitle.png;
#MUSIC:Tutorial.ogg;
#OFFSET:2.097000;
#SAMPLESTART:9.901000;
#SAMPLELENGTH:15.000000;
#LASTBEATHINT:1.828333;
#SELECTABLE:YES;
#BPMS:0.000000=100.000000
;
#STOPS:
;
#BGCHANGES: -1.000=Tutorial.avi=1.000=0=0=0=StretchNoLoop====,
99999=-nosongbg-=1.000=0=0=0 // don't automatically add -songbackground-
;
#KEYSOUNDS:;
#ATTACKS:;

//---------------dance-single - ----------------
#NOTES:
     dance-single:
     :
     Hard:
     7:
     0.230688,0.360000,0.162963,0.044444,0.000000,109.000000,98.000000,11.000000,3.000000,0.000000,0.000000,0.230688,0.360000,0.162963,0.044444,0.000000,109.000000,98.000000,11.000000,3.000000,0.000000,0.000000:
// measure 0
0000
0000
0000
0000
,  // measure 1
0000
0000
0000
0000
,  // measure 2
0000
0000
0000
0000
,  // measure 3
0000
0000
0000
0000
,  // measure 4
0000
0000
0000
0000
,  // measure 5
1000
0010
0001
0010
,  // measure 6
1000
0010
0001
0010
,  // measure 7
1000
0100
0001
0100
,  // measure 8
1000
0100
0001
0100
,  // measure 9
0010
1000
0100
1000
,  // measure 10
0010
1000
0100
1000
,  // measure 11
0010
0001
0100
0001
,  // measure 12
0010
0001
0100
0001
,  // measure 13
1000
0100
0010
0001
,  // measure 14
0100
1000
0001
0010
,  // measure 15
1000
0100
0010
0001
,  // measure 16
0100
1000
0001
0010
,  // measure 17
0100
0010
0100
0010
0110
0000
0000
0000
,  // measure 18
0100
0010
0100
0010
1001
0000
0000
0000
,  // measure 19
0100
0010
0100
0010
0110
0000
0000
0000
,  // measure 20
0100
0010
0100
0010
1001
0000
0000
0000
,  // measure 21
0100
0010
0001
0010
0100
0000
1001
0000
,  // measure 22
0100
0010
0001
0010
0100
0000
1001
0000
,  // measure 23
0001
0100
0101
0000
1000
0100
1100
0000
,  // measure 24
0010
0001
0011
0000
1000
0010
1010
0000
,  // measure 25
0210
0010
0000
0310
,  // measure 26
2000
0001
0000
3002
,  // measure 27
0003
0000
0000
0000
;

//---------------dance-single - ----------------
#NOTES:
     dance-single:
     :
     Medium:
     5:
     0.198942,0.280000,0.148148,0.044444,0.000000,94.000000,84.000000,10.000000,3.000000,0.000000,0.000000,0.198942,0.280000,0.148148,0.044444,0.000000,94.000000,84.000000,10.000000,3.000000,0.000000,0.000000:
// measure 0
0000
0000
0000
0000
,  // measure 1
0000
0000
0000
0000
,  // measure 2
0000
0000
0000
0000
,  // measure 3
0000
0000
0000
0000
,  // measure 4
0000
0000
0000
0000
,  // measure 5
1000
0010
0001
0010
,  // measure 6
1000
0010
0001
0010
,  // measure 7
1000
0100
0001
0100
,  // measure 8
1000
0100
0001
0100
,  // measure 9
0010
1000
0100
1000
,  // measure 10
0010
1000
0100
1000
,  // measure 11
0010
0001
0100
0001
,  // measure 12
0010
0001
0100
0001
,  // measure 13
1000
0100
0010
0001
,  // measure 14
0100
1000
0001
0010
,  // measure 15
1000
0100
0010
0001
,  // measure 16
0100
1000
0001
0010
,  // measure 17
0100
0100
0110
0000
,  // measure 18
0100
0100
1001
0000
,  // measure 19
0100
0100
0110
0000
,  // measure 20
0100
0100
1001
0000
,  // measure 21
0100
0010
0001
0010
0000
0000
0101
0000
,  // measure 22
0100
0010
0001
0010
0000
0000
0101
0000
,  // measure 23
0001
0101
1000
1100
,  // measure 24
0010
0011
1000
1010
,  // measure 25
0200
0010
0000
0310
,  // measure 26
2000
0001
0000
3002
,  // measure 27
0003
0000
0000
0000
;

//---------------dance-single - ----------------
#NOTES:
     dance-single:
     :
     Easy:
     3:
     0.116402,0.207778,0.000000,0.014815,0.000000,55.000000,55.000000,0.000000,1.000000,0.000000,0.000000,0.116402,0.207778,0.000000,0.014815,0.000000,55.000000,55.000000,0.000000,1.000000,0.000000,0.000000:
// measure 0
0000
0000
0000
0000
,  // measure 1
0000
0000
0000
0000
,  // measure 2
0000
0000
0000
0000
,  // measure 3
0000
0000
0000
0000
,  // measure 4
0000
0000
0000
0000
,  // measure 5
1000
0000
0001
0000
,  // measure 6
1000
0000
0001
0000
,  // measure 7
1000
0000
0001
0000
,  // measure 8
1000
0000
0001
0000
,  // measure 9
0010
0000
0100
0000
,  // measure 10
0010
0000
0100
0000
,  // measure 11
0010
0000
0100
0000
,  // measure 12
0010
0000
0100
0000
,  // measure 13
1000
0000
0010
0000
,  // measure 14
0100
0000
0001
0000
,  // measure 15
1000
0000
0010
0000
,  // measure 16
0100
0000
0001
0000
,  // measure 17
0100
0100
0010
0000
,  // measure 18
0100
0100
0001
0000
,  // measure 19
0100
0100
0010
0000
,  // measure 20
0100
0100
0001
0000
,  // measure 21
0100
0010
0001
0010
0000
0000
0001
0000
,  // measure 22
0100
0010
0001
0010
0000
0000
0001
0000
,  // measure 23
0001
0100
1000
0100
,  // measure 24
0010
0001
1000
0010
,  // measure 25
0200
0000
0300
0000
;

//---------------dance-single - ----------------
#NOTES:
     dance-single:
     :
     Beginner:
     2:
     0.067725,0.188889,0.000000,0.014815,0.000000,32.000000,32.000000,0.000000,1.000000,0.000000,0.000000,0.067725,0.188889,0.000000,0.014815,0.000000,32.000000,32.000000,0.000000,1.000000,0.000000,0.000000:
// measure 0
0000
0000
0000
0000
,  // measure 1
0000
0000
0000
0000
,  // measure 2
0000
0000
0000
0000
,  // measure 3
0000
0000
0000
0000
,  // measure 4
0000
0000
0000
0000
,  // measure 5
0000
0000
0000
0000
,  // measure 6
0000
0000
0000
0000
,  // measure 7
1000
0000
0001
0000
,  // measure 8
1000
0000
0001
0000
,  // measure 9
0000
0000
0000
0000
,  // measure 10
0000
0000
0000
0000
,  // measure 11
0010
0000
0100
0000
,  // measure 12
0010
0000
0100
0000
,  // measure 13
0000
0000
0000
0000
,  // measure 14
0000
0000
0000
0000
,  // measure 15
1000
0000
0010
0000
,  // measure 16
0100
0000
0001
0000
,  // measure 17
0000
0000
0000
0000
,  // measure 18
0000
0000
0000
0000
,  // measure 19
0100
0100
0010
0000
,  // measure 20
0100
0100
0001
0000
,  // measure 21
0000
0000
0000
0000
,  // measure 22
0100
0010
0001
0010
0000
0000
0001
0000
,  // measure 23
0001
0100
1000
0100
,  // measure 24
0010
0001
1000
0010
,  // measure 25
0200
0000
0300
0000
;

//---------------dance-single - FNF Hard----------------
#NOTES:
     dance-single:
     :
     Edit:
     6:
     0.150265,0.331111,0.000000,0.014815,0.059259,71.000000,71.000000,0.000000,1.000000,0.000000,0.000000,0.150265,0.331111,0.000000,0.014815,0.059259,71.000000,71.000000,0.000000,1.000000,0.000000,0.000000:
// measure 0
0000
0000
0000
0000
,  // measure 1
0000
0000
0000
0000
,  // measure 2
0000
0000
0000
0000
,  // measure 3
0000
0000
0000
0000
,  // measure 4
0000
0000
0000
0000
,  // measure 5
1000
0000
0001
0000
,  // measure 6
1000
0000
0001
0000
,  // measure 7
1000
0000
0001
0000
,  // measure 8
1000
0000
0001
0000
,  // measure 9
0010
0000
0100
0000
,  // measure 10
0010
0000
0100
0000
,  // measure 11
0010
0000
0100
0000
,  // measure 12
0010
0000
0100
0000
,  // measure 13
1000
0000
0010
0000
,  // measure 14
0100
0000
0001
0000
,  // measure 15
1000
0000
0010
0000
,  // measure 16
0100
0000
0001
0000
,  // measure 17
0100
0100
0010
0000
,  // measure 18
0100
0100
0001
0000
,  // measure 19
0100
0100
0010
0000
,  // measure 20
0100
0100
0001
0000
,  // measure 21
0100
0010
0001
0010
0000
0000
0001
0000
,  // measure 22
0100
0010
0001
0010
0000
0000
0001
0000
,  // measure 23
0001
0100
1000
0100
,  // measure 24
0010
0001
1000
0010
,  // measure 25
0200
0000
0300
0000
,  // measure 26
0000
0000
0000
0000
,  // measure 27
1000
0100
0010
0001
0010
0100
1000
0100
0010
0001
0010
0001
0010
0001
0100
1000
;
