#TITLE:Tutorial;
#SUBTITLE:[B-Side Remix];
#ARTIST:Rozebud;
#TITLETRANSLIT:;
#SUBTITLETRANSLIT:;
#ARTISTTRANSLIT:;
#GENRE:Friday Night Funkin';
#CREDIT:;
#BANNER:Tutorial [B-Side Remix].png;
#BACKGROUND:../bg.png;
#LYRICSPATH:;
#CDTITLE:../cdtitle.png;
#MUSIC:Tutorial [B-Side Remix].ogg;
#OFFSET:1.970000;
#SAMPLESTART:8.029000;
#SAMPLELENGTH:15.000000;
#LASTBEATHINT:1.940000;
#SELECTABLE:YES;
#BPMS:0.000000=120.000000
;
#STOPS:
;
#BGCHANGES: -1.000=Tutorial [B-Side Remix].avi=1.000=0=0=0=StretchNoLoop====,
99999=-nosongbg-=1.000=0=0=0 // don't automatically add -songbackground-
;
#KEYSOUNDS:;
#ATTACKS:;

//---------------dance-single - ----------------
#NOTES:
     dance-single:
     :
     Hard:
     12:
     0.326381,0.511304,0.000000,0.507703,0.097635,117.000000,117.000000,0.000000,26.000000,0.000000,0.000000,0.326381,0.511304,0.000000,0.507703,0.097635,117.000000,117.000000,0.000000,26.000000,0.000000,0.000000:
0000
0000
0000
0000
,
0000
0000
0000
0000
,
0000
0000
0000
0000
,
0000
0000
0000
0000
,
0000
0000
0000
0000
,
0020
0031
0200
0301
,
2000
3100
0002
0103
,
0200
1300
0020
1030
,
0002
0013
2000
3010
,
2000
3100
0020
0031
,
0200
0310
0002
1003
,
0002
0013
0200
1300
,
0020
0130
2000
3001
,
0100
0010
0100
0000
0020
0000
0130
0000
,
0100
0010
0100
0000
0002
0000
1003
0000
,
0010
0100
0010
0000
0200
0000
0310
0000
,
0010
0100
0010
0000
2000
0000
3001
0000
,
0100
0010
0100
0001
0010
0100
0010
0000
,
0001
0000
0100
0100
0001
0000
0010
0000
1000
0000
1000
0000
0100
0000
0000
0000
,
0010
0100
0010
1000
0100
0010
0100
0000
,
1000
0000
0010
0010
1000
0000
0100
0000
0001
0000
0001
0000
0010
0000
0000
0000
,
0010
0000
1000
1000
0100
0100
0001
0000
1000
0000
0010
0010
0001
0000
0000
0000
,
0200
0000
0301
0001
0010
0010
2000
0000
3001
0000
0100
0100
2000
0000
3000
0000
,
2000
0000
3000
0000
0010
0000
0100
0000
0001
0010
0001
0000
0200
0000
0000
0000
,
0300
0000
0010
0000
0001
0000
0020
0000
0130
0000
1000
0000
0100
0000
0001
1000
;

//---------------dance-single - ----------------
#NOTES:
     dance-single:
     :
     Medium:
     11:
     0.239904,0.462608,0.000000,0.019527,0.097635,86.000000,86.000000,0.000000,1.000000,0.000000,0.000000,0.239904,0.462608,0.000000,0.019527,0.097635,86.000000,86.000000,0.000000,1.000000,0.000000,0.000000:
0000
0000
0000
0000
,
0000
0000
0000
0000
,
0000
0000
0000
0000
,
0000
0000
0000
0000
,
0000
0000
0000
0000
,
0010
0000
0100
0000
,
1000
0000
0001
0000
,
0010
0000
0100
0000
,
1000
0000
0001
0000
,
1000
0000
0010
0000
,
0100
0000
0001
0000
,
1000
0000
0010
0000
,
0100
0000
0001
0000
,
0100
0100
0010
0000
,
0100
0100
0001
0000
,
0100
0100
0010
0000
,
0100
0100
0001
0000
,
0100
0010
0100
0001
0000
1000
0010
0000
,
0001
0000
0100
0100
0001
0000
0010
0000
0000
0000
1000
0000
0100
0000
0000
0000
,
0100
0010
0100
0001
0000
1000
0010
0000
,
0001
0000
0100
0100
0001
0000
0010
0000
0000
0000
1000
0000
0100
0000
0000
0000
,
0010
0000
1000
1000
0100
0100
0001
0000
0000
0000
0010
0010
0001
0000
0000
0000
,
0010
0000
1000
1000
0100
0100
0001
0000
0000
0000
0010
0010
0001
0000
0000
0000
,
0001
0000
0000
0000
0100
0000
0010
0000
1000
0100
1000
0000
2000
0000
0000
0000
,
3000
0000
0100
0000
1000
0000
0010
0000
0000
0000
0001
0000
0010
0000
1000
0100
;

//---------------dance-single - ----------------
#NOTES:
     dance-single:
     :
     Easy:
     7:
     0.212008,0.317315,0.000000,0.039054,0.000000,76.000000,76.000000,0.000000,2.000000,0.000000,0.000000,0.212008,0.317315,0.000000,0.039054,0.000000,76.000000,76.000000,0.000000,2.000000,0.000000,0.000000:
0000
0000
0000
0000
,
0000
0000
0000
0000
,
0000
0000
0000
0000
,
0000
0000
0000
0000
,
0000
0000
0000
0000
,
0010
0000
0100
0000
,
1000
0000
0001
0000
,
0010
0000
0100
0000
,
1000
0000
0001
0000
,
1000
0000
0010
0000
,
0100
0000
0001
0000
,
1000
0000
0010
0000
,
0100
0000
0001
0000
,
0100
0100
0010
0000
,
0100
0100
0001
0000
,
0100
0100
0010
0000
,
0100
0100
0001
0000
,
0100
0010
0100
0001
0000
1000
0010
0000
,
0001
0100
0001
0010
0000
1000
0100
0000
,
0100
0010
0100
0001
0000
1000
0010
0000
,
0001
0100
0001
0010
0000
1000
0100
0000
,
0010
1000
0100
0001
0000
0010
0001
0000
,
0010
1000
0100
0001
0000
0010
0001
0000
,
0001
0000
0100
0010
1000
1000
2000
0000
,
3000
0100
1000
0010
0000
0001
0010
2000
,
3000
0000
0000
0000
;

//---------------dance-single - ----------------
#NOTES:
     dance-single:
     :
     Beginner:
     2:
     0.080898,0.169153,0.000000,0.019527,0.000000,29.000000,29.000000,0.000000,1.000000,0.000000,0.000000,0.080898,0.169153,0.000000,0.019527,0.000000,29.000000,29.000000,0.000000,1.000000,0.000000,0.000000:
0000
0000
0000
0000
,
0000
0000
0000
0000
,
0000
0000
0000
0000
,
0000
0000
0000
0000
,
0000
0000
0000
0000
,
0000
0000
0000
0000
,
0000
0000
0000
0000
,
0010
0000
0100
0000
,
1000
0000
0001
0000
,
0000
0000
0000
0000
,
0000
0000
0000
0000
,
1000
0000
0010
0000
,
0100
0000
0001
0000
,
0000
0000
0000
0000
,
0000
0000
0000
0000
,
0100
0100
0010
0000
,
0100
0100
0001
0000
,
0000
0000
0000
0000
,
0000
0000
0000
0000
,
0100
0100
0000
0010
,
0001
0001
0000
0100
,
0000
0000
0000
0000
,
0010
0100
0000
0001
,
0001
0100
1000
2000
,
3000
1000
0000
0010
;

//---------------dance-single - FNF Hard----------------
#NOTES:
     dance-single:
     :
     Edit:
     11:
     0.239904,0.462608,0.000000,0.019527,0.097635,86.000000,86.000000,0.000000,1.000000,0.000000,0.000000,0.239904,0.462608,0.000000,0.019527,0.097635,86.000000,86.000000,0.000000,1.000000,0.000000,0.000000:
// measure 0
0000
0000
0000
0000
,  // measure 1
0000
0000
0000
0000
,  // measure 2
0000
0000
0000
0000
,  // measure 3
0000
0000
0000
0000
,  // measure 4
0000
0000
0000
0000
,  // measure 5
0010
0000
0100
0000
,  // measure 6
1000
0000
0001
0000
,  // measure 7
0100
0000
0010
0000
,  // measure 8
0001
0000
1000
0000
,  // measure 9
1000
0000
0010
0000
,  // measure 10
0100
0000
0001
0000
,  // measure 11
0001
0000
0100
0000
,  // measure 12
0010
0000
1000
0000
,  // measure 13
0100
0100
0010
0000
,  // measure 14
0100
0100
0001
0000
,  // measure 15
0010
0010
0100
0000
,  // measure 16
0010
0010
1000
0000
,  // measure 17
0100
0010
0100
0001
0000
1000
0010
0000
,  // measure 18
0001
0000
0100
0100
0001
0000
0010
0000
0000
0000
1000
0000
0100
0000
0000
0000
,  // measure 19
0010
0100
0010
1000
0000
0001
0100
0000
,  // measure 20
1000
0000
0010
0010
1000
0000
0100
0000
0000
0000
0001
0000
0010
0000
0000
0000
,  // measure 21
0010
0000
1000
1000
0100
0100
0001
0000
0000
0000
0010
0010
0001
0000
0000
0000
,  // measure 22
0100
0000
0001
0001
0010
0010
1000
0000
0000
0000
0100
0100
1000
0000
0000
0000
,  // measure 23
1000
0000
0000
0000
0010
0000
0100
0000
0001
0010
0001
0000
0002
0000
0000
0000
,  // measure 24
0003
0000
0010
0000
0001
0000
0100
0000
0000
0000
1000
0000
0100
0000
0001
0010
;
