#VERSION:0.83;
#TITLE:Tri Poloski;
#SUBTITLE:;
#ARTIST:Davay;
#TITLETRANSLIT:;
#SUBTITLETRANSLIT:;
#ARTISTTRANSLIT:;
#GENRE:World Music;
#ORIGIN:;
#CREDIT:;
#BANNER:Tri Poloski.png;
#BACKGROUND:Tri Poloski-bg.png;
#PREVIEWVID:;
#JACKET:Tri Poloski-jacket.png;
#CDIMAGE:;
#DISCIMAGE:;
#LYRICSPATH:;
#CDTITLE:../cdtitle.png;
#MUSIC:Tri Poloski.ogg;
#OFFSET:-0.398000;
#SAMPLESTART:17.488001;
#SAMPLELENGTH:15.000000;
#SELECTABLE:YES;
#BPMS:0.000=165.000;
#STOPS:43.000=1.091;
#DELAYS:;
#WARPS:;
#TIMESIGNATURES:0.000=4=4;
#TICKCOUNTS:0.000=4;
#COMBOS:0.000=1;
#SPEEDS:0.000=1.000=0.000=0;
#SCROLLS:0.000=1.000;
#FAKES:;
#LABELS:0.000=Song Start;
#BGCHANGES:2.000=Tri Poloski.avi=1.000=0=0=0=StretchNoLoop====,
99999=-nosongbg-=1.000=0=0=0 // don't automatically add -songbackground-
;
#KEYSOUNDS:;
#ATTACKS:
;

//---------------dance-single - ----------------
#NOTEDATA:;
#CHARTNAME:;
#STEPSTYPE:dance-single;
#DESCRIPTION:;
#CHARTSTYLE:;
#DIFFICULTY:Hard;
#METER:13;
#RADARVALUES:0.584383,0.623100,0.133807,0.009558,0.138586,428.000000,414.000000,14.000000,1.000000,0.000000,0.000000,0.000000,0.000000,0.000000,0.584383,0.623100,0.133807,0.009558,0.138586,428.000000,414.000000,14.000000,1.000000,0.000000,0.000000,0.000000,0.000000,0.000000;
#CREDIT:led_light;
#NOTES:
// measure 0
0000
0000
0000
0000
,  // measure 1
0000
0000
0000
0000
,  // measure 2
0000
0000
0000
0000
,  // measure 3
0000
0000
0000
0000
,  // measure 4
0000
0000
0000
0000
,  // measure 5
0000
0000
0000
0000
,  // measure 6
0000
0000
0000
0000
,  // measure 7
0000
0000
0000
0000
,  // measure 8
0000
0000
0000
0000
,  // measure 9
0000
0000
0000
0000
,  // measure 10
0000
0000
0000
0000
,  // measure 11
1100
0000
0001
0000
0100
0000
0001
0000
1000
0000
0001
0000
0010
0100
0010
0000
,  // measure 12
0001
0000
0100
0000
0010
0000
1000
0000
0001
0000
0000
0001
0010
0000
0100
0000
,  // measure 13
1000
0000
0001
0000
1000
0000
0100
0000
1000
0000
0001
0000
1000
0010
1000
0000
,  // measure 14
0001
0000
0010
0000
0100
0000
0010
0000
0001
0000
0000
0001
0100
0000
0010
0000
,  // measure 15
1000
0000
0001
0000
1000
0000
0100
0000
0001
0000
0100
0000
1000
0100
1000
0000
,  // measure 16
0001
0000
0100
0000
0010
0000
1000
0000
0001
0000
0000
0001
0010
0000
0100
0000
,  // measure 17
1000
0000
0001
0000
1000
0000
0010
0000
0100
0000
0010
0000
0001
0010
0001
0000
,  // measure 18
0000
0000
0010
0000
1000
0000
0000
0000
0001
0000
0000
0001
0000
0000
0001
0000
,  // measure 19
1000
0000
0100
0000
0010
0000
0100
0000
1000
0000
0100
0000
0001
0100
0001
0000
,  // measure 20
0100
0000
1000
0000
0001
0000
0100
0000
0010
0000
0000
0010
1000
0000
0001
0000
,  // measure 21
0010
0100
1000
0100
0010
0000
1001
0000
,  // measure 22
0010
0000
0100
0000
0001
0000
0100
0000
0010
0000
0000
0010
1000
0000
0001
0000
,  // measure 23
0010
0100
1000
0100
0010
0000
1100
0000
,  // measure 24
0001
0000
0100
0000
0010
0000
0100
0000
0001
0000
0000
0001
1000
0000
0010
0000
,  // measure 25
1000
0100
0001
0100
1000
0000
1100
0000
,  // measure 26
0001
0000
0010
0000
1000
0000
0010
0000
0001
0000
0000
0001
0010
0000
0100
0000
,  // measure 27
0000
0000
1000
0000
0000
0000
1000
0000
0000
0000
0001
0000
0000
1000
0100
0000
,  // measure 28
0000
1000
0001
0100
0010
0000
0110
0000
,  // measure 29
1001
0000
0001
0010
0001
0000
0110
0000
,  // measure 30
0100
0000
1000
0000
0010
0000
1000
0000
0100
0000
0000
0100
0010
0000
0001
0000
,  // measure 31
0100
0000
0001
0000
1000
0000
0010
0000
0100
0000
0010
0000
1000
0010
1000
0000
,  // measure 32
0001
0000
0010
0000
0001
0000
0010
0000
0100
0000
0000
0100
1000
0000
0001
0000
,  // measure 33
0100
1000
0100
0001
1000
0000
1100
0000
,  // measure 34
0100
0000
0001
0000
0100
0000
1000
0000
0001
0000
0000
0001
0000
0000
0001
0000
,  // measure 35
0000
0100
0000
0100
0000
0010
1000
0010
,  // measure 36
0000
0000
0001
0000
0000
0000
0001
0000
0000
0000
0010
0000
0000
0000
1000
0100
,  // measure 37
0000
1000
0000
1000
0000
0100
0010
0001
,  // measure 38
0000
0000
0001
0000
0000
0000
0100
0000
0000
0000
0100
0000
0000
0000
0001
0010
,  // measure 39
0100
1000
0001
1000
0100
1000
0001
1000
,  // measure 40
0010
0000
0100
0000
1000
0000
0100
0000
0010
0000
0100
0000
0001
0000
0100
0010
,  // measure 41
1000
0100
0010
0100
0001
0100
0010
0100
,  // measure 42
1000
0000
1000
0000
1000
1000
0010
0000
,  // measure 43
1001
0001
0010
0100
0010
0001
0010
1000
,  // measure 44
0010
0000
0001
0000
0100
0000
0010
0000
1000
0000
0100
0000
1000
0000
0001
0100
,  // measure 45
0010
1000
0100
0010
0100
1000
0100
0001
,  // measure 46
0100
0000
1000
0000
0010
0000
0100
0000
0001
0000
0010
0000
0001
0000
1000
0010
,  // measure 47
0100
0001
0010
0100
0010
0001
0100
0010
,  // measure 48
0001
0000
0010
0000
0100
0000
0010
0000
1000
0000
0100
0000
0010
0000
0100
1000
,  // measure 49
0001
0100
0010
0100
0001
0010
0100
1000
,  // measure 50
0010
0000
0000
0010
0000
0000
0010
0000
0100
0000
0010
0000
0100
0000
0000
0000
,  // measure 51
1010
0001
1000
0001
0010
0001
1000
0001
,  // measure 52
0100
0000
0010
0000
0001
0000
0010
0000
0100
0000
0010
0000
1000
0000
0010
0100
,  // measure 53
0001
0010
0100
0010
1000
0010
0100
0010
,  // measure 54
0001
0000
1000
0000
0010
0000
1000
0000
0001
0000
0100
0000
0010
0000
1000
0001
,  // measure 55
1000
0001
0010
0100
0010
0001
0010
1000
,  // measure 56
0010
0000
0001
0000
0100
0000
0010
0000
1000
0000
0100
0000
1000
0000
0001
0100
,  // measure 57
0010
1000
0100
0010
0100
1000
0100
0001
,  // measure 58
0100
0000
0100
0000
0100
1000
0010
0000
,  // measure 59
0011
0100
0010
0001
0010
0100
1000
0010
,  // measure 60
0100
1000
0100
0010
0100
1000
0100
0000
,  // measure 61
0101
0010
0100
0001
0100
0010
1000
0100
,  // measure 62
0010
1000
0010
0100
0010
1000
0010
0000
,  // measure 63
0011
0100
0010
0001
0100
0010
1000
0100
,  // measure 64
0010
0100
1000
0010
0100
0010
1000
0000
,  // measure 65
1100
0010
0100
1000
0010
0100
0001
0010
,  // measure 66
0000
0000
0010
0000
0000
0000
0100
0000
0000
0000
0100
0000
0000
0000
1000
0002
,  // measure 67
0000
0000
0000
0000
,  // measure 68
0000
0000
0000
0000
0000
0003
0000
0000
;

//---------------dance-single - ----------------
#NOTEDATA:;
#CHARTNAME:;
#STEPSTYPE:dance-single;
#DESCRIPTION:;
#CHARTSTYLE:;
#DIFFICULTY:Medium;
#METER:10;
#RADARVALUES:0.434191,0.512291,0.449211,0.009558,0.000000,318.000000,271.000000,47.000000,1.000000,0.000000,0.000000,0.000000,0.000000,0.000000,0.434191,0.512291,0.449211,0.009558,0.000000,318.000000,271.000000,47.000000,1.000000,0.000000,0.000000,0.000000,0.000000,0.000000;
#CREDIT:led_light;
#NOTES:
// measure 0
0000
0000
0000
0000
,  // measure 1
0000
0000
0000
0000
,  // measure 2
0000
0000
0000
0000
,  // measure 3
0000
0000
0000
0000
,  // measure 4
0000
0000
0000
0000
,  // measure 5
0000
0000
0000
0000
,  // measure 6
0000
0000
0000
0000
,  // measure 7
0000
0000
0000
0000
,  // measure 8
0000
0000
0000
0000
,  // measure 9
0000
0000
0000
0000
,  // measure 10
0000
0000
0000
0000
,  // measure 11
0100
1000
0010
0000
0100
0000
0011
0000
,  // measure 12
1000
0000
0010
0100
0010
0000
1001
0000
,  // measure 13
0001
1000
0100
0000
0001
0000
0110
0000
,  // measure 14
0001
0000
0100
0010
0100
0000
1001
0000
,  // measure 15
0010
0001
0100
0000
0010
0000
1100
0000
,  // measure 16
0001
0000
0100
0010
0100
0000
1001
0000
,  // measure 17
1000
0100
0010
0000
0001
0000
1100
0000
,  // measure 18
0000
0001
1000
0000
0010
0000
0010
0000
,  // measure 19
1000
0100
1000
0000
0010
0000
0010
0000
,  // measure 20
1000
0100
0001
0100
1000
0000
1001
0000
,  // measure 21
0000
0000
0010
0100
0010
0000
1001
0000
,  // measure 22
0010
0100
0010
0100
0010
0000
1001
0000
,  // measure 23
0001
0010
0100
0000
1000
0000
0110
0000
,  // measure 24
0001
0010
1000
0010
0001
0000
1001
0000
,  // measure 25
0000
0000
0100
0010
0100
0000
1001
0000
,  // measure 26
0100
0010
0100
0010
0100
0000
1001
0000
,  // measure 27
0000
1000
0000
1000
0000
0001
0000
0010
,  // measure 28
0000
0010
0100
0000
1000
0000
1001
0000
,  // measure 29
0110
0000
0001
1000
0001
0000
0110
0000
,  // measure 30
0001
1000
0001
1000
0001
0000
0110
0000
,  // measure 31
1000
0010
1000
0000
0001
0000
1100
0000
,  // measure 32
0001
0010
0001
0000
1000
0000
0101
0000
,  // measure 33
0000
0000
1000
0001
1000
0000
0110
0000
,  // measure 34
1000
0001
1000
0001
1000
0000
0001
0000
,  // measure 35
2000
0000
0000
0000
,  // measure 36
0000
0000
0000
0000
,  // measure 37
0000
0000
0000
0000
,  // measure 38
3000
0000
0000
0000
,  // measure 39
0100
0100
0000
0101
0000
0001
1000
0010
,  // measure 40
0000
0011
0000
0010
0000
1010
0000
1000
,  // measure 41
0100
0100
0000
0101
0000
1000
0001
0100
,  // measure 42
0010
0000
0010
0000
0010
0100
0010
0000
,  // measure 43
1000
0001
0000
0011
0000
0100
1000
0100
,  // measure 44
0000
1001
0000
0100
1000
0100
1000
0000
,  // measure 45
1000
0001
0000
0101
0000
0010
1000
0001
,  // measure 46
0000
0110
0000
0001
1000
0100
0010
0000
,  // measure 47
0001
1000
0000
1100
0000
0010
0001
0010
,  // measure 48
0000
1001
0000
0010
0001
0010
0001
0000
,  // measure 49
0001
1000
0000
1010
0000
0100
0001
1000
,  // measure 50
0010
0000
0000
0000
0010
0100
0010
0000
,  // measure 51
1000
0100
0000
0101
0000
1000
0010
1000
,  // measure 52
0000
0011
0000
0100
0000
1001
0000
0010
,  // measure 53
0001
0010
0000
1010
0000
0001
0100
0001
,  // measure 54
0000
1100
0000
0010
0000
1001
0000
0100
,  // measure 55
1000
0100
0000
0101
0000
0010
0100
0010
,  // measure 56
0000
1100
0000
0010
0000
0101
0000
0100
,  // measure 57
0001
0010
0000
1010
0000
0100
0010
0100
,  // measure 58
1000
0000
1000
0000
1000
0100
1000
0000
,  // measure 59
0110
0000
0001
0000
1000
0100
0010
0001
,  // measure 60
0000
0001
0000
0001
0100
0010
1000
0000
,  // measure 61
0110
0000
1000
0000
0001
0100
0010
1000
,  // measure 62
0000
0100
0000
0100
0010
0100
0010
0000
,  // measure 63
1001
0000
0010
0000
0100
0001
1000
0010
,  // measure 64
0000
0010
0000
0010
0001
0010
1000
0000
,  // measure 65
1001
0000
0001
0000
0010
0100
1000
0010
,  // measure 66
0100
0000
0100
0000
0001
0010
0100
0000
,  // measure 67
1001
0000
0000
0000
;

//---------------dance-single - ----------------
#NOTEDATA:;
#CHARTNAME:;
#STEPSTYPE:dance-single;
#DESCRIPTION:;
#CHARTSTYLE:;
#DIFFICULTY:Easy;
#METER:8;
#RADARVALUES:0.331788,0.448255,0.200711,0.019115,0.000000,243.000000,222.000000,21.000000,2.000000,0.000000,0.000000,0.000000,0.000000,0.000000,0.331788,0.448255,0.200711,0.019115,0.000000,243.000000,222.000000,21.000000,2.000000,0.000000,0.000000,0.000000,0.000000,0.000000;
#CREDIT:led_light;
#NOTES:
// measure 0
0000
0000
0000
0000
,  // measure 1
0000
0000
0000
0000
,  // measure 2
0000
0000
0000
0000
,  // measure 3
0000
0000
0000
0000
,  // measure 4
0000
0000
0000
0000
,  // measure 5
0000
0000
0000
0000
,  // measure 6
0000
0000
0000
0000
,  // measure 7
0000
0000
0000
0000
,  // measure 8
0000
0000
0000
0000
,  // measure 9
0000
0000
0000
0000
,  // measure 10
0000
0000
0000
0000
,  // measure 11
1000
0001
0100
0000
0010
0000
1000
0000
,  // measure 12
0100
0100
0010
1100
,  // measure 13
0001
1000
0010
0000
0100
0000
0100
0000
,  // measure 14
0001
0001
0010
0110
,  // measure 15
0001
0100
0001
0000
1000
0000
1000
0000
,  // measure 16
0010
0010
0100
1010
,  // measure 17
1000
0100
1000
0000
0001
0000
0001
0000
,  // measure 18
0000
0010
0100
0000
1000
0000
0000
0000
,  // measure 19
0001
0100
0010
0000
1000
0000
0100
0000
,  // measure 20
0010
0100
1000
0000
0010
0000
0110
0000
,  // measure 21
0000
0010
0010
1001
,  // measure 22
0010
0100
0010
0000
0100
0000
1001
0000
,  // measure 23
1000
0010
0100
0000
0001
0000
0010
0000
,  // measure 24
0100
0010
0001
0000
0100
0000
0110
0000
,  // measure 25
0000
0100
0100
1001
,  // measure 26
0100
0010
0100
0000
0010
0000
1001
0000
,  // measure 27
0000
0100
0100
0100
,  // measure 28
0000
1000
1000
1001
,  // measure 29
0010
0000
1000
0100
1000
0000
1001
0000
,  // measure 30
0001
0100
0001
0000
0010
0000
1100
0000
,  // measure 31
0001
0010
0100
0000
1000
0000
0010
0000
,  // measure 32
0100
0010
1000
0000
0100
0000
0110
0000
,  // measure 33
0001
0010
0010
1001
,  // measure 34
1000
0010
0100
0000
0001
0000
1000
0000
,  // measure 35
0002
0000
0000
0000
,  // measure 36
0000
0000
0000
0000
,  // measure 37
0000
0000
0000
0000
,  // measure 38
0003
0000
0000
0000
,  // measure 39
1000
0010
1000
0010
,  // measure 40
1000
0100
1000
0100
,  // measure 41
1000
0001
1000
0001
,  // measure 42
1000
0000
0000
0000
,  // measure 43
0100
0010
0100
0000
1000
0000
0010
0000
,  // measure 44
1000
0100
0001
0100
,  // measure 45
0010
0100
0010
0000
0001
0000
0100
0000
,  // measure 46
0001
0010
0100
1000
,  // measure 47
1001
0010
0001
0010
,  // measure 48
1000
0010
0100
0010
,  // measure 49
1001
0100
1000
0100
,  // measure 50
0010
0000
0010
0010
,  // measure 51
0110
0001
1000
0001
,  // measure 52
1000
0100
1000
0010
,  // measure 53
0001
0100
0001
0010
,  // measure 54
0001
0100
0001
0010
,  // measure 55
1000
0100
1000
0010
,  // measure 56
1000
0100
1000
0010
,  // measure 57
0001
0100
1000
0100
,  // measure 58
1000
1000
1000
0010
,  // measure 59
0110
0001
1000
0100
,  // measure 60
1000
0000
1000
0000
0010
0100
0010
0000
,  // measure 61
0011
1000
0001
0010
,  // measure 62
0001
0000
0001
0000
0010
0100
0010
0000
,  // measure 63
1001
0100
0001
0100
,  // measure 64
1000
0000
0100
0000
0010
0100
0010
0000
,  // measure 65
1001
0010
0001
0010
,  // measure 66
1000
0000
1000
0000
1000
0001
2000
0000
,  // measure 67
3001
0000
0000
0000
;

//---------------dance-single - ----------------
#NOTEDATA:;
#CHARTNAME:;
#STEPSTYPE:dance-single;
#DESCRIPTION:;
#CHARTSTYLE:;
#DIFFICULTY:Beginner;
#METER:4;
#RADARVALUES:0.162480,0.224127,0.000000,0.019115,0.000000,119.000000,119.000000,0.000000,2.000000,0.000000,0.000000,0.000000,0.000000,0.000000,0.162480,0.224127,0.000000,0.019115,0.000000,119.000000,119.000000,0.000000,2.000000,0.000000,0.000000,0.000000,0.000000,0.000000;
#CREDIT:led_light;
#NOTES:
// measure 0
0000
0000
0000
0000
,  // measure 1
0000
0000
0000
0000
,  // measure 2
0000
0000
0000
0000
,  // measure 3
0000
0000
0000
0000
,  // measure 4
0000
0000
0000
0000
,  // measure 5
0000
0000
0000
0000
,  // measure 6
0000
0000
0000
0000
,  // measure 7
0000
0000
0000
0000
,  // measure 8
0000
0000
0000
0000
,  // measure 9
0000
0000
0000
0000
,  // measure 10
0000
0000
0000
0000
,  // measure 11
1000
0000
1000
0000
,  // measure 12
1000
0000
0001
0000
,  // measure 13
0010
0000
0010
0000
,  // measure 14
0010
0000
0100
0000
,  // measure 15
0001
0000
0001
0000
,  // measure 16
0001
0000
1000
0000
,  // measure 17
0100
0000
0100
0000
,  // measure 18
0000
0010
0010
0000
,  // measure 19
1000
1000
1000
0000
,  // measure 20
1000
0100
1000
0000
,  // measure 21
0000
0010
0010
0000
,  // measure 22
0010
0010
0010
0000
,  // measure 23
0001
0001
0001
0000
,  // measure 24
0001
0100
0001
0000
,  // measure 25
0000
0010
0010
0000
,  // measure 26
0010
0010
0010
0000
,  // measure 27
0000
0000
0000
0000
,  // measure 28
0000
0010
1000
1000
,  // measure 29
0000
0100
0100
0000
,  // measure 30
0100
0100
0100
0000
,  // measure 31
0010
0000
0100
0000
,  // measure 32
0010
0010
0001
0000
,  // measure 33
0000
0100
0100
0000
,  // measure 34
0100
0100
0100
0000
,  // measure 35
0020
0000
0000
0000
,  // measure 36
0000
0000
0000
0000
,  // measure 37
0030
0000
0000
0000
,  // measure 38
0000
0000
0000
0000
,  // measure 39
1000
0000
0100
0000
,  // measure 40
1000
0000
0100
0000
,  // measure 41
1000
0000
1000
0000
,  // measure 42
0010
0000
0000
0000
,  // measure 43
1000
0000
1000
0000
,  // measure 44
0001
0000
0010
0000
,  // measure 45
1000
0000
1000
0000
,  // measure 46
0100
0000
0001
0000
,  // measure 47
0010
0000
0010
0000
,  // measure 48
0100
0000
0100
0000
,  // measure 49
1000
0000
1000
0000
,  // measure 50
0001
0000
0000
0000
,  // measure 51
1000
0000
0100
0000
,  // measure 52
1000
0000
0010
0000
,  // measure 53
1000
0000
1000
0000
,  // measure 54
0100
0000
0100
0000
,  // measure 55
0001
0000
0010
0000
,  // measure 56
0001
0000
0100
0000
,  // measure 57
0001
0000
0001
0000
,  // measure 58
1000
0000
0000
0000
,  // measure 59
0010
0010
0010
0000
,  // measure 60
1000
0100
1000
0000
,  // measure 61
0001
0001
0001
0000
,  // measure 62
0010
0100
0010
0000
,  // measure 63
1000
1000
1000
0000
,  // measure 64
0100
0010
0100
0000
,  // measure 65
0001
1000
0001
0000
,  // measure 66
1000
1000
1000
2000
,  // measure 67
3000
0000
0000
0000
;
