#VERSION:0.83;
#TITLE:Total Eclipse (Black Out);
#SUBTITLE:;
#ARTIST:GWSN;
#TITLETRANSLIT:;
#SUBTITLETRANSLIT:;
#ARTISTTRANSLIT:;
#GENRE:K-Pop;
#ORIGIN:;
#CREDIT:;
#BANNER:Total Eclipse (Black Out).png;
#BACKGROUND:Total Eclipse (Black Out)-bg.png;
#PREVIEWVID:;
#JACKET:Total Eclipse (Black Out)-jacket.png;
#CDIMAGE:;
#DISCIMAGE:;
#LYRICSPATH:;
#CDTITLE:../cdtitle.png;
#MUSIC:Total Eclipse (Black Out).ogg;
#OFFSET:1.525000;
#SAMPLESTART:46.855000;
#SAMPLELENGTH:15.000000;
#SELECTABLE:YES;
#BPMS:0.000=124.000;
#STOPS:;
#DELAYS:;
#WARPS:;
#TIMESIGNATURES:0.000=4=4;
#TICKCOUNTS:0.000=4;
#COMBOS:0.000=1;
#SPEEDS:0.000=1.000=0.000=0;
#SCROLLS:0.000=1.000;
#FAKES:;
#LABELS:0.000=Song Start;
#BGCHANGES:3.375=Total Eclipse (Black Out).avi=1.000=0=0=0=StretchNoLoop====,
99999=-nosongbg-=1.000=0=0=0 // don't automatically add -songbackground-
;
#KEYSOUNDS:;
#ATTACKS:
;

//---------------dance-single - ----------------
#NOTEDATA:;
#CHARTNAME:;
#STEPSTYPE:dance-single;
#DESCRIPTION:;
#CHARTSTYLE:;
#DIFFICULTY:Challenge;
#METER:14;
#RADARVALUES:0.518105,0.618679,0.173831,0.402971,0.596555,459.000000,437.000000,22.000000,51.000000,36.000000,0.000000,0.000000,0.000000,0.000000,0.518105,0.618679,0.173831,0.402971,0.596555,459.000000,437.000000,22.000000,51.000000,36.000000,0.000000,0.000000,0.000000,0.000000;
#CREDIT:led_light;
#NOTES:
0000
0000
0000
0000
,
0000
0000
0000
0000
,
0000
0000
0000
0000
,
0000
0000
0000
0000
,
0000
0000
0000
0000
,
MMMM
0000
0001
0010
1000
0000
0010
0000
0001
0000
0100
0000
0020
0000
0030
0000
,
MMMM
0000
0001
0100
0010
0000
1000
0000
0100
0000
0010
0000
0200
0000
0300
0000
,
MMMM
0001
1000
0010
0100
0010
1000
0001
,
0020
0000
0030
0010
0100
0100
0100
0000
,
MMMM
0000
0001
0100
1000
0000
0100
0000
0001
0000
0010
0000
0200
0000
0000
0000
,
0310
0000
0001
0010
0100
0000
1000
0000
0010
0000
0100
0000
0020
0000
0000
0000
,
1030
0001
1000
0100
0010
0100
1000
0001
,
0020
0000
0000
0030
0000
0000
0001
0010
0100
1000
0100
0010
,
0001
0000
1000
0100
0000
0000
1000
0100
0001
0100
1000
0001
,
0020
0000
0000
0030
0000
0000
MMMM
0000
0000
0000
0000
0000
1000
0000
0100
0000
0010
0000
0001
0000
0010
0000
0100
0000
,
2000
0000
0000
3010
0000
0000
0002
0000
0023
0000
0030
0000
0200
0000
0000
0000
,
1300
0000
1000
0000
0100
0000
0001
0000
0001
0000
0010
0000
0110
0000
0000
0000
0000
1000
0001
0000
0010
0000
0000
0100
,
0010
0000
0000
0000
0000
0000
1100
0000
0000
0000
0000
0000
0010
0000
0000
0000
0000
0001
0000
0000
0001
0100
0000
0010
,
0000
1000
1000
1000
1000
0100
0002
0003
,
1010
0000
0000
0000
0000
0000
0001
0000
0000
0000
0000
0000
1100
0000
0000
0000
0000
1000
0001
0000
0000
0010
0000
0000
,
0100
0000
0000
0010
0000
0000
0010
0000
0000
0010
0000
0000
0010
0000
0000
0001
0000
0000
1000
0000
0010
0000
0000
0100
,
0010
0000
0000
0000
0000
0000
0101
0000
0000
0000
0000
0000
0010
0000
0000
0000
0000
0000
1100
0000
0000
0000
0000
1000
,
0001
0000
0000
0010
0000
0100
0000
0000
1000
0000
0000
0100
0000
0000
0010
0000
0000
0001
0000
0000
2000
0000
0000
0000
,
3010
0000
0000
0000
0000
0000
0101
0000
0000
0000
0000
0000
0010
0000
0000
0000
0000
1000
0100
0000
0000
0010
0000
0000
,
1000
0010
0010
0010
0010
0001
2000
3000
,
0001
0100
0000
0010
0000
1000
0000
0001
0000
0000
0200
0000
0010
0000
0300
0000
,
1000
0100
0000
0010
0000
0001
0000
1000
0000
0000
0200
0000
0020
0000
0330
0000
,
0001
0010
0000
0100
0000
1000
0000
0001
0000
0000
0200
0000
0020
0000
0330
0000
,
1010
0001
0021
0130
,
1000
0100
0000
0010
0000
0001
0000
1000
0000
0000
0200
0000
0010
0000
0300
0000
,
0001
0100
0000
0010
0000
1000
0000
0001
0000
0000
0200
0000
0020
0000
0330
0000
,
1000
0010
0000
0100
0000
0001
0000
1000
0000
0000
0200
0000
0020
0000
0330
0000
,
0110
0000
0000
0001
0000
0000
1000
0100
0001
1000
0010
0001
,
1000
0000
0000
1000
0000
0000
0100
0000
0010
0000
0000
0010
0000
0000
0001
0000
,
2000
0000
0000
0000
3000
0000
0000
0000
0001
0100
0010
1000
0001
0000
0010
0000
,
0100
0100
0000
1000
0001
0001
0000
1000
,
0020
0000
0000
0000
0030
0000
0100
0000
0010
1000
0010
0100
0001
0000
0010
0100
,
0000
0010
0000
0020
0000
0000
0030
0010
0100
0000
1000
0000
0001
0000
0100
0010
,
0000
0100
0000
0200
0000
0000
0310
0000
0100
0001
0010
0100
1000
0000
0100
0010
,
0000
0001
0000
0002
0000
0000
0003
0000
1000
0000
0001
0000
0010
0000
0000
0000
,
2100
0000
0000
0000
0002
0000
3003
MMMM
,
0210
0000
0000
0000
0301
1000
0100
1000
0001
0000
0010
0100
0010
0000
0001
0000
,
1000
0000
0000
1000
0010
0100
0001
0010
0100
0000
1000
0100
1000
0000
0010
0000
,
MMMM
0000
0001
0100
0001
0000
0010
0000
MMMM
0000
1000
0100
1000
0000
0010
0000
,
MMMM
0000
0001
0100
0001
0000
0010
0000
1000
0010
0100
1000
0010
0000
0200
0000
,
0002
0000
0303
0000
1000
0010
0001
0010
1000
0000
0100
0001
0100
0000
1000
0000
,
0010
0000
0000
0010
0100
0001
0010
0100
0010
0000
0100
1000
0001
0000
0010
0000
,
0100
0000
1000
0010
0100
0000
0010
0000
0100
0000
0001
0010
0100
0000
0010
0000
,
1000
0000
1000
0000
0010
0000
0001
0000
0001
0000
0100
0000
0110
0000
0000
0000
0000
1000
0001
0000
0100
0000
0000
0010
,
0100
0000
0000
0000
0000
0000
1010
0000
0000
0000
0000
0000
0100
0000
0000
0000
0000
0001
0000
0000
0001
0010
0000
0100
,
0000
1000
1000
1000
1000
0010
0002
0003
,
1100
0000
0000
0000
0000
0000
0001
0000
0000
0000
0000
0000
1010
0000
0000
0000
0000
1000
0001
0000
0000
0100
0000
0000
,
0010
0000
0000
0100
0000
0000
0100
0000
0000
0100
0000
0000
0100
0000
0000
0001
0000
0000
1000
0000
0100
0000
0000
0010
,
0100
0000
0000
0000
0000
0000
0011
0000
0000
0000
0000
0000
0100
0000
0000
0000
0000
0000
1010
0000
0000
0000
0000
1000
,
0001
0000
0000
0100
0000
0010
0000
0000
1000
0000
0000
0010
0000
0000
0100
0000
0000
0001
0000
0000
2000
0000
0000
0000
,
3100
0000
0000
0000
0000
0000
0011
0000
0000
0000
0000
0000
0100
0000
0000
0000
0000
1000
0010
0000
0000
0100
0000
0000
,
1000
0100
0100
0100
0100
0001
2000
3000
,
0001
0010
0000
0100
0000
1000
0000
0001
0000
0000
0020
0000
0100
0000
0030
0000
,
1000
0010
0000
0100
0000
0001
0000
1000
0000
0000
0020
0000
0200
0000
0330
0000
,
0001
0100
0000
0010
0000
1000
0000
0001
0000
0000
0020
0000
0200
0000
0330
0000
,
1100
0001
0201
0310
,
1000
0010
0000
0100
0000
0001
0000
1000
0000
0000
0020
0000
0100
0000
0030
0000
,
0001
0010
0000
0100
0000
1000
0000
0001
0000
0000
0020
0000
0200
0000
0330
0000
,
1000
0100
0000
0010
0000
0001
0000
1000
0000
0000
0020
0000
0200
0000
0330
0000
,
1002
0000
0013
0000
1000
0010
0001
0100
,
2000
3000
0000
0000
;

//---------------dance-single - ----------------
#NOTEDATA:;
#CHARTNAME:;
#STEPSTYPE:dance-single;
#DESCRIPTION:;
#CHARTSTYLE:;
#DIFFICULTY:Hard;
#METER:11;
#RADARVALUES:0.414259,0.489787,0.339760,0.142225,0.134324,367.000000,324.000000,43.000000,18.000000,0.000000,0.000000,0.000000,0.000000,0.000000,0.414259,0.489787,0.339760,0.142225,0.134324,367.000000,324.000000,43.000000,18.000000,0.000000,0.000000,0.000000,0.000000,0.000000;
#CREDIT:led_light;
#NOTES:
0000
0000
0000
0000
,
0000
0000
0000
0000
,
0000
0000
0000
0000
,
0000
0000
0000
0000
,
0000
0000
0000
0000
,
0000
0001
0000
0001
,
0000
1000
0000
1000
,
0000
0010
0000
0010
,
0000
0100
0000
0100
,
0100
0000
0001
0000
1000
0100
0001
0000
,
0100
0000
0001
0000
0100
1000
0001
0000
,
1000
0000
1000
0000
0001
0010
0100
0010
,
0002
0000
0000
0003
0000
0000
1000
0100
0010
0001
0100
0010
,
1000
0000
0000
1010
0000
0000
0001
0100
0010
1000
0100
0010
,
0001
0000
0000
0011
0000
0000
0100
0010
0001
0100
0010
1000
,
0001
0000
0000
0010
0000
0000
1000
0000
0020
0000
0030
0000
0002
0000
0000
0000
,
0103
0010
0100
0010
0100
0010
0100
0000
0000
0010
0000
0000
,
1100
0001
1100
0001
,
1000
0010
0010
0010
0001
0010
1000
0000
,
1010
0001
0110
0001
,
0010
0100
0100
0100
0010
0001
0100
0000
,
0101
1000
0101
1000
,
0001
0010
1000
0000
1000
0010
0001
0000
,
0011
1000
0110
1000
,
0010
0100
0100
0100
0010
1000
0100
0000
,
0001
0100
1000
0100
0001
0000
1100
0000
,
0010
0001
0100
0001
0010
0000
1010
0000
,
0001
0010
1000
0010
0001
0000
0110
0000
,
1001
0100
1001
0010
,
0001
0010
1000
0010
0001
0000
1100
0000
,
0100
1000
0010
1000
0100
0000
0101
0000
,
1000
0100
0001
0100
1000
0000
0110
0000
,
1001
0000
0000
0010
0000
0000
1000
0100
0010
0100
1000
0001
,
0020
0030
0200
0300
,
2000
0000
3000
0000
0001
0100
0010
1000
,
0002
0003
2000
3000
,
0200
0000
0000
0000
0300
0000
0000
0000
0001
0000
0100
0000
1000
0000
0000
0001
,
0000
0010
0000
0020
0000
0000
0030
0000
1000
0000
0010
0000
0001
0000
0000
1000
,
0000
0010
0000
0020
0000
0000
0030
0000
0100
0000
0010
0000
1000
0000
0000
0100
,
0000
0010
0000
0002
0000
0000
0003
0000
2000
0000
0000
0000
3001
0000
0000
0000
,
0220
0000
0330
0000
,
1001
0000
0001
0100
0010
0100
0001
1000
,
0001
0000
0010
0100
1000
0001
1000
0001
,
0000
1000
0100
1000
0000
0001
0100
0001
,
0000
0010
0100
0010
0001
0010
0100
1000
,
0002
0003
1001
0000
0101
0000
1001
0100
,
0010
0000
1001
0000
1100
1000
0001
0010
,
0000
0100
1000
0010
0000
0100
0001
0010
,
0100
0010
0100
0010
0100
0010
0200
0000
0000
0310
0000
0000
,
1010
0001
1010
0001
,
1000
0100
0100
0100
0001
0100
1000
0000
,
1100
0001
0110
0001
,
0100
0010
0010
0010
0100
0001
0010
0000
,
0011
1000
0011
1000
,
0001
0100
1000
0000
1000
0100
0001
0000
,
0101
1000
0110
1000
,
0100
0010
0010
0010
0100
1000
0010
0000
,
0001
0010
1000
0010
0001
0000
1010
0000
,
0100
0001
0010
0001
0100
0000
1100
0000
,
0001
0100
1000
0100
0001
0000
0110
0000
,
1001
0010
1001
0100
,
0001
0100
1000
0100
0001
0000
1010
0000
,
0010
1000
0100
1000
0010
0000
0011
0000
,
1000
0010
0001
0010
1000
0000
0110
0000
,
1001
0000
0010
0000
0001
0010
1000
0100
,
0002
0003
0000
0000
;

//---------------dance-single - ----------------
#NOTEDATA:;
#CHARTNAME:;
#STEPSTYPE:dance-single;
#DESCRIPTION:;
#CHARTSTYLE:;
#DIFFICULTY:Medium;
#METER:7;
#RADARVALUES:0.301382,0.335118,0.379267,0.150126,0.000000,267.000000,219.000000,48.000000,19.000000,0.000000,0.000000,0.000000,0.000000,0.000000,0.301382,0.335118,0.379267,0.150126,0.000000,267.000000,219.000000,48.000000,19.000000,0.000000,0.000000,0.000000,0.000000,0.000000;
#CREDIT:led_light;
#NOTES:
0000
0000
0000
0000
,
0000
0000
0000
0000
,
0000
0000
0000
0000
,
0000
0000
0000
0000
,
0000
0000
0000
0000
,
0000
0001
0000
0001
,
0000
0001
0000
0001
,
0000
1000
0000
1000
,
0000
1000
0000
1000
,
0001
0100
0001
0101
,
1000
0100
1000
1100
,
0001
0010
1000
0010
,
0002
0003
0010
0010
,
0100
1100
0010
0010
,
0202
0303
0100
0001
,
1000
1000
0100
2000
,
3001
0001
0110
0000
,
1001
0100
1001
0010
,
1000
0100
0100
0100
,
0110
0001
0110
1000
,
0010
0001
0001
0001
,
1001
0010
1001
0100
,
1000
0010
0001
0010
,
0110
1000
0110
0001
,
0010
1000
1000
1000
,
0010
0001
0010
1100
,
0100
1000
0100
0101
,
0010
1000
0010
0110
,
0001
0101
0010
1100
,
0100
0001
0100
1010
,
0010
1000
0010
0011
,
0100
1000
0100
0110
,
1001
0001
0100
1000
,
0200
0300
0002
0003
,
2000
3000
0010
0001
,
0020
0030
2000
3000
,
0002
0003
0100
1000
,
0100
0200
0310
0001
,
0010
0020
1030
0100
,
1000
2000
3001
0010
,
0220
0000
0330
0000
,
1001
0010
0100
0010
,
0000
0010
0100
0010
,
1000
1100
0001
0101
,
0001
0010
1000
0100
,
0002
0013
0010
1010
,
1000
0100
0100
0101
,
0001
0011
1000
1100
,
0010
0010
2002
3003
,
0110
0001
0110
1000
,
0100
0001
0001
0001
,
1001
0010
1001
0100
,
1000
0010
0010
0010
,
0110
1000
0110
0001
,
0100
1000
0010
1000
,
1001
0100
1001
0010
,
1000
0100
0100
0100
,
1000
0010
1000
0101
,
0001
0100
0001
0011
,
1000
0100
1000
1001
,
0010
0011
1000
0101
,
0001
0010
0001
1100
,
1000
0100
1000
1010
,
0001
0100
0001
1001
,
0110
0010
0001
0100
,
2000
3000
0000
0000
;

//---------------dance-single - ----------------
#NOTEDATA:;
#CHARTNAME:;
#STEPSTYPE:dance-single;
#DESCRIPTION:;
#CHARTSTYLE:;
#DIFFICULTY:Easy;
#METER:5;
#RADARVALUES:0.242686,0.283561,0.355563,0.402971,0.000000,215.000000,170.000000,45.000000,51.000000,0.000000,0.000000,0.000000,0.000000,0.000000,0.242686,0.283561,0.355563,0.402971,0.000000,215.000000,170.000000,45.000000,51.000000,0.000000,0.000000,0.000000,0.000000,0.000000;
#CREDIT:led_light;
#NOTES:
0000
0000
0000
0000
,
0000
0000
0000
0000
,
0000
0000
0000
0000
,
0000
0000
0000
0000
,
0000
0000
0000
0000
,
0000
0100
0002
0003
,
0000
1000
0020
0030
,
0000
0001
2000
3000
,
0002
0003
1000
1000
,
0001
0010
2000
3000
,
0001
0100
2000
3000
,
0001
0010
1000
0100
,
0002
0003
1000
1000
,
0022
0033
0100
0100
,
2020
3030
0001
0001
,
0020
0030
2000
3000
,
0202
0000
0303
0000
,
1100
0000
0101
0000
,
0000
1000
0100
0100
,
0011
0000
1010
0000
,
0000
0010
0001
0001
,
1010
0000
0101
0000
,
1000
0100
0001
0010
,
0110
0000
1001
0000
,
0100
0001
0001
0100
,
1000
0001
2200
3300
,
0001
0100
0001
1001
,
0010
1000
0022
0033
,
0110
0000
2200
3300
,
0001
1000
0202
0303
,
1000
0100
1000
1001
,
0010
0001
2020
3030
,
0110
0000
0100
0100
,
0002
0003
0020
0030
,
0200
0300
0100
0100
,
2000
3000
0020
0030
,
0200
0300
0010
0010
,
0002
0003
0100
0100
,
2000
3000
0010
0010
,
0200
0300
0020
0030
,
2002
0000
3003
0000
,
1001
0100
0001
0000
,
1001
0100
1000
0000
,
0001
0101
1000
1100
,
0001
0010
1000
1000
,
2000
3001
0100
1100
,
0000
1000
0100
0101
,
0000
0010
0001
0010
,
2020
0000
3030
0000
,
0011
0000
1010
0000
,
0000
0001
0010
0010
,
1100
0000
0101
0000
,
0000
0100
1000
1000
,
0101
0000
1010
0000
,
0001
0010
1000
0100
,
0110
0000
1001
0000
,
0010
1000
1000
0010
,
0001
1000
0022
0033
,
1000
0010
1000
1001
,
0100
0001
2200
3300
,
0110
0000
0022
0033
,
1000
0001
2020
3030
,
0001
0010
0001
1001
,
0100
1000
0202
0303
,
0110
0000
1000
0100
,
0002
0003
0000
0000
;

//---------------dance-single - ----------------
#NOTEDATA:;
#CHARTNAME:;
#STEPSTYPE:dance-single;
#DESCRIPTION:;
#CHARTSTYLE:;
#DIFFICULTY:Beginner;
#METER:3;
#RADARVALUES:0.152384,0.206226,0.197535,0.039507,0.000000,135.000000,110.000000,25.000000,5.000000,0.000000,0.000000,0.000000,0.000000,0.000000,0.152384,0.206226,0.197535,0.039507,0.000000,135.000000,110.000000,25.000000,5.000000,0.000000,0.000000,0.000000,0.000000,0.000000;
#CREDIT:led_light;
#NOTES:
0000
0000
0000
0000
,
0000
0000
0000
0000
,
0000
0000
0000
0000
,
0000
0000
0000
0000
,
0000
0000
0000
0000
,
0001
0000
0000
0000
,
0100
0000
0000
0000
,
1000
0000
0000
0000
,
0001
0000
0000
0000
,
1000
0000
0000
0000
,
0010
0000
0000
0000
,
0001
0000
0000
0000
,
1000
0000
0000
0000
,
0001
0000
0001
0000
,
0001
0000
0000
0000
,
0010
0000
0010
0000
,
0020
0000
0030
0000
,
0110
0000
1001
0000
,
0000
1000
1000
0000
,
1001
0000
0110
0000
,
0000
0010
0010
0000
,
0110
0000
1001
0000
,
0010
0000
0100
0000
,
1001
0000
0110
0000
,
0000
0100
0100
0000
,
0010
0010
0010
0000
,
0001
0001
0001
0000
,
1000
1000
1000
0000
,
1001
0000
0110
0000
,
1000
1000
1000
0000
,
0100
0100
0100
0000
,
0010
0010
0010
0000
,
0110
0000
1001
0000
,
0020
0000
0000
0000
,
0030
0000
0000
0000
,
0200
0000
0000
0000
,
0300
0000
0000
0000
,
1000
0000
0000
0000
,
1000
0000
0000
0000
,
0001
0000
0000
0000
,
1001
0000
0000
0000
,
0001
0000
0000
0000
,
0001
0000
0000
0000
,
0000
1000
0000
1000
,
0000
0010
0010
0000
,
0100
0000
0001
0000
,
0010
0000
0001
0000
,
1000
0000
0001
0000
,
2000
0000
3000
0000
,
1001
0000
0110
0000
,
0000
0100
0100
0000
,
0110
0000
1001
0000
,
0000
1000
1000
0000
,
1001
0000
0110
0000
,
1000
0000
0001
0000
,
0110
0000
1001
0000
,
0000
0001
0001
0000
,
1000
1000
1000
0000
,
0010
0010
0010
0000
,
0100
0100
0100
0000
,
0110
0000
1001
0000
,
0100
0100
0100
0000
,
0001
0001
0001
0000
,
1000
1000
1000
0000
,
1001
0000
0110
0000
,
0200
0300
0000
0000
;

//---------------dance-double - ----------------
#NOTEDATA:;
#CHARTNAME:;
#STEPSTYPE:dance-double;
#DESCRIPTION:;
#CHARTSTYLE:;
#DIFFICULTY:Challenge;
#METER:14;
#RADARVALUES:0.515848,0.618679,0.173831,0.402971,0.592604,457.000000,435.000000,22.000000,51.000000,88.000000,0.000000,0.000000,0.000000,0.000000,0.515848,0.618679,0.173831,0.402971,0.592604,457.000000,435.000000,22.000000,51.000000,88.000000,0.000000,0.000000,0.000000,0.000000;
#CREDIT:led_light;
#NOTES:
// measure 0
00000000
00000000
00000000
00000000
,  // measure 1
00000000
00000000
00000000
00000000
,  // measure 2
00000000
00000000
00000000
00000000
,  // measure 3
00000000
00000000
00000000
00000000
,  // measure 4
00000000
00000000
00000000
00000000
,  // measure 5
MMMMMMMM
00000000
00000001
00000100
00000010
00000000
00001000
00000000
00010000
00000000
01000000
00000000
00200000
00000000
00300000
00000000
,  // measure 6
MMMMMMMM
00000000
01000000
00100000
00010000
00000000
00001000
00000000
00000100
00000000
00000010
00000000
00000002
00000000
00000003
00000000
,  // measure 7
MMMMMMMM
00000001
00001000
00000001
00000010
00000001
00000100
00001000
,  // measure 8
00020000
00000000
00030000
01000000
00100000
00100000
00100000
00000000
,  // measure 9
MMMMMMMM
00000000
10000000
00100000
01000000
00000000
00010000
00000000
00001000
00000000
00000010
00000000
00000200
00000000
00000000
00000000
,  // measure 10
00000301
00000000
00000010
00000100
00001000
00000000
00010000
00000000
00100000
00000000
01000000
00000000
20000000
00000000
00000000
00000000
,  // measure 11
30100000
10000000
00010000
10000000
01000000
10000000
00100000
00010000
,  // measure 12
00002000
00000000
00000000
00003000
00000000
00000000
00001000
00010000
00100000
01000000
00100000
00010000
,  // measure 13
00001000
00000000
00010000
00000100
00000000
00000000
00010000
00000010
00001000
00000010
00000100
00000001
,  // measure 14
00002000
00000000
00000000
00003000
00000000
00000000
MMMMMMMM
00000000
00000000
00000000
00000000
00000000
00001000
00000000
00000001
00000000
00000010
00000000
00000100
00000000
00001000
00000000
00000001
00000000
,  // measure 15
00002000
00000000
00000000
00003010
00000000
00000000
00020000
00000000
00032000
00000000
00003000
00000000
00200000
00000000
00000000
00000000
,  // measure 16
00310000
00000000
00010000
00000000
00001000
00000000
00010000
00000000
00010000
00000000
00100000
00000000
01100000
00000000
00000000
00000000
00000000
10000000
00010000
00000000
01000000
00000000
00000000
00100000
,  // measure 17
10000000
00000000
00000000
00000000
00000000
00000000
01010000
00000000
00000000
00000000
00000000
00000000
00001000
00000000
00000000
00000000
00000000
00100000
00000000
00000000
00100000
00001000
00000000
00010000
,  // measure 18
00000000
00000010
00000100
00000010
00000001
00000010
00002000
00003000
,  // measure 19
00001010
00000000
00000000
00000000
00000000
00000000
00000001
00000000
00000000
00000000
00000000
00000000
00001100
00000000
00000000
00000000
00000000
00000100
00010000
00000000
00000000
00001000
00000000
00000000
,  // measure 20
01000000
00000000
00000000
00100000
00000000
00000000
00010000
00000000
00000000
00100000
00000000
00000000
01000000
00000000
00000000
00010000
00000000
00000000
10000000
00000000
01000000
00000000
00000000
00100000
,  // measure 21
00010000
00000000
00000000
00000000
00000000
00000000
01010000
00000000
00000000
00000000
00000000
00000000
00100000
00000000
00000000
00000000
00000000
00000000
10100000
00000000
00000000
00000000
00000000
10000000
,  // measure 22
00010000
00000000
00000000
00100000
00000000
01000000
00000000
00000000
10000000
00000000
00000000
01000000
00000000
00000000
00010000
00000000
00000000
00001000
00000000
00000000
00000020
00000000
00000000
00000000
,  // measure 23
00000031
00000000
00000000
00000000
00000000
00000000
00001100
00000000
00000000
00000000
00000000
00000000
00000001
00000000
00000000
00000000
00000000
00000100
00000010
00000000
00000000
00010000
00000000
00000000
,  // measure 24
00001000
00100000
01000000
00100000
10000000
00100000
00020000
00030000
,  // measure 25
10000000
00100000
00000000
01000000
00000000
00010000
00000000
00001000
00000000
00000000
00000020
00000000
00000100
00000000
00000030
00000000
,  // measure 26
00000001
00000010
00000000
00000100
00000000
00001000
00000000
00010000
00000000
00000000
00200000
00000000
02000000
00000000
03300000
00000000
,  // measure 27
10000000
01000000
00000000
00100000
00000000
00010000
00000000
00001000
00000000
00000000
00000200
00000000
00000020
00000000
00000330
00000000
,  // measure 28
00000011
00000000
00001000
00000000
00000201
00000000
00000310
MMMMMMMM
,  // measure 29
00000001
00000010
00000000
00000100
00000000
00001000
00000000
00010000
00000000
00000000
00200000
00000000
01000000
00000000
00300000
00000000
,  // measure 30
10000000
00100000
00000000
01000000
00000000
00010000
00000000
00001000
00000000
00000000
00000020
00000000
00000200
00000000
00000330
00000000
,  // measure 31
00000001
00000100
00000000
00000010
00000000
00001000
00000000
00010000
00000000
00000000
02000000
00000000
00200000
00000000
03300000
00000000
,  // measure 32
10100000
00000000
00000000
00010000
00000000
00000000
10000000
01000000
00100000
00010000
00001000
00000100
,  // measure 33
00001000
00000000
00000000
00001000
00000000
00000000
00000001
00000000
00000100
00000000
00000000
00000100
00000000
00000000
00000010
00000000
,  // measure 34
00002000
00000000
00000000
00000000
00003000
00000000
00000000
00000000
00000001
00000010
00000100
00001000
00000100
00000000
00001000
00000000
,  // measure 35
00000001
00000001
00000000
00000100
00001000
00001000
00000000
00010000
,  // measure 36
00002000
00000000
00000000
00000000
00003000
00000000
01000000
00000000
00010000
10000000
01000000
00100000
00010000
00000000
00100000
01000000
,  // measure 37
00000000
00100000
00000000
00200000
00000000
00000000
00300000
00000000
01000000
00000000
00010000
00000000
00001000
00000000
00000100
00000010
,  // measure 38
00000000
00000100
00000000
00000200
00000000
00000000
00000300
00000000
00000010
00001000
00000010
00001000
00000001
00000000
00000010
00000100
,  // measure 39
00000000
00010000
00000000
00002000
00000000
00000000
00003000
00000000
00100000
00000000
00010000
00000000
10000000
00000000
00000000
00000000
,  // measure 40
12000000
00000000
00000000
00000000
00020000
00000000
03030000
MMMMMMMM
,  // measure 41
00012000
00000000
00000000
00000000
00103000
00010000
10000000
00010000
00100000
00000000
01000000
10000000
00010000
00000000
01000000
00000000
,  // measure 42
00001000
00000000
00000000
00010000
00000010
00001000
00000010
00001000
00000001
00000000
00001000
00000100
00010000
00000000
00001000
00000000
,  // measure 43
MMMMMMMM
00000000
00010000
01000000
00100000
00000000
00010000
00000000
MMMMMMMM
00000000
00001000
00000100
00000010
00000000
00001000
00000000
,  // measure 44
MMMMMMMM
00000000
00010000
01000000
00100000
00000000
10000000
00000000
01000000
00100000
01000000
00100000
00010000
00000000
02000000
00000000
,  // measure 45
00002000
00000000
03003000
00000000
00010000
00001000
00010000
00001000
00100000
00000000
00001000
00010000
00000010
00000000
00001000
00000000
,  // measure 46
00000100
00000000
00000000
00010000
00001000
00010000
00001000
00010000
00000100
00000000
00010000
00001000
01000000
00000000
00010000
00000000
,  // measure 47
10000000
00000000
01000000
00100000
01000000
00000000
00010000
00000000
00001000
00000000
00000100
00000010
00000100
00000000
00000001
00000000
,  // measure 48
00001000
00000000
00001000
00000000
00010000
00000000
00001000
00000000
00001000
00000000
00000010
00000000
00000110
00000000
00000000
00000000
00000000
00000001
00001000
00000000
00000100
00000000
00000000
00000010
,  // measure 49
00000001
00000000
00000000
00000000
00000000
00000000
00001100
00000000
00000000
00000000
00000000
00000000
00010000
00000000
00000000
00000000
00000000
00000010
00000000
00000000
00000010
00010000
00000000
00001000
,  // measure 50
00000000
00100000
01000000
00100000
10000000
00100000
00020000
00030000
,  // measure 51
00110000
00000000
00000000
00000000
00000000
00000000
10000000
00000000
00000000
00000000
00000000
00000000
01010000
00000000
00000000
00000000
00000000
01000000
00001000
00000000
00000000
00010000
00000000
00000000
,  // measure 52
00000100
00000000
00000000
00000010
00000000
00000000
00001000
00000000
00000000
00000010
00000000
00000000
00000100
00000000
00000000
00001000
00000000
00000000
00000001
00000000
00000100
00000000
00000000
00000010
,  // measure 53
00001000
00000000
00000000
00000000
00000000
00000000
00001100
00000000
00000000
00000000
00000000
00000000
00000010
00000000
00000000
00000000
00000000
00000000
00000011
00000000
00000000
00000000
00000000
00000001
,  // measure 54
00001000
00000000
00000000
00000010
00000000
00000100
00000000
00000000
00000001
00000000
00000000
00000100
00000000
00000000
00001000
00000000
00000000
00010000
00000000
00000000
00200000
00000000
00000000
00000000
,  // measure 55
10300000
00000000
00000000
00000000
00000000
00000000
01010000
00000000
00000000
00000000
00000000
00000000
10000000
00000000
00000000
00000000
00000000
01000000
00100000
00000000
00000000
00001000
00000000
00000000
,  // measure 56
00010000
00000010
00000100
00000010
00000001
00000010
00002000
00003000
,  // measure 57
00000001
00000010
00000000
00000100
00000000
00001000
00000000
00010000
00000000
00000000
00200000
00000000
01000000
00000000
00300000
00000000
,  // measure 58
10000000
00100000
00000000
01000000
00000000
00010000
00000000
00001000
00000000
00000000
00000020
00000000
00000200
00000000
00000330
00000000
,  // measure 59
00000001
00000100
00000000
00000010
00000000
00001000
00000000
00010000
00000000
00000000
02000000
00000000
00200000
00000000
03300000
00000000
,  // measure 60
10100000
00000000
00010000
00000000
12000000
00000000
03100000
MMMMMMMM
,  // measure 61
10000000
00100000
00000000
01000000
00000000
00010000
00000000
00001000
00000000
00000000
00000020
00000000
00000100
00000000
00000030
00000000
,  // measure 62
00000001
00000010
00000000
00000100
00000000
00001000
00000000
00010000
00000000
00000000
00200000
00000000
02000000
00000000
03300000
00000000
,  // measure 63
10000000
01000000
00000000
00100000
00000000
00010000
00000000
00001000
00000000
00000000
00000200
00000000
00000020
00000000
00000330
00000000
,  // measure 64
00000012
00000000
00001003
00000000
00000001
00000100
00001000
00010000
,  // measure 65
02000000
03000000
00000000
00000000
;

//---------------dance-double - ----------------
#NOTEDATA:;
#CHARTNAME:;
#STEPSTYPE:dance-double;
#DESCRIPTION:;
#CHARTSTYLE:;
#DIFFICULTY:Hard;
#METER:11;
#RADARVALUES:0.401842,0.489787,0.316056,0.150126,0.071113,356.000000,316.000000,40.000000,19.000000,0.000000,0.000000,0.000000,0.000000,0.000000,0.401842,0.489787,0.316056,0.150126,0.071113,356.000000,316.000000,40.000000,19.000000,0.000000,0.000000,0.000000,0.000000,0.000000;
#CREDIT:led_light;
#NOTES:
// measure 0
00000000
00000000
00000000
00000000
,  // measure 1
00000000
00000000
00000000
00000000
,  // measure 2
00000000
00000000
00000000
00000000
,  // measure 3
00000000
00000000
00000000
00000000
,  // measure 4
00000000
00000000
00000000
00000000
,  // measure 5
00000000
00010000
00001000
00001000
,  // measure 6
00000000
00100000
00010000
00010000
,  // measure 7
00000000
01000000
00001000
00001000
,  // measure 8
00020000
00030000
00000010
00001010
,  // measure 9
00000100
00000000
00000001
00000000
00000100
00000010
00001000
00000000
,  // measure 10
00000100
00000000
00001000
00000000
00000100
00010000
00001000
00000000
,  // measure 11
01000000
00000000
00010000
00000000
01000000
00010000
00100000
00000000
,  // measure 12
02000000
00000000
00000000
03000000
00000000
00000000
10000000
01000000
00100000
00010000
00000000
00000000
,  // measure 13
10000000
00000000
10000000
00100000
00000000
00000000
01000000
00100000
00010000
00001000
00000000
00000000
,  // measure 14
00010000
00000000
00000000
00011000
00000000
00000000
00010000
00001000
00000100
00000001
00000000
00000000
,  // measure 15
00001000
00000000
00000000
00000010
00000000
00000000
00000010
00000000
00000200
00000000
00000300
00000000
00000002
00000000
00000000
00000000
,  // measure 16
00000013
00000100
00000010
00000100
00000010
00000100
00000010
00000000
00000000
00000100
00000000
00000000
,  // measure 17
00001001
00000100
00001001
00000100
,  // measure 18
00010000
00001000
00100000
00010000
01000000
00100000
10000000
00000000
,  // measure 19
10100000
00010000
11000000
00100000
,  // measure 20
00010000
01000000
00100000
01000000
00001000
00010000
01000000
00000000
,  // measure 21
01100000
00010000
01100000
10000000
,  // measure 22
01000000
00010000
00001000
00000000
00010000
00001000
00000100
00000000
,  // measure 23
00000101
00000010
00001100
00000010
,  // measure 24
00001000
00000100
00010000
00000010
00001000
00000100
00000010
00000000
,  // measure 25
00000001
00000100
00000010
00001000
00010000
00000000
01010000
00000000
,  // measure 26
00001000
00100000
00010000
10000000
01000000
00000000
00110000
00000000
,  // measure 27
10000000
00100000
01000000
00010000
00001000
00000000
00000010
00000000
,  // measure 28
00000110
00000001
00001200
00000310
,  // measure 29
00000001
00000010
00000100
00001000
00010000
00000000
00110000
00000000
,  // measure 30
00001000
01000000
00010000
10000000
00100000
00000000
01010000
00000000
,  // measure 31
10000000
01000000
00100000
00010000
00001000
00000000
00000100
00000000
,  // measure 32
00000110
00000000
00000000
00000001
00000000
00000000
00001000
00000001
00000100
00000010
00000000
00000000
,  // measure 33
00002000
00000000
00003200
00000000
,  // measure 34
00000020
00000000
00000330
00000000
00000100
00010000
00001000
00100000
,  // measure 35
00020000
00000000
02030000
00000000
,  // measure 36
00200000
00000000
03300000
00000000
00010000
00100000
10000000
00000000
,  // measure 37
20000000
00000000
30010000
00000000
00100000
01000000
00100000
00000000
,  // measure 38
00200000
00000000
00301000
00000000
00010000
00001000
00000100
00000000
,  // measure 39
00000020
00000000
00001030
00000000
00001000
00000100
00000010
00000000
,  // measure 40
00000220
00000000
00000330
00000000
,  // measure 41
00001001
00000000
00000001
00000100
00000010
00000100
00000001
00000000
,  // measure 42
00001000
00000000
00000100
00010000
00001000
00010000
00000100
00000000
,  // measure 43
00010000
00000010
00001000
00000010
00000000
00010000
00001000
00010000
,  // measure 44
00000000
00001000
00100000
00001000
00010000
00100000
01000000
00010000
,  // measure 45
20000000
30000000
01100000
00000000
01010000
00000000
00011000
00010000
,  // measure 46
00000100
00000000
00001100
00000000
00000110
00000000
00000011
00001000
,  // measure 47
00000100
00010000
00000010
00001000
00000000
00000001
00000010
00000001
,  // measure 48
00000100
00000010
00000100
00000010
00000100
00000010
00000100
00000000
00000000
00000010
00000000
00000000
,  // measure 49
00001001
00000010
00001001
00000010
,  // measure 50
00010000
00001000
01000000
00010000
00100000
01000000
10000000
00000000
,  // measure 51
11000000
00010000
10100000
01000000
,  // measure 52
00010000
00100000
01000000
00100000
00001000
00010000
00100000
00000000
,  // measure 53
01100000
00010000
01100000
10000000
,  // measure 54
00100000
00010000
00001000
00000000
00010000
00001000
00000010
00000000
,  // measure 55
00000011
00000100
00001010
00000100
,  // measure 56
00001000
00000010
00010000
00000100
00001000
00000010
00000100
00000000
,  // measure 57
00000001
00000010
00000100
00001000
00010000
00000000
00110000
00000000
,  // measure 58
00001000
01000000
00010000
10000000
00100000
00000000
01010000
00000000
,  // measure 59
10000000
01000000
00100000
00010000
00001000
00000000
00000100
00000000
,  // measure 60
00000110
00000001
00001020
00000130
,  // measure 61
00000001
00000100
00000010
00001000
00010000
00000000
01010000
00000000
,  // measure 62
00001000
00100000
00010000
10000000
01000000
00000000
00110000
00000000
,  // measure 63
10000000
00100000
01000000
00010000
00001000
00000000
00000010
00000000
,  // measure 64
00000110
00000000
00000001
00000000
00000010
00001000
00010000
00000000
,  // measure 65
00002000
00003000
00000000
00000000
;

//---------------dance-double - ----------------
#NOTEDATA:;
#CHARTNAME:;
#STEPSTYPE:dance-double;
#DESCRIPTION:;
#CHARTSTYLE:;
#DIFFICULTY:Medium;
#METER:7;
#RADARVALUES:0.281064,0.335118,0.339760,0.165929,0.000000,249.000000,206.000000,43.000000,21.000000,0.000000,0.000000,0.000000,0.000000,0.000000,0.281064,0.335118,0.339760,0.165929,0.000000,249.000000,206.000000,43.000000,21.000000,0.000000,0.000000,0.000000,0.000000,0.000000;
#CREDIT:led_light;
#NOTES:
// measure 0
00000000
00000000
00000000
00000000
,  // measure 1
00000000
00000000
00000000
00000000
,  // measure 2
00000000
00000000
00000000
00000000
,  // measure 3
00000000
00000000
00000000
00000000
,  // measure 4
00000000
00000000
00000000
00000000
,  // measure 5
00000000
00010000
00000000
00010000
,  // measure 6
00000000
00001000
00000000
00001000
,  // measure 7
00000000
00010000
00000000
00010000
,  // measure 8
00000000
00001000
00000000
00001000
,  // measure 9
01000000
00010000
00000000
01010000
,  // measure 10
00001000
00010000
00000000
00011000
,  // measure 11
00000100
00001000
00000000
00001000
,  // measure 12
00000002
00000003
00001000
00001000
,  // measure 13
00000010
00000110
00000001
00000010
,  // measure 14
00002000
00003000
00010000
00010000
,  // measure 15
01000000
10000000
00020000
00030000
,  // measure 16
00100000
00100000
01100000
00000000
,  // measure 17
10010000
01000000
10010000
00100000
,  // measure 18
10000000
01000000
02000000
03000000
,  // measure 19
00110000
00001000
00010010
00001000
,  // measure 20
00010000
00000100
00000200
00000300
,  // measure 21
00001001
00000100
00001001
00000010
,  // measure 22
00000100
00000001
00000100
00001000
,  // measure 23
00001100
00010000
01001000
00010000
,  // measure 24
00001000
00100000
00200000
00300000
,  // measure 25
01000000
10000000
01000000
00110000
,  // measure 26
00001000
00010000
00001000
00001100
,  // measure 27
00000001
00000010
00000010
00000001
,  // measure 28
00000100
00001010
00010000
00001100
,  // measure 29
00000010
00000001
00000010
00001100
,  // measure 30
00010000
00001000
00010000
00110000
,  // measure 31
10000000
01000000
01000000
10000000
,  // measure 32
10010000
00100000
10000000
01000000
,  // measure 33
00200000
00300000
00002000
00003000
,  // measure 34
00020000
00030000
00001000
00010000
,  // measure 35
00000200
00000300
00020000
00030000
,  // measure 36
00002000
00003000
00010000
00001000
,  // measure 37
00000200
00000300
00001000
00010000
,  // measure 38
02000000
03000000
00010000
00001000
,  // measure 39
00010000
00000000
00000010
00000100
,  // measure 40
00000220
00000000
00000330
00000000
,  // measure 41
00001001
00000001
00000010
00000001
,  // measure 42
00000000
00000100
00001000
00000100
,  // measure 43
00000010
00001010
00010000
00011000
,  // measure 44
00000010
00001000
00100000
00010000
,  // measure 45
20000000
31000000
01000000
00110000
,  // measure 46
00001000
00000100
00000100
00001001
,  // measure 47
00000100
00011000
01000000
10010000
,  // measure 48
01000000
01000000
01100000
00000000
,  // measure 49
10010000
00100000
10010000
01000000
,  // measure 50
10000000
00100000
00200000
00300000
,  // measure 51
01010000
00001000
00010100
00001000
,  // measure 52
00010000
00000010
00000020
00000030
,  // measure 53
00001001
00000010
00001001
00000100
,  // measure 54
00000010
00000001
00000010
00001000
,  // measure 55
00001010
00010000
00101000
00010000
,  // measure 56
00001000
01000000
02000000
03000000
,  // measure 57
00100000
10000000
00100000
01010000
,  // measure 58
00001000
00010000
00001000
00001010
,  // measure 59
00000001
00000100
00000100
00000001
,  // measure 60
00000010
00001100
00010000
00001010
,  // measure 61
00000100
00000001
00000100
00001010
,  // measure 62
00010000
00001000
00010000
01010000
,  // measure 63
10000000
00100000
00100000
10000000
,  // measure 64
10010000
01000000
00010000
00001000
,  // measure 65
00000200
00000300
00000000
00000000
;

//---------------dance-double - ----------------
#NOTEDATA:;
#CHARTNAME:;
#STEPSTYPE:dance-double;
#DESCRIPTION:;
#CHARTSTYLE:;
#DIFFICULTY:Easy;
#METER:5;
#RADARVALUES:0.222368,0.257783,0.260746,0.260746,0.000000,197.000000,164.000000,33.000000,33.000000,0.000000,0.000000,0.000000,0.000000,0.000000,0.222368,0.257783,0.260746,0.260746,0.000000,197.000000,164.000000,33.000000,33.000000,0.000000,0.000000,0.000000,0.000000,0.000000;
#CREDIT:led_light;
#NOTES:
// measure 0
00000000
00000000
00000000
00000000
,  // measure 1
00000000
00000000
00000000
00000000
,  // measure 2
00000000
00000000
00000000
00000000
,  // measure 3
00000000
00000000
00000000
00000000
,  // measure 4
00000000
00000000
00000000
00000000
,  // measure 5
00000000
00010000
00010000
00000000
,  // measure 6
00000000
00001000
00001000
00000000
,  // measure 7
00000000
00000010
00000010
00000000
,  // measure 8
00000002
00000003
00000010
00000010
,  // measure 9
00000000
00001000
00010000
00010000
,  // measure 10
00000000
01000000
10000000
10000000
,  // measure 11
00000000
00100000
00010000
00010000
,  // measure 12
00002000
00003000
01000000
01000000
,  // measure 13
00020000
00030000
00100000
00100000
,  // measure 14
20020000
30030000
01000000
01000000
,  // measure 15
00002000
00003000
00020000
00030000
,  // measure 16
00022000
00000000
00033000
00000000
,  // measure 17
00001100
00000000
00011000
00000000
,  // measure 18
00000000
00000010
00001000
00001000
,  // measure 19
00000101
00000000
00001010
00000000
,  // measure 20
00000000
00010000
00001000
00001000
,  // measure 21
01010000
00000000
00011000
00000000
,  // measure 22
00100000
00010000
01000000
00010000
,  // measure 23
10100000
00000000
00110000
00000000
,  // measure 24
00000000
10000000
00010000
00010000
,  // measure 25
01000000
01000000
02000000
03000000
,  // measure 26
00001000
00010000
00001000
00011000
,  // measure 27
00000100
00000100
00000200
00000300
,  // measure 28
00000110
00000000
00002002
00003003
,  // measure 29
00000010
00000010
00000020
00000030
,  // measure 30
00010000
00001000
00010000
00011000
,  // measure 31
00100000
00100000
00200000
00300000
,  // measure 32
01100000
00000000
01000000
01000000
,  // measure 33
20000000
30000000
00020000
00000000
,  // measure 34
01030000
00000000
00001000
00001000
,  // measure 35
00020000
00030000
00000200
00000000
,  // measure 36
00001300
00000000
00000001
00000001
,  // measure 37
00000020
00000030
00000001
00000001
,  // measure 38
00000200
00000300
00000010
00001000
,  // measure 39
00000010
00000000
00010000
00000000
,  // measure 40
00022000
00000000
00033000
00000000
,  // measure 41
00011000
00100000
00010000
00100000
,  // measure 42
00000000
01000000
00010000
01000000
,  // measure 43
00000000
00011000
00000000
00001100
,  // measure 44
00000000
00000010
00000001
00000010
,  // measure 45
00000200
00001300
00001000
00001000
,  // measure 46
00000000
00000100
00000100
00000100
,  // measure 47
00000000
00010000
00000000
00001000
,  // measure 48
00022000
00000000
00033000
00000000
,  // measure 49
01010000
00000000
00011000
00000000
,  // measure 50
00000000
00100000
00010000
00010000
,  // measure 51
11000000
00000000
00110000
00000000
,  // measure 52
00000000
00001000
00010000
00010000
,  // measure 53
00001100
00000000
00011000
00000000
,  // measure 54
00000010
00001000
00000100
00001000
,  // measure 55
00000011
00000000
00001010
00000000
,  // measure 56
00000000
00000001
00001000
00001000
,  // measure 57
00000100
00000100
00000200
00000300
,  // measure 58
00010000
00001000
00010000
00011000
,  // measure 59
01000000
01000000
02000000
03000000
,  // measure 60
01100000
00000000
20020000
30030000
,  // measure 61
00100000
00100000
00200000
00300000
,  // measure 62
00001000
00010000
00001000
00011000
,  // measure 63
00000010
00000010
00000020
00000030
,  // measure 64
00000110
00000000
00000100
00000001
,  // measure 65
00002000
00003000
00000000
00000000
;
