#VERSION:0.83;
#TITLE:Too Funky;
#SUBTITLE:;
#ARTIST:George Michael;
#TITLETRANSLIT:;
#SUBTITLETRANSLIT:;
#ARTISTTRANSLIT:;
#GENRE:Popular Songs;
#ORIGIN:;
#CREDIT:;
#BANNER:Too Funky.png;
#BACKGROUND:Too Funky-bg.png;
#PREVIEWVID:;
#JACKET:Too Funky-jacket.png;
#CDIMAGE:;
#DISCIMAGE:;
#LYRICSPATH:;
#CDTITLE:../cdtitle.png;
#MUSIC:Too Funky.ogg;
#OFFSET:-2.230001;
#SAMPLESTART:43.695999;
#SAMPLELENGTH:15.000000;
#SELECTABLE:YES;
#BPMS:0.000=98.370;
#STOPS:;
#DELAYS:;
#WARPS:;
#TIMESIGNATURES:0.000=4=4;
#TICKCOUNTS:0.000=4;
#COMBOS:0.000=1;
#SPEEDS:0.000=1.000=0.000=0;
#SCROLLS:0.000=1.000;
#FAKES:;
#LABELS:0.000=Song Start;
#BGCHANGES:3.875=Too Funky.avi=1.000=0=0=0=StretchNoLoop====,
99999=-nosongbg-=1.000=0=0=0 // don't automatically add -songbackground-
;
#KEYSOUNDS:;
#ATTACKS:
;

//---------------dance-single - ----------------
#NOTEDATA:;
#CHARTNAME:;
#STEPSTYPE:dance-single;
#DESCRIPTION:;
#CHARTSTYLE:;
#DIFFICULTY:Beginner;
#METER:2;
#RADARVALUES:0.080481,0.155109,0.000000,0.036582,0.000000,77.000000,77.000000,0.000000,5.000000,0.000000,0.000000,0.000000,0.000000,0.000000,0.080481,0.155109,0.000000,0.036582,0.000000,77.000000,77.000000,0.000000,5.000000,0.000000,0.000000,0.000000,0.000000,0.000000;
#CREDIT:led_light;
#NOTES:
0000
0000
0000
0000
,
0000
0000
0000
0000
,
0000
0000
0000
0000
,
0000
0000
0000
0000
,
0000
0000
0000
0000
,
0000
0000
0000
0010
,
0000
0000
0000
0010
,
0000
0000
0000
0010
,
0000
0000
0000
0000
,
0100
0000
0000
0000
,
0010
0000
0000
0000
,
0001
0000
0000
0000
,
1000
0000
0000
0000
,
0010
0000
0000
0000
,
0100
0000
0000
0000
,
0001
0000
0000
0000
,
1000
0000
0000
0000
,
0010
0000
0001
0000
,
0002
0003
0000
0000
,
0010
0020
0030
0000
,
1000
0000
0001
0000
,
0010
0000
1000
0000
,
2000
3000
0000
0000
,
0010
0000
0010
0000
,
0001
0002
0003
0001
,
1000
0000
0001
0000
,
0100
0100
0100
0000
,
0001
0000
1000
0000
,
0100
0100
0100
0000
,
0010
0000
0100
0000
,
0010
0000
0100
0000
,
1000
0000
0000
0000
,
0001
0000
0000
0000
,
1000
0000
1000
0000
,
0100
0000
0100
0000
,
0001
0000
0001
0000
,
0010
0000
0010
0000
,
1000
0000
0000
0000
,
0000
0000
0000
0000
,
0001
0001
0001
0001
,
0000
0000
0000
0000
,
0010
0010
0010
0010
,
0000
0000
0000
0000
,
1000
1000
1000
0000
,
0100
0100
0100
0100
,
0100
0000
0000
0000
,
0000
0001
0000
0001
,
0001
0000
0000
0000
,
0010
0000
0100
0000
,
0010
0000
0000
0000
,
0000
0001
0000
0001
,
0001
0000
0000
0000
,
2000
0000
0000
0000
,
3000
0000
0000
0000
;

//---------------dance-single - ----------------
#NOTEDATA:;
#CHARTNAME:;
#STEPSTYPE:dance-single;
#DESCRIPTION:;
#CHARTSTYLE:;
#DIFFICULTY:Challenge;
#METER:9;
#RADARVALUES:0.281161,0.348172,0.117063,0.219494,0.025608,269.000000,253.000000,16.000000,30.000000,92.000000,0.000000,0.000000,0.000000,0.000000,0.281161,0.348172,0.117063,0.219494,0.025608,269.000000,253.000000,16.000000,30.000000,92.000000,0.000000,0.000000,0.000000,0.000000;
#CREDIT:led_light;
#NOTES:
0000
0000
0000
0000
,
0000
0000
0000
0000
,
0000
0000
0000
0000
,
0000
0000
0000
0000
,
0000
0000
0000
0000
,
0100
0100
0100
1001
,
MMMM
0000
0000
0100
0000
0000
0000
0000
0100
0000
0000
0000
0100
0000
0000
0000
0000
0000
1001
0000
0000
0000
0000
0000
,
0100
0100
0100
1001
,
MMMM
0100
0010
0000
0001
0001
0002
0000
,
2003
3010
0200
0310
,
0002
0000
0013
0000
0200
0000
0310
1000
,
0002
0013
0200
0310
,
2000
0000
3010
0000
0100
0100
1000
0001
,
2000
3100
0020
0130
,
0002
0000
0103
0000
0020
0000
0130
1000
,
0002
0103
0020
0130
,
2000
0000
3100
0000
0010
0010
2000
0000
,
3010
0001
0010
0100
0001
0010
0100
0010
,
0002
0000
0013
0000
0100
1000
0001
0100
,
MMMM
0000
0000
0000
0220
0000
0000
0330
MMMM
0000
1000
0000
0001
0000
0000
0000
,
0010
0100
1100
0000
0010
0100
0101
0000
,
0100
1000
0100
0010
1000
0100
0010
0100
,
2000
0000
3100
0000
0010
0001
1000
0000
,
0001
1000
0010
0000
0100
0001
1000
0100
,
MMMM
0000
0220
0330
0100
0001
0001
0000
,
0100
1000
0001
1000
0010
0001
0010
1000
,
0001
0000
0001
0000
2002
3003
MMMM
0000
,
0010
0001
1000
0001
0100
1000
0100
0001
,
1000
0000
1000
0000
2002
3003
MMMM
0000
,
1000
0001
0010
1000
0010
0001
0010
0010
,
0001
1000
0010
0001
0010
1000
0010
0010
,
0100
0001
0020
0000
0030
0000
MMMM
0001
,
0100
1000
0002
0000
0003
0000
MMMM
0000
,
1000
0010
0010
0000
0001
0001
0100
1000
,
0010
0001
0001
0000
0010
0010
0020
0000
,
1030
0100
0100
0000
0001
0001
0010
1000
,
0100
0000
0001
0000
0001
0000
0000
0000
0100
0000
0100
0000
0200
0000
0000
0300
,
MMMM
0001
MMMM
0001
,
MMMM
0001
MMMM
0001
,
1000
0010
0001
0010
1000
0100
0110
0000
,
MMMM
0001
MMMM
1000
,
0001
0010
1000
0010
0001
0100
0110
0000
,
MMMM
1000
MMMM
0001
,
0001
0010
1000
0010
0001
MMMM
0110
0000
,
1000
0100
0001
0100
1000
0010
0110
0010
,
1001
0000
0000
0000
0000
0000
0001
0000
0000
0000
0000
0000
1000
0000
0000
0000
0000
1000
0010
0000
0000
0100
0000
0000
,
MMMM
1000
0100
0001
MMMM
0001
0100
1000
,
0001
0000
0000
0000
0000
0000
1000
0000
0000
0000
0000
0000
0010
0000
0000
0000
0000
0010
0001
0000
0000
0000
0000
0000
,
0100
0000
0100
0000
1000
0001
1001
0000
,
0110
0000
0000
0000
0000
0000
1000
0000
0000
0000
0000
0000
0001
0000
0000
0000
0000
0001
0100
0000
0000
0010
0000
0000
,
MMMM
0001
0010
1000
MMMM
1000
0010
0001
,
1000
0000
0000
0000
0000
0000
0001
0000
0000
0000
0000
0000
0100
0000
0000
0000
0000
0100
1000
0000
0000
0001
0000
0000
,
MMMM
0000
0000
1000
0000
0000
0000
0000
1000
0000
0000
0000
0001
0000
0000
0000
0000
0001
0000
0000
0000
0001
0000
0000
;

//---------------dance-single - ----------------
#NOTEDATA:;
#CHARTNAME:;
#STEPSTYPE:dance-single;
#DESCRIPTION:;
#CHARTSTYLE:;
#DIFFICULTY:Easy;
#METER:5;
#RADARVALUES:0.201725,0.271441,0.248760,0.117063,0.000000,193.000000,159.000000,34.000000,16.000000,0.000000,0.000000,0.000000,0.000000,0.000000,0.201725,0.271441,0.248760,0.117063,0.000000,193.000000,159.000000,34.000000,16.000000,0.000000,0.000000,0.000000,0.000000,0.000000;
#CREDIT:led_light;
#NOTES:
0000
0000
0000
0000
,
0000
0000
0000
0000
,
0000
0000
0000
0000
,
0000
0000
0000
0000
,
0000
0000
0000
0000
,
0010
0010
0010
0110
,
0000
0100
0100
0110
,
0010
0010
0010
0110
,
0000
0010
0100
0200
,
0310
0011
0100
1100
,
0001
0101
0010
1010
,
0001
1001
0010
0110
,
1000
1001
0010
0010
,
0100
1100
0010
0011
,
1000
1010
0100
0101
,
1000
1001
0100
0110
,
0001
1001
0100
0200
,
0310
0001
0010
0010
,
2000
3000
1000
0001
,
1000
2200
3300
0001
,
1000
1100
0001
0101
,
0100
1000
0100
0100
,
0002
0003
0001
1000
,
0001
0101
1000
1100
,
0001
0020
0030
0020
,
0031
0100
1000
0010
,
0100
0100
0200
0300
,
1000
0100
0001
0010
,
0100
0100
0200
0300
,
0100
0001
0010
0010
,
0100
1000
0010
0010
,
0001
0002
0003
0000
,
1000
2000
3000
0000
,
0100
1001
0100
0010
,
0100
1100
0001
2000
,
3010
1001
0010
0100
,
0010
0011
1000
0002
,
1003
0000
0000
0000
,
0000
0000
0000
0000
,
0100
0001
0010
1001
,
0000
0000
0000
0000
,
0100
1000
0010
1001
,
0000
0000
0000
0000
,
0010
1000
0100
0100
,
0010
0001
0100
1001
,
0110
1000
0000
1000
,
0001
0101
0010
1100
,
0001
1000
0000
1000
,
0001
0010
0100
2000
,
3010
0001
0000
0001
,
1000
1100
0010
0101
,
1000
0001
0000
0001
,
0000
0000
1000
0002
,
0003
0000
0000
0000
;

//---------------dance-single - ----------------
#NOTEDATA:;
#CHARTNAME:;
#STEPSTYPE:dance-single;
#DESCRIPTION:;
#CHARTSTYLE:;
#DIFFICULTY:Medium;
#METER:6;
#RADARVALUES:0.234127,0.271441,0.197545,0.248760,0.000000,224.000000,197.000000,27.000000,34.000000,0.000000,0.000000,0.000000,0.000000,0.000000,0.234127,0.271441,0.197545,0.248760,0.000000,224.000000,197.000000,27.000000,34.000000,0.000000,0.000000,0.000000,0.000000,0.000000;
#CREDIT:led_light;
#NOTES:
0000
0000
0000
0000
,
0000
0000
0000
0000
,
0000
0000
0000
0000
,
0000
0000
0000
0000
,
0000
0000
0000
0000
,
1000
0100
0001
0011
,
0001
0100
1000
1010
,
1000
0100
0001
0011
,
0001
1000
0001
0002
,
0023
0030
0110
0000
0002
0003
0101
0000
,
2000
3000
1100
0000
0020
0030
0110
0000
,
0200
0300
0110
0000
2000
3000
1010
0000
,
0002
0003
0011
0000
0100
0010
0100
0000
,
0002
0003
1001
0000
0200
0300
1100
0000
,
0020
0030
1010
0000
0002
0003
1001
0000
,
2000
3000
1001
0000
0020
0030
0011
0000
,
0200
0300
0101
0000
1000
0100
0020
0000
,
0031
0000
0001
0000
0100
1000
0100
0000
,
0020
0000
0030
0000
1000
0100
0002
0000
,
0103
0220
0330
0001
,
1000
0010
0001
0000
1000
0100
0001
0000
,
1000
0000
1000
0000
0010
0001
0010
0000
,
0200
0000
0300
0000
0001
0010
1000
0000
,
0001
0100
1000
0000
0001
0010
1000
0000
,
0010
0220
0330
2000
,
3001
0000
1000
0000
0010
0100
0001
0000
,
0010
0100
0020
0030
,
0001
0000
1000
0000
0100
0010
0001
0000
,
0100
0010
0200
0300
,
0001
0000
1000
0000
0100
0001
0001
0000
,
1000
0000
0001
0000
0100
1000
1000
0000
,
0001
1000
0002
0000
0003
0000
0001
0000
,
1000
0001
2000
0000
3000
0000
2000
0000
,
3001
0000
0001
0000
0010
0100
0001
0100
,
0010
0000
0010
0000
0001
0100
0020
0000
,
1030
0000
1000
0000
0010
0100
1000
0100
,
0010
0000
0010
0000
1000
0100
0020
0000
,
0031
0000
0000
0000
,
0000
0000
0000
0000
,
1000
0100
0001
0000
0100
0000
1001
0000
,
0000
0000
0000
0000
,
0001
0010
1000
0000
0010
0000
1001
0000
,
0000
0000
0000
0000
,
1000
0100
0001
0000
0100
0000
1001
0000
,
0001
0010
1000
0000
0010
0000
2001
0000
,
3001
1000
0010
0110
,
0100
1000
0100
0000
0010
0001
0010
0000
,
1000
0001
0010
0110
,
0100
0010
0001
0002
,
1003
0001
0100
0110
,
0010
0001
0010
0000
0100
1000
0100
0000
,
0001
1000
0100
0110
,
0000
0000
1000
0002
,
0003
0000
0000
0000
;

//---------------dance-single - ----------------
#NOTEDATA:;
#CHARTNAME:;
#STEPSTYPE:dance-single;
#DESCRIPTION:;
#CHARTSTYLE:;
#DIFFICULTY:Hard;
#METER:12;
#RADARVALUES:0.435852,0.541601,0.351190,0.314608,0.343874,417.000000,369.000000,48.000000,43.000000,0.000000,0.000000,0.000000,0.000000,0.000000,0.435852,0.541601,0.351190,0.314608,0.343874,417.000000,369.000000,48.000000,43.000000,0.000000,0.000000,0.000000,0.000000,0.000000;
#CREDIT:led_light;
#NOTES:
// measure 0
0000
0000
0000
0000
,  // measure 1
0000
0000
0000
0000
,  // measure 2
0000
0000
0000
0000
,  // measure 3
0000
0000
0000
0000
,  // measure 4
0000
0000
0000
0000
,  // measure 5
0001
1000
0001
0110
,  // measure 6
1000
0000
0000
0001
0000
0000
0000
0000
1000
0000
0000
0000
0001
0000
0000
0000
0000
0000
0110
0000
0000
0000
0000
0000
,  // measure 7
0001
1000
0001
0110
,  // measure 8
1000
0100
0010
0000
0001
1000
0002
0003
,  // measure 9
0201
0310
2010
3100
,  // measure 10
1002
0000
0103
0000
0012
0000
1003
0010
,  // measure 11
0012
0013
2010
3010
,  // measure 12
0102
0000
0000
0000
0000
0000
0103
0000
0000
0000
0000
0000
1100
0000
0000
1000
0000
0100
0001
0000
0100
0000
0000
1000
,  // measure 13
0020
0130
0102
0013
,  // measure 14
2001
0000
3010
0000
2100
0000
3001
0100
,  // measure 15
2100
3100
0102
0103
,  // measure 16
2010
0000
3010
0000
0011
0100
0200
0000
,  // measure 17
1300
0010
0001
0010
1000
0100
0010
0100
,  // measure 18
2000
0000
0000
0000
0000
0000
3001
0000
0000
0000
0000
0100
0010
0000
0100
0010
0000
0100
0001
0000
0010
0200
0000
0000
,  // measure 19
1300
0000
2002
0003
3010
0100
0002
0003
,  // measure 20
2000
0000
0000
3001
0000
0010
0000
0000
0010
1000
0000
0000
0002
0000
0000
0103
0000
1000
0000
0000
1000
0001
0000
0000
,  // measure 21
1000
0010
0001
0010
1000
0100
0010
0100
,  // measure 22
2000
0000
0000
0000
0000
0000
3001
0000
0000
0000
0000
0100
0010
0000
0100
0010
0000
0100
0001
0000
0020
0000
0000
0130
,  // measure 23
0001
0000
0100
0001
0000
0100
1000
0000
0002
0000
0000
0013
0100
0000
0010
0100
0000
0010
0001
0000
0100
0020
0000
0000
,  // measure 24
1030
0000
0000
0000
0000
0000
1002
0000
0000
0013
0000
0000
0100
0000
0000
0010
0000
0001
0000
0000
0001
1000
0000
0000
,  // measure 25
1001
0001
1000
0010
0001
1000
0001
0010
,  // measure 26
1000
0000
0000
0000
0000
0001
0100
0000
0000
0002
0000
0000
0013
0000
0000
0000
0000
0100
1000
0000
0000
0020
0000
0000
,  // measure 27
0130
0001
1000
0100
0001
1000
0001
0100
,  // measure 28
1000
0000
0000
0000
0000
0001
0010
0000
0000
0002
0000
0000
0103
0000
0000
0000
0000
0000
0220
0000
0000
0330
0000
0000
,  // measure 29
1000
0000
0000
0001
0000
0000
0010
0000
0000
0100
0000
0000
0002
0000
0000
0103
0000
0010
0000
0000
0010
0001
0000
0020
,  // measure 30
0000
0000
0031
1000
0000
0000
0010
0000
0000
0100
0000
1000
0000
0000
0100
0010
0000
0100
0000
0000
0001
1000
0000
0002
,  // measure 31
0000
0000
0013
0100
0000
0000
2100
0000
0000
0000
0000
0000
3001
0000
0000
0000
0000
0000
0101
0000
0000
0001
0000
0000
,  // measure 32
0010
0100
2100
0000
3001
0000
2001
0000
,  // measure 33
3001
0000
0000
0100
0000
0010
0100
0000
0010
0000
0000
0001
0010
0000
1000
0010
0000
1000
0001
0000
0010
1000
0000
0010
,  // measure 34
0001
0000
0000
0010
0000
0100
0010
0000
0100
0000
0000
0001
0100
0000
1000
0100
0000
1000
0002
0000
0000
0000
0000
0000
,  // measure 35
1003
0000
0000
0010
0000
0100
0010
0000
0100
0000
0000
1000
0100
0000
0001
0100
0000
0001
1000
0000
0100
0001
0000
0100
,  // measure 36
1000
0000
0000
0100
0000
0010
0100
0000
0010
0000
0000
1000
0010
0000
0001
0010
0000
0001
2000
0000
0000
0000
0000
0000
,  // measure 37
3001
0101
0001
1001
,  // measure 38
1000
0000
0000
0000
0000
0000
1100
0000
0000
0000
0000
0000
1000
0000
0000
0000
0000
0000
1001
0000
0000
0000
0000
1000
,  // measure 39
0001
0000
1000
0100
0000
1000
0010
0000
0000
0100
0000
0001
0010
0000
0100
0010
0000
0000
1001
0000
0000
0000
0000
0000
,  // measure 40
0001
0000
0000
0000
0000
0000
0011
0000
0000
0000
0000
0000
0001
0000
0000
0000
0000
0000
1001
0000
0000
0000
0000
0001
,  // measure 41
1000
0000
0100
1000
0000
0010
0100
0000
0000
0010
0000
1000
0100
0000
0010
0100
0000
0000
1001
0000
0000
0000
0000
0000
,  // measure 42
1000
0000
0000
0000
0000
0000
1100
0000
0000
0000
0000
0000
1000
0000
0000
0000
0000
0000
1001
0000
0000
0000
0000
1000
,  // measure 43
0001
0000
1000
0100
0000
1000
0010
0000
0000
0100
0000
0001
0020
0000
0000
0130
0000
0000
1001
0000
0000
0001
0000
0010
,  // measure 44
0100
0000
0010
0001
0000
1000
0010
0000
0000
0100
0000
0001
0010
0000
0100
0010
0000
0000
1001
0000
0000
0100
0000
0000
,  // measure 45
1001
0000
0000
0010
0000
0000
0100
0000
0001
0000
0000
0000
1001
0000
0000
0000
0000
1000
0100
0000
0000
1000
0000
0000
,  // measure 46
0001
0010
0011
0100
1000
0010
1010
0100
,  // measure 47
0001
0000
0000
0010
0000
0000
0100
0000
1000
0000
0000
0000
1001
0000
0000
0000
0000
0001
0100
0000
0000
0001
0000
0000
,  // measure 48
1000
0000
0000
0010
0000
0000
0100
0000
0010
0000
0000
0000
1000
0000
0001
0010
0000
0000
0200
0000
0000
0300
0000
0000
,  // measure 49
1001
0000
0000
0010
0000
0000
0100
0000
1000
0000
0000
0000
1001
0000
0000
0000
0000
0001
0100
0000
0000
0001
0000
0000
,  // measure 50
1000
0010
1010
0100
0001
0010
0011
0100
,  // measure 51
1000
0000
0000
0010
0000
0000
0100
0000
0001
0000
0000
0000
1001
0000
0000
0000
0000
1000
0100
0000
0000
1000
0000
0000
,  // measure 52
0000
0000
0000
0010
0000
0000
0000
0000
0010
0000
0000
0000
0001
0000
0000
0000
0000
0001
0000
0000
0000
1000
0000
0000
;
