#TITLE:Time To Make History;
#SUBTITLE:(AKIRA YAMAOKA Remix);
#ARTIST:AKIRA YAMAOKA;
#TITLETRANSLIT:;
#SUBTITLETRANSLIT:;
#ARTISTTRANSLIT:;
#GENRE:Anime/Game;
#CREDIT:;
#BANNER:Time To Make History (AKIRA YAMAOKA Remix).png;
#BACKGROUND:Time To Make History (AKIRA YAMAOKA Remix)-bg.png;
#LYRICSPATH:;
#CDTITLE:../cdtitle.png;
#MUSIC:Time To Make History (AKIRA YAMAOKA Remix).ogg;
#OFFSET:0.944000;
#SAMPLESTART:66.001999;
#SAMPLELENGTH:15.000000;
#SELECTABLE:YES;
#DISPLAYBPM:190.000000;
#BPMS:0.000000=190.000000
,48.000000=95.000000
,49.000000=570.000000
,52.000000=190.000000
;
#STOPS:49.000000=0.039000,
49.375000=0.039000,
49.750000=0.039000,
50.125000=0.039000,
50.500000=0.039000,
50.875000=0.039000,
51.250000=0.039000,
51.625000=0.039000
;
#BGCHANGES:3.250=Time To Make History (AKIRA YAMAOKA Remix).avi=1.000=0=0=0=StretchNoLoop====,
99999=-nosongbg-=1.000=0=0=0 // don't automatically add -songbackground-
;
#KEYSOUNDS:;
#ATTACKS:;

//---------------dance-single - ----------------
#NOTES:
     dance-single:
     :
     Beginner:
     3:
     0.136763,0.222441,0.018771,0.046929,0.000000,102.000000,100.000000,2.000000,5.000000,0.000000,0.000000,0.136763,0.222441,0.018771,0.046929,0.000000,102.000000,100.000000,2.000000,5.000000,0.000000,0.000000:
// measure 0
0000
0000
0000
0000
,  // measure 1
0000
0000
0000
0000
,  // measure 2
0000
0000
0000
0000
,  // measure 3
0000
0000
0000
0000
,  // measure 4
0000
0000
0000
0000
,  // measure 5
0100
0000
0000
0000
,  // measure 6
0100
0000
0000
0000
,  // measure 7
0010
0000
0000
0000
,  // measure 8
0010
0000
0000
0000
,  // measure 9
1000
0000
0000
0000
,  // measure 10
1000
0000
0000
0000
,  // measure 11
0001
0000
0001
0000
,  // measure 12
0001
0000
0000
0000
,  // measure 13
1000
0000
1000
0000
,  // measure 14
1000
0000
0000
0000
,  // measure 15
0001
0000
0001
0000
,  // measure 16
0001
0000
0000
0000
,  // measure 17
0010
0000
0010
0000
,  // measure 18
0010
0000
0000
0000
,  // measure 19
0100
0000
0100
0000
,  // measure 20
0100
0000
0000
0000
,  // measure 21
0010
0000
0000
0000
,  // measure 22
0001
0000
0000
0000
,  // measure 23
1000
0000
0000
0000
,  // measure 24
0010
0000
0000
0000
,  // measure 25
0100
0000
0100
0000
,  // measure 26
0001
0000
0001
0000
,  // measure 27
1000
0000
1000
0000
,  // measure 28
0100
0000
0100
0000
,  // measure 29
0110
0000
0000
0000
,  // measure 30
0000
0000
0000
0000
,  // measure 31
0010
0000
0010
0000
,  // measure 32
0010
0000
0000
0000
,  // measure 33
0100
0000
0100
0000
,  // measure 34
0100
0000
0000
0000
,  // measure 35
0010
0000
0010
0000
,  // measure 36
0000
0000
0000
0000
,  // measure 37
0001
0001
0001
0000
,  // measure 38
1001
0000
0000
0000
,  // measure 39
0001
0000
0010
0000
,  // measure 40
1000
1000
1000
0000
,  // measure 41
0001
0000
1000
0000
,  // measure 42
0100
0000
0100
0000
,  // measure 43
0001
0000
0010
0000
,  // measure 44
0100
0000
1000
0000
,  // measure 45
0002
0000
0000
0000
,  // measure 46
0000
0000
0000
0000
,  // measure 47
0000
0000
0000
0000
,  // measure 48
0003
0000
0000
0000
,  // measure 49
2000
0000
0000
0000
,  // measure 50
0000
0000
0000
0000
,  // measure 51
0000
0000
0000
0000
,  // measure 52
3000
0000
0000
0000
,  // measure 53
1000
0000
0100
0000
,  // measure 54
1000
0000
0100
0000
,  // measure 55
0020
0000
0000
0000
,  // measure 56
0030
0000
0000
0000
,  // measure 57
1000
0000
1000
0000
,  // measure 58
0100
0000
1000
0000
,  // measure 59
0010
0000
0100
0000
,  // measure 60
0010
0000
1000
0000
,  // measure 61
0001
0000
0010
0000
,  // measure 62
0001
0000
0010
0000
,  // measure 63
0200
0000
0000
0000
,  // measure 64
0300
0000
0000
0000
,  // measure 65
0001
0000
0001
0000
,  // measure 66
0010
0000
0001
0000
,  // measure 67
0100
0000
0010
0000
,  // measure 68
0100
0000
0001
0000
,  // measure 69
1000
0000
1000
0000
,  // measure 70
1000
0000
0000
0000
,  // measure 71
0001
0000
0001
0000
,  // measure 72
0001
0000
0000
0000
,  // measure 73
0010
0000
0010
0000
,  // measure 74
0010
0000
0000
0000
,  // measure 75
0100
0000
0100
0000
,  // measure 76
0100
0000
0000
0000
,  // measure 77
0200
0000
0000
0000
,  // measure 78
0000
0000
0000
0000
,  // measure 79
0300
0000
0000
0000
;

//---------------dance-single - ----------------
#NOTES:
     dance-single:
     :
     Hard:
     13:
     0.604708,0.630250,0.253414,0.150171,0.000000,451.000000,424.000000,27.000000,16.000000,0.000000,0.000000,0.604708,0.630250,0.253414,0.150171,0.000000,451.000000,424.000000,27.000000,16.000000,0.000000,0.000000:
// measure 0
0000
0000
0000
0000
,  // measure 1
0000
0000
0000
0000
,  // measure 2
0000
0000
0000
0000
,  // measure 3
0000
0000
0000
0000
,  // measure 4
0000
0000
0000
0000
,  // measure 5
0001
0000
1100
0000
0001
0100
1000
0000
,  // measure 6
0100
0000
1010
0000
0001
0010
1000
0010
,  // measure 7
0100
0000
1001
0000
0001
0100
0010
0000
,  // measure 8
0100
0000
0110
0000
0001
1000
0100
0001
,  // measure 9
0100
0000
1001
0000
0100
0001
0010
0000
,  // measure 10
0100
0000
1001
0000
0100
0010
1000
1000
,  // measure 11
0001
0000
0110
0000
1000
0000
0110
0001
,  // measure 12
2000
0000
0000
0000
,  // measure 13
3001
1000
0100
0000
0010
0001
1000
0000
,  // measure 14
0010
0100
1000
0100
0010
1000
0001
0000
,  // measure 15
0010
0100
0001
0000
0100
1000
0001
0000
,  // measure 16
1000
0010
0100
1000
0100
0001
1000
0000
,  // measure 17
0001
0001
0010
0000
0100
0100
1000
0000
,  // measure 18
0001
0100
0010
0100
1000
0100
0001
0000
,  // measure 19
0010
0010
0100
0000
1000
1000
0001
0000
,  // measure 20
0100
0010
1000
0001
0010
0100
0010
0100
,  // measure 21
1000
1000
0100
0100
0010
0010
0001
0001
,  // measure 22
1000
0010
1000
0100
0010
0001
0100
0010
,  // measure 23
1000
1000
0010
0010
0100
0100
0001
0001
,  // measure 24
1000
0100
1000
0010
0100
0001
1000
0001
,  // measure 25
1000
0100
0001
0000
0100
1000
0001
0000
,  // measure 26
1000
0010
0001
0010
1000
0001
1000
0000
,  // measure 27
0001
0010
1000
0000
0010
0001
1000
0000
,  // measure 28
0001
0100
1000
0100
0001
1000
0001
1000
,  // measure 29
1001
0000
0000
0000
,  // measure 30
0020
0000
0130
0100
0100
0010
0010
0010
,  // measure 31
0100
0000
1001
0000
1000
0010
0001
0000
,  // measure 32
0010
0000
1000
0100
0001
0100
1000
0000
,  // measure 33
0010
0000
0101
0000
1000
0100
0010
0000
,  // measure 34
0100
1000
0010
0100
0001
0010
1000
0000
,  // measure 35
0010
0001
0100
1000
0200
0000
0010
0000
,  // measure 36
0310
1000
0100
0000
0010
0100
1000
0010
,  // measure 37
0001
0110
1000
0110
,  // measure 38
2002
0000
0000
3003
,  // measure 39
0110
0000
0001
0100
1000
0100
0001
0000
,  // measure 40
0010
0010
0100
0100
2000
0000
3002
0000
,  // measure 41
0103
0000
1010
0000
0001
0010
0100
0000
,  // measure 42
0001
0100
0010
0001
1000
0010
0100
0000
,  // measure 43
0001
0000
0100
0010
0100
0001
1000
0100
,  // measure 44
0010
0010
0001
1000
0100
1000
0002
0000
,  // measure 45
0103
0010
0000
0010
0000
0010
0000
0010
,  // measure 46
0000
1000
0000
1000
0000
1000
0000
1000
,  // measure 47
0000
0100
0000
0100
0000
0100
0000
0100
,  // measure 48
0000
0010
0000
0010
0000
0010
0000
0010
,  // measure 49
0000
0001
0000
0001
0000
0001
0000
0001
,  // measure 50
0000
1000
0000
1000
0000
1000
0000
1000
,  // measure 51
0000
0010
0000
0010
0000
0010
0000
0010
,  // measure 52
0100
0001
0010
0100
1000
0001
1000
0001
,  // measure 53
0010
0000
1001
0000
0010
0100
0001
0000
,  // measure 54
1000
0000
1100
0000
0010
0100
1000
0020
,  // measure 55
0100
0000
0001
0000
0130
0010
1000
0000
,  // measure 56
0100
0000
0011
0100
1000
0001
1000
0010
,  // measure 57
0100
0000
1001
0000
1000
0100
0010
0002
,  // measure 58
1003
0002
0013
0200
0310
0001
0100
0010
,  // measure 59
1000
0100
0001
0000
0001
0100
1000
0000
,  // measure 60
0001
0100
0010
1000
0001
1000
0001
1000
,  // measure 61
0100
0000
1001
0000
0100
0010
1000
0000
,  // measure 62
0001
0000
0011
0000
0100
0010
0001
0200
,  // measure 63
0010
0000
1000
0000
0310
0100
0001
0000
,  // measure 64
0010
0000
1100
0000
0010
0001
1000
0000
,  // measure 65
0010
0101
2100
3010
,  // measure 66
0100
0001
1000
0000
0100
1000
0010
0100
,  // measure 67
0001
0011
0210
1300
,  // measure 68
0001
0100
0010
1000
0001
1000
0100
0010
,  // measure 69
0001
1000
0100
0000
0010
0001
1000
0000
,  // measure 70
0010
0100
1000
0100
0010
1000
0001
0000
,  // measure 71
0010
0100
1000
0000
0010
0100
0001
0000
,  // measure 72
1000
0100
0010
0100
1000
0010
0100
0000
,  // measure 73
0001
0001
0010
0000
0100
0100
1000
0000
,  // measure 74
0001
0100
0010
0100
1000
0100
0001
0000
,  // measure 75
0010
0010
0100
0000
1000
1000
0001
0000
,  // measure 76
0100
0010
1000
0001
1000
0100
1000
0100
,  // measure 77
0020
0000
0000
0000
,  // measure 78
0000
0000
0000
0000
,  // measure 79
0030
0000
0000
0000
;

//---------------dance-single - ----------------
#NOTES:
     dance-single:
     :
     Easy:
     7:
     0.337885,0.407809,0.187714,0.187714,0.000000,252.000000,232.000000,20.000000,20.000000,0.000000,0.000000,0.337885,0.407809,0.187714,0.187714,0.000000,252.000000,232.000000,20.000000,20.000000,0.000000,0.000000:
// measure 0
0000
0000
0000
0000
,  // measure 1
0000
0000
0000
0000
,  // measure 2
0000
0000
0000
0000
,  // measure 3
0000
0000
0000
0000
,  // measure 4
0000
0000
0000
0000
,  // measure 5
0100
1001
0000
0100
,  // measure 6
0001
0011
0000
0100
,  // measure 7
1000
1010
0000
0100
,  // measure 8
0001
0011
0000
0100
,  // measure 9
0010
1001
0000
0010
,  // measure 10
0100
1001
0000
0100
,  // measure 11
0010
0010
0100
0100
,  // measure 12
0020
0000
0000
0000
,  // measure 13
0031
0100
1000
0100
,  // measure 14
0001
0010
0100
1000
,  // measure 15
0001
0100
1000
0100
,  // measure 16
0001
0100
0010
1000
,  // measure 17
0001
0010
1000
0010
,  // measure 18
0001
0100
0010
1000
,  // measure 19
0001
0010
1000
0010
,  // measure 20
0001
0010
0100
1000
,  // measure 21
0001
0001
0001
0001
,  // measure 22
0100
0010
0100
0001
,  // measure 23
1000
1000
1000
1000
,  // measure 24
0100
0010
0100
1000
,  // measure 25
0001
0000
1001
0000
,  // measure 26
0100
0010
0110
0000
,  // measure 27
1000
0000
1001
0000
,  // measure 28
0100
0010
0110
0100
,  // measure 29
1001
0000
0000
0000
,  // measure 30
0200
0010
0010
0310
,  // measure 31
0001
0101
1000
1100
,  // measure 32
0001
0100
0010
1000
,  // measure 33
0001
0010
0100
0100
,  // measure 34
1000
0010
0100
0100
,  // measure 35
0001
1000
0002
0003
,  // measure 36
2000
3000
0002
0003
,  // measure 37
0100
0100
0100
0010
,  // measure 38
2002
0000
0000
3003
,  // measure 39
1000
0100
0001
0100
,  // measure 40
1000
1000
0001
0001
,  // measure 41
1000
1100
0001
0101
,  // measure 42
1000
0100
0010
0001
,  // measure 43
1000
0010
0100
0001
,  // measure 44
0010
0100
1000
1000
,  // measure 45
0002
0000
0000
0000
,  // measure 46
0000
0000
0000
0000
,  // measure 47
0023
0000
0000
0000
,  // measure 48
0000
0000
0000
0000
,  // measure 49
0230
0000
0000
0000
,  // measure 50
0000
0000
0000
0000
,  // measure 51
2300
0000
0000
0000
,  // measure 52
3010
0010
0010
0100
,  // measure 53
1001
0001
0010
0100
,  // measure 54
0010
0010
1000
0010
,  // measure 55
0002
0010
0000
1000
,  // measure 56
0000
0013
0100
1000
,  // measure 57
0020
0030
1000
1000
,  // measure 58
0100
0001
0100
1000
,  // measure 59
0020
0030
0002
0003
,  // measure 60
2000
0000
3100
0100
,  // measure 61
0010
1001
0100
0010
,  // measure 62
0100
0100
0001
0100
,  // measure 63
2000
0100
0000
0001
,  // measure 64
0000
3100
0010
0001
,  // measure 65
1000
1100
0020
0000
,  // measure 66
0031
0100
0010
1000
,  // measure 67
0001
0011
0200
0300
,  // measure 68
1000
1000
0010
0100
,  // measure 69
0001
0010
1000
0010
,  // measure 70
0001
0100
0010
1000
,  // measure 71
0001
0010
1000
0010
,  // measure 72
0001
0010
0100
1000
,  // measure 73
0001
0100
1000
0100
,  // measure 74
0001
0010
0100
1000
,  // measure 75
0001
0100
1000
0100
,  // measure 76
0001
0100
0010
1000
,  // measure 77
0002
0000
0000
0000
,  // measure 78
0000
0000
0000
0000
,  // measure 79
0003
0000
0000
0000
;

//---------------dance-single - ----------------
#NOTES:
     dance-single:
     :
     Medium:
     11:
     0.471967,0.556103,0.281571,0.244028,0.000000,352.000000,322.000000,30.000000,26.000000,0.000000,0.000000,0.471967,0.556103,0.281571,0.244028,0.000000,352.000000,322.000000,30.000000,26.000000,0.000000,0.000000:
// measure 0
0000
0000
0000
0000
,  // measure 1
0000
0000
0000
0000
,  // measure 2
0000
0000
0000
0000
,  // measure 3
0000
0000
0000
0000
,  // measure 4
0000
0000
0000
0000
,  // measure 5
0100
0000
0011
0000
0000
0001
0100
0000
,  // measure 6
1000
0000
1010
0000
0000
1000
0100
0000
,  // measure 7
0010
0000
1100
0000
0000
1000
0010
0000
,  // measure 8
0001
0000
0101
0000
0000
0001
0010
0000
,  // measure 9
0100
0000
1001
0000
0000
0010
0100
0000
,  // measure 10
1000
0000
1010
0000
0000
0100
0010
0000
,  // measure 11
1000
0100
1000
0000
0001
0100
0001
0000
,  // measure 12
0020
0000
0000
0000
,  // measure 13
0130
0000
1001
0000
0001
0001
0100
0000
,  // measure 14
0010
1000
0100
0000
0010
0000
0010
0000
,  // measure 15
0100
0000
1001
0000
0001
0100
0001
0000
,  // measure 16
1000
1000
0100
0000
0010
0000
0010
0000
,  // measure 17
0001
0100
0001
0000
1000
0010
1000
0000
,  // measure 18
0001
0010
0100
0000
1000
0000
0010
0000
,  // measure 19
1000
0100
1000
0000
0001
0010
0001
0000
,  // measure 20
1000
0010
0100
0001
0010
0000
1001
0000
,  // measure 21
0100
0100
0100
0000
0010
0000
0001
0000
,  // measure 22
1000
1000
1000
0000
0100
0000
0010
0000
,  // measure 23
0001
0001
0001
0000
0010
0000
0100
0000
,  // measure 24
1000
1000
1000
0000
0100
0010
0100
0010
,  // measure 25
0001
0010
0001
0000
2200
0000
3300
0000
,  // measure 26
0001
0100
0001
0000
1000
0010
0100
0000
,  // measure 27
0010
1000
0010
0000
2002
0000
3003
0000
,  // measure 28
0010
0001
0010
0000
0100
1000
0001
0000
,  // measure 29
0110
0000
0000
0000
,  // measure 30
0200
0000
0310
0100
0010
0100
0020
0000
,  // measure 31
0130
1100
0010
0011
,  // measure 32
1000
0000
0001
0010
0001
0010
0001
0000
,  // measure 33
1000
1100
0001
0101
,  // measure 34
1000
0010
0100
0000
0010
1000
0100
0000
,  // measure 35
0010
0001
0100
0000
0020
0000
0030
0000
,  // measure 36
1000
0000
1000
0000
0001
1000
0001
0000
,  // measure 37
0010
0010
0100
0010
,  // measure 38
2002
0000
0000
3003
,  // measure 39
0110
0000
1001
0000
1000
0100
0001
0000
,  // measure 40
0100
0010
0100
0000
0200
0000
2300
0000
,  // measure 41
3001
0000
0110
0000
0001
0100
0001
0000
,  // measure 42
1000
0010
0100
0000
0010
0000
1010
0000
,  // measure 43
0001
0000
0010
0100
0010
0000
0001
0100
,  // measure 44
0002
0000
1003
0000
0100
0010
0100
0000
,  // measure 45
2000
0000
0000
0000
,  // measure 46
0000
0000
0000
0000
,  // measure 47
3002
0000
0000
0000
,  // measure 48
0000
0000
0000
0000
,  // measure 49
0203
0000
0000
0000
,  // measure 50
0000
0000
0000
0000
,  // measure 51
0320
0000
0000
0000
,  // measure 52
0130
0001
1000
0000
0100
0100
0100
0100
,  // measure 53
0010
0000
1001
0000
0001
0100
1000
0000
,  // measure 54
0010
0000
0010
0000
1000
0100
0001
0000
,  // measure 55
2000
0100
0000
0100
,  // measure 56
3000
0000
0101
0000
0010
1000
0010
0000
,  // measure 57
2000
0000
3100
0000
0010
0001
0010
0000
,  // measure 58
0100
0000
0100
0000
0001
0100
1000
0000
,  // measure 59
2000
3010
0002
0013
,  // measure 60
1000
0001
1000
0001
0100
0001
1000
0000
,  // measure 61
0100
0000
1001
0000
1000
0010
0001
0000
,  // measure 62
0100
0000
0100
0000
0001
0010
1000
0000
,  // measure 63
0002
0010
0000
0010
,  // measure 64
0003
0000
1010
0000
0100
0001
0100
0000
,  // measure 65
0001
0010
2001
0100
,  // measure 66
0000
0000
0100
0000
3001
1000
0010
0000
,  // measure 67
0100
0010
2010
3100
,  // measure 68
0010
0001
0010
0001
0100
0010
2000
0000
,  // measure 69
3100
0010
0100
0000
1000
0100
1000
0000
,  // measure 70
0001
0100
0001
0100
0010
0000
1001
0000
,  // measure 71
0010
0100
0010
0000
0001
0010
0001
0000
,  // measure 72
1000
0010
1000
0010
0100
0000
1001
0000
,  // measure 73
0001
0100
0001
0000
1000
0010
1000
0000
,  // measure 74
0001
0010
0100
0000
1000
0000
1010
0000
,  // measure 75
1000
0100
1000
0000
0001
0010
0001
0000
,  // measure 76
0100
0010
1000
0000
0001
0010
0100
1000
,  // measure 77
0002
0000
0000
0000
,  // measure 78
0000
0000
0000
0000
,  // measure 79
0003
0000
0000
0000
;
