#VERSION:0.83;
#TITLE:Thorns;
#SUBTITLE:;
#ARTIST:Kawai Sprite;
#TITLETRANSLIT:;
#SUBTITLETRANSLIT:;
#ARTISTTRANSLIT:;
#GENRE:Friday Night Funkin';
#ORIGIN:;
#CREDIT:;
#BANNER:Thorns.png;
#BACKGROUND:../bg.png;
#PREVIEWVID:;
#JACKET:Thorns-jacket.png;
#CDIMAGE:;
#DISCIMAGE:;
#LYRICSPATH:;
#CDTITLE:../cdtitle.png;
#MUSIC:Thorns.ogg;
#OFFSET:0.630000;
#SAMPLESTART:10.736000;
#SAMPLELENGTH:15.000000;
#SELECTABLE:YES;
#BPMS:0.000=190.000;
#STOPS:;
#DELAYS:;
#WARPS:;
#TIMESIGNATURES:0.000=4=4;
#TICKCOUNTS:0.000=4;
#COMBOS:0.000=1;
#SPEEDS:0.000=1.000=0.000=0;
#SCROLLS:0.000=1.000;
#FAKES:;
#LABELS:0.000=Song Start;
#BGCHANGES: -1.000=Thorns.avi=1.000=0=0=0=StretchNoLoop====,
99999=-nosongbg-=1.000=0=0=0 // don't automatically add -songbackground-
;
#KEYSOUNDS:;
#ATTACKS:
;

//---------------dance-single - ----------------
#NOTEDATA:;
#CHARTNAME:;
#STEPSTYPE:dance-single;
#DESCRIPTION:;
#CHARTSTYLE:;
#DIFFICULTY:Hard;
#METER:14;
#RADARVALUES:0.774405,0.663477,0.038310,0.210704,0.000000,566.000000,562.000000,4.000000,22.000000,0.000000,0.000000,0.000000,0.000000,0.000000,0.774405,0.663477,0.038310,0.210704,0.000000,566.000000,562.000000,4.000000,22.000000,0.000000,0.000000,0.000000,0.000000,0.000000;
#CREDIT:led_light;
#NOTES:
0000
0000
0000
0000
,
0200
0300
0100
0100
0100
0000
0001
0000
,
1000
0000
0100
0010
0000
0100
0010
0000
,
0001
0001
1000
1000
0010
0010
0100
0100
,
0001
0000
0010
0100
0000
0010
0100
0000
,
0020
0030
0010
0010
0010
0000
0001
0000
,
1000
0000
0010
0100
0000
0010
0100
0000
,
0001
0001
1000
1000
0100
0100
0010
0010
,
0001
0000
0100
0010
0000
0100
0010
0100
,
0010
0000
1001
0000
1000
0100
0001
0000
,
0200
0000
1300
0010
0100
0010
1000
0000
,
0001
0000
0110
0000
0001
1000
0100
0000
,
0020
0000
0130
1000
0010
0100
0020
0000
,
0130
0000
1001
0000
0001
0010
1000
0000
,
0020
0000
0031
0100
0010
0100
0001
0000
,
1000
0000
0110
0000
0001
1000
0010
0000
,
0200
0000
0310
1000
0100
0010
0200
0000
,
1300
0100
0001
1000
0010
0001
1000
0100
,
0001
1000
0010
0001
1000
0010
0001
0010
,
0100
0001
0010
0001
0100
0010
1000
0100
,
0010
0100
1000
0010
0100
1000
0100
0001
,
1000
0010
0001
1000
0100
0001
1000
0010
,
0001
1000
0100
0001
1000
0100
0001
0100
,
0010
0001
0100
0001
0010
0100
1000
0010
,
0100
0010
1000
0100
0010
1000
0010
0001
,
1000
0100
0010
0010
0002
0000
0103
0010
,
1000
0001
0010
0010
0200
0000
0310
0001
,
1000
0010
1000
0010
0100
0001
0100
0001
,
1000
0010
0100
0001
0010
0100
0020
0000
,
0031
0100
0010
0010
2000
0000
3100
0010
,
0001
1000
0010
0010
0200
0000
0310
1000
,
0001
0010
0001
0010
0100
1000
0100
1000
,
0001
0010
0100
1000
0010
0100
0020
0000
,
1030
0100
0010
0100
0001
1000
0010
0100
,
0010
0001
1000
0100
0010
0100
0010
0001
,
1000
0100
0010
0100
0001
1000
0010
0100
,
0010
0001
1000
0100
0010
0001
0100
0001
,
1000
0010
0100
0010
0001
1000
0100
0010
,
0100
0001
1000
0010
0100
0010
0100
0001
,
1000
0010
0100
0010
0001
1000
0100
0010
,
0100
0001
1000
0010
0100
0001
0010
0001
,
0020
0030
0010
0010
0010
0000
0001
0000
,
1000
0000
0010
0100
0000
0010
0100
0000
,
0001
0001
1000
1000
0100
0100
0010
0010
,
0001
0000
0100
0010
0000
0100
0010
0000
,
0200
0300
0100
0100
0100
0000
0001
0000
,
1000
0000
0100
0010
0000
0100
0010
0000
,
0001
0001
1000
1000
0010
0010
0100
0100
,
0001
0000
0010
0100
0010
0010
0200
0000
,
1300
0100
0010
0001
0100
0100
1000
0001
,
1000
0010
0100
0001
0010
0010
1000
0001
,
0100
0010
0100
0010
1000
0100
1000
0100
,
0010
0001
0100
1000
0100
0001
2000
0000
,
3001
0100
0010
1000
0100
0100
0001
1000
,
0001
0010
0100
1000
0010
0010
0001
1000
,
0100
0010
0100
0010
0001
0100
0001
0100
,
0010
1000
0100
0001
0100
1000
0002
0000
,
0103
0010
0100
0010
0001
0010
0100
0010
,
1000
0001
1000
0100
1000
0010
0100
0001
,
0010
0100
0010
0100
0001
0100
0010
0100
,
1000
0001
1000
0010
1000
0100
0010
0001
,
0010
0100
0010
0100
0001
0100
0010
0100
,
1000
0001
1000
0010
1000
0100
0010
0001
,
0100
0010
0100
0010
0001
0010
0100
0010
,
1000
0001
1000
0100
1000
0010
0100
0001
,
0010
0001
0100
0001
1000
0001
0100
0100
,
0010
0001
0100
0001
1000
0001
0100
0100
,
0010
0001
0100
0001
1000
0001
0100
0100
,
0010
0001
0100
0001
1000
0001
0100
0100
,
0010
0001
0100
0001
1000
0001
0100
0100
,
0010
0001
0100
0001
1000
0001
0100
0100
,
0010
0001
0100
0001
1000
0001
0100
0100
,
0010
0001
0100
0001
1000
0001
0100
0100
,
0020
0030
0010
0010
0010
0000
0001
0000
,
1000
0000
0010
0100
0000
0010
0100
0000
,
0001
0001
1000
1000
0100
0100
0010
0010
,
0001
0000
0100
0010
0000
0100
0010
0000
,
0200
0300
0100
0100
0100
0000
0001
0000
,
1000
0000
0100
0010
0000
0100
0010
0000
,
0001
0001
1000
1000
0010
0010
0100
0100
,
0001
0000
0010
0100
0000
0010
0100
0010
,
0002
0000
0003
0000
;

//---------------dance-single - ----------------
#NOTEDATA:;
#CHARTNAME:;
#STEPSTYPE:dance-single;
#DESCRIPTION:;
#CHARTSTYLE:;
#DIFFICULTY:Medium;
#METER:12;
#RADARVALUES:0.619797,0.546393,0.162817,0.047887,0.000000,453.000000,436.000000,17.000000,5.000000,0.000000,0.000000,0.000000,0.000000,0.000000,0.619797,0.546393,0.162817,0.047887,0.000000,453.000000,436.000000,17.000000,5.000000,0.000000,0.000000,0.000000,0.000000,0.000000;
#CREDIT:led_light;
#NOTES:
0000
0000
0000
0000
,
0110
0000
1000
0100
1000
0000
0010
0000
,
0100
0000
0001
0010
0000
0001
0010
0000
,
0100
1000
0100
0000
0010
0001
0010
0000
,
0100
0000
1000
0010
0000
1000
0010
0000
,
0110
0000
0001
0010
0001
0000
0100
0000
,
0010
0000
1000
0100
0000
1000
0100
0000
,
0010
0001
0010
0000
0100
1000
0100
0000
,
0010
0000
0001
0100
0000
0001
0100
0000
,
0010
0000
1001
0000
1000
0100
0010
0000
,
0100
0000
1000
0010
0000
1000
0010
0000
,
0100
0000
1001
0000
0001
0010
0100
0000
,
0010
0000
0001
0100
0000
0001
0100
0000
,
0010
0000
1001
0000
1000
1000
0100
0000
,
0001
0000
0100
1000
0000
0100
1000
0000
,
0100
0000
1001
0000
0001
0001
0010
0000
,
1000
0000
0010
0001
0000
0010
0001
0000
,
1000
0000
0100
0001
0000
0001
1000
0000
,
1000
0010
0000
0010
0001
0000
1000
0000
,
0001
0000
0100
1000
0000
1000
0001
0000
,
0001
0010
0000
0010
1000
0001
0010
0000
,
0001
0000
0010
1000
0000
1000
0001
0000
,
0001
0100
0000
0100
1000
0000
0001
0000
,
1000
0000
0010
0001
0000
0001
1000
0000
,
1000
0100
0000
0100
0001
1000
0100
0000
,
0010
0010
0100
0000
2000
0000
3010
0000
,
0100
0100
0010
0000
2000
0000
3100
0000
,
0001
0100
0001
0000
0010
0001
0010
0000
,
1000
0010
1000
0000
0100
0000
0110
0000
,
0100
0100
0010
0000
0002
0000
0103
0000
,
0010
0010
0100
0000
0002
0000
0013
0000
,
1000
0010
1000
0000
0100
1000
0100
0000
,
0001
0100
0001
0000
0010
0000
0110
0000
,
0001
0100
0010
0000
0100
0001
0010
0000
,
0100
1000
0010
0000
0100
0010
1000
0000
,
0100
0001
0100
0000
1000
0010
1000
0000
,
0100
0001
0100
0000
1000
0000
1010
0000
,
1000
0010
0100
0000
0010
1000
0100
0000
,
0010
0001
0100
0000
0010
0100
0001
0000
,
0010
1000
0010
0000
0001
0100
0001
0000
,
0010
1000
0010
0000
0001
0000
0101
0000
,
0010
0000
1000
0100
1000
0000
0010
0000
,
0100
0000
0001
0010
0000
0001
0010
0000
,
0100
1000
0100
0000
0010
0001
0010
0000
,
0100
0000
1000
0010
0000
1000
0010
0000
,
0110
0000
0001
0010
0001
0000
0100
0000
,
0010
0000
1000
0100
0000
1000
0100
0000
,
0010
0001
0010
0000
0100
1000
0100
0000
,
0010
0000
0001
0100
0000
0001
0100
0000
,
0010
0010
0010
0000
0100
0001
1000
0000
,
0100
0010
0100
0000
1000
0100
1000
0000
,
0001
0010
0100
0000
0010
0001
1000
0000
,
0010
0100
1000
0000
0100
0000
0110
0000
,
0100
0100
0100
0000
0010
1000
0001
0000
,
0010
0100
0010
0000
0001
0010
0001
0000
,
1000
0100
0010
0000
0100
1000
0001
0000
,
0100
0010
0001
0000
0010
0000
0110
0000
,
0001
0001
1000
0000
0100
0100
0010
0000
,
0100
1000
0010
0000
0100
0001
1000
0000
,
0001
0001
0010
0000
1000
1000
0010
0000
,
0100
0100
0010
0000
0001
0000
0101
0000
,
1000
1000
0001
0000
0010
0010
0100
0000
,
0010
0001
0100
0000
0010
1000
0001
0000
,
1000
1000
0100
0000
0001
0001
0100
0000
,
0010
0010
0010
1001
,
1000
0100
0001
0000
0001
0100
1000
0000
,
1000
0100
0001
0000
0001
0100
1000
0000
,
1000
0010
0001
0000
0001
0010
1000
0000
,
1000
0010
0001
0000
0001
0010
1000
0000
,
0001
0010
1000
0000
1000
0010
0001
0000
,
0001
0010
1000
0000
1000
0010
0001
0000
,
0001
0100
1000
0000
1000
0100
0001
0000
,
0001
0100
1000
0000
1000
0100
0001
0000
,
0110
0000
0001
0100
0001
0000
0010
0000
,
0100
0000
1000
0010
0000
1000
0010
0000
,
0100
0001
0100
0000
0010
1000
0010
0000
,
0100
0000
0001
0010
0000
0001
0010
0000
,
0110
0000
1000
0010
1000
0000
0100
0000
,
0010
0000
0001
0100
0000
0001
0100
0000
,
0010
1000
0010
0000
0100
0001
0100
0000
,
0010
0000
1000
0100
0000
1000
0100
0000
,
0020
0000
0030
0000
;

//---------------dance-single - ----------------
#NOTEDATA:;
#CHARTNAME:;
#STEPSTYPE:dance-single;
#DESCRIPTION:;
#CHARTSTYLE:;
#DIFFICULTY:Easy;
#METER:9;
#RADARVALUES:0.461085,0.429309,0.172394,0.019155,0.000000,337.000000,319.000000,18.000000,2.000000,0.000000,0.000000,0.000000,0.000000,0.000000,0.461085,0.429309,0.172394,0.019155,0.000000,337.000000,319.000000,18.000000,2.000000,0.000000,0.000000,0.000000,0.000000,0.000000;
#CREDIT:led_light;
#NOTES:
0000
0000
0000
0000
,
1001
0100
0100
1000
,
0001
0000
0000
0001
0000
0000
0001
0000
,
1000
1000
1000
0000
0001
0001
0001
0000
,
0010
0000
0000
0010
0000
0000
0010
0000
,
1001
0100
0100
0001
,
1000
0000
0000
1000
0000
0000
1000
0000
,
0001
0001
0001
0000
1000
1000
1000
0000
,
0010
0000
0000
0010
0000
0000
0010
0000
,
2000
3100
0001
0100
,
1000
0000
0000
1000
0000
0000
1010
0000
,
0001
0010
1000
0010
,
0001
0000
0000
0001
0000
0000
0101
0000
,
0010
1000
0100
1000
,
0010
0000
0000
0010
0000
0000
0011
0000
,
0100
0001
0010
0001
,
0100
0000
0000
0100
0000
0000
1100
0000
,
0001
0000
0000
0001
0000
0000
0010
0000
,
0000
0010
0000
0000
1000
0000
1010
0000
,
0010
0000
0000
0010
0000
0000
1000
0000
,
0000
1000
0000
0000
0100
0000
0110
0000
,
1000
0000
0000
1000
0000
0000
0100
0000
,
0000
0100
0000
0000
0001
0000
0101
0000
,
0100
0000
0000
0100
0000
0000
0001
0000
,
0000
0001
0000
0000
0010
0000
0110
0000
,
0001
0100
0010
0000
1000
0000
0100
0000
,
0001
0100
1000
0010
,
0100
0100
0010
0010
,
1000
1000
0010
1001
,
0001
0010
0100
0000
1000
0000
0010
0000
,
0001
0010
1000
0100
,
0010
0010
0100
0100
,
1000
1000
1000
1001
,
0001
0100
1000
0000
0100
0000
0001
0000
,
0100
1000
0100
0001
,
1000
0100
0001
0000
0100
0000
1000
0000
,
0100
0001
0100
1000
,
0001
0010
1000
0000
0010
0000
0001
0000
,
0010
1000
0010
0001
,
1000
0010
0001
0000
0010
0000
1000
0000
,
0010
0001
0010
1000
,
1001
0100
0100
1000
,
0001
0000
0000
0001
0000
0000
0001
0000
,
1000
1000
1000
0000
0001
0001
0001
0000
,
0010
0000
0000
0010
0000
0000
0010
0000
,
1001
0100
0100
0001
,
1000
0000
0000
1000
0000
0000
1000
0000
,
0001
0001
0001
0000
1000
1000
1000
0000
,
0010
0000
0000
0010
0000
0000
0010
0000
,
1000
0100
0010
0000
0001
0000
0100
0000
,
0010
1000
0100
0010
,
0001
0100
0001
0100
,
0010
1000
0001
1001
,
0001
0010
0100
0000
1000
0000
0010
0000
,
0100
0001
0010
0100
,
1000
0010
1000
0010
,
0100
0001
1000
1001
,
0001
0010
0100
0000
1000
0000
1000
0000
,
0010
0010
1000
0100
,
0001
0001
1000
1000
,
0010
0001
0010
0001
,
1000
0100
0010
0000
0001
0000
0001
0000
,
0100
0100
0001
0010
,
1000
1000
0001
0001
,
0100
0100
0100
0100
,
1000
0100
0001
0100
,
1000
0100
0001
0100
,
1000
0100
0001
0100
,
1000
0100
0001
0100
,
1000
0010
0001
0010
,
1000
0010
0001
0010
,
1000
0010
0001
0010
,
1000
0010
0001
0010
,
1001
0010
0010
1000
,
0001
0000
0000
0001
0000
0000
0001
0000
,
1000
1000
1000
0000
0001
0001
0001
0000
,
0100
0000
0000
0100
0000
0000
0100
0000
,
1001
0010
0010
0001
,
1000
0000
0000
1000
0000
0000
1000
0000
,
0001
0001
0001
0000
1000
1000
1000
0000
,
0100
0000
0000
0100
0000
0000
0100
0000
,
0020
0000
0030
0000
;

//---------------dance-single - ----------------
#NOTEDATA:;
#CHARTNAME:;
#STEPSTYPE:dance-single;
#DESCRIPTION:;
#CHARTSTYLE:;
#DIFFICULTY:Beginner;
#METER:3;
#RADARVALUES:0.165553,0.195140,0.000000,0.009577,0.000000,121.000000,121.000000,0.000000,1.000000,0.000000,0.000000,0.000000,0.000000,0.000000,0.165553,0.195140,0.000000,0.009577,0.000000,121.000000,121.000000,0.000000,1.000000,0.000000,0.000000,0.000000,0.000000,0.000000;
#CREDIT:led_light;
#NOTES:
0000
0000
0000
0000
,
0000
0000
0000
0000
,
0000
0000
0000
0000
,
0000
0000
0000
0000
,
0000
0000
0000
0000
,
0100
0000
0000
0000
,
0010
0000
0000
0000
,
0100
0000
0000
0000
,
0010
0000
0000
0000
,
1000
0000
1000
0000
,
1000
0000
0000
0000
,
0100
0000
0100
0000
,
0100
0000
0000
0000
,
0001
0000
0001
0000
,
0001
0000
0000
0000
,
0010
0000
0010
0000
,
0010
0000
0000
0000
,
1000
0000
0000
0000
,
0100
0000
0000
0000
,
0001
0000
0000
0000
,
0100
0000
0000
0000
,
1000
0000
0000
0000
,
0010
0000
0000
0000
,
0001
0000
0000
0000
,
0010
0000
0000
0000
,
1000
0000
1000
0000
,
0010
0000
0010
0000
,
1000
0000
0100
0000
,
0001
0000
0001
0000
,
0010
0000
0010
0000
,
0001
0000
0001
0000
,
0010
0000
1000
0000
,
0100
0000
0100
0000
,
0001
0000
0001
0000
,
0100
0000
0100
0000
,
0001
0000
0010
0000
,
1000
0000
1000
0000
,
0100
0000
0100
0000
,
1000
0000
1000
0000
,
0100
0000
0001
0000
,
0010
0000
0010
0000
,
1000
0000
0000
0000
,
0001
0000
0000
0000
,
1000
0000
0000
0000
,
0001
0000
0000
0000
,
0100
0000
0000
0000
,
0010
0000
0000
0000
,
0100
0000
0000
0000
,
0010
0000
0000
0000
,
1000
0000
1000
0000
,
0100
0000
0100
0000
,
1000
0000
1000
0000
,
0010
0000
1000
0000
,
0001
0000
0001
0000
,
0010
0000
0010
0000
,
0001
0000
0001
0000
,
0100
0000
0001
0000
,
0010
0000
0010
0000
,
0100
0000
0010
0000
,
0001
0000
0100
0000
,
1000
0000
0100
0000
,
0010
0000
0010
0000
,
0100
0000
0010
0000
,
1000
0000
0100
0000
,
0001
0000
0100
0000
,
1000
0000
1000
0000
,
1000
0000
1000
0000
,
1000
0000
1000
0000
,
1000
0000
1000
0000
,
0001
0000
0001
0000
,
0001
0000
0001
0000
,
0001
0000
0001
0000
,
0001
0000
0001
0000
,
1000
0000
0000
0000
,
0001
0000
0000
0000
,
1000
0000
0000
0000
,
0001
0000
0000
0000
,
0100
0000
0000
0000
,
0010
0000
0000
0000
,
0100
0000
0000
0000
,
0010
0000
0000
0000
,
0200
0000
0300
0000
;

//---------------dance-single - FNF Hard----------------
#NOTEDATA:;
#CHARTNAME:;
#STEPSTYPE:dance-single;
#DESCRIPTION:FNF Hard;
#CHARTSTYLE:;
#DIFFICULTY:Edit;
#METER:14;
#RADARVALUES:0.757986,0.657372,0.000000,0.076620,0.000000,554.000000,554.000000,0.000000,8.000000,0.000000,0.000000,0.000000,0.000000,0.000000,0.757986,0.657372,0.000000,0.076620,0.000000,554.000000,554.000000,0.000000,8.000000,0.000000,0.000000,0.000000,0.000000,0.000000;
#CREDIT:led_light (FNF Hard);
#NOTES:
// measure 0
0000
0000
0000
0000
,  // measure 1
0001
0000
0001
0001
0100
0000
1000
0000
,  // measure 2
0001
0000
0100
0001
0000
0100
0001
0000
,  // measure 3
0001
0001
0001
0001
0100
0100
1000
1000
,  // measure 4
0001
0000
0100
0001
0000
0100
0001
0000
,  // measure 5
0001
0000
0001
0001
0100
0000
1000
0000
,  // measure 6
0001
0000
0100
0001
0000
0100
0001
0000
,  // measure 7
0001
0001
0001
0001
0100
0100
1000
1000
,  // measure 8
0001
0000
0100
0001
0000
0100
0001
0000
,  // measure 9
0010
0000
0100
0000
0010
0001
0100
0000
,  // measure 10
0010
0000
0100
0010
0000
0100
0010
0000
,  // measure 11
0010
0000
0100
0000
0010
0001
0100
0000
,  // measure 12
0010
0000
0100
0010
0000
0100
1000
0000
,  // measure 13
0010
0000
0100
0000
0010
0001
0100
0000
,  // measure 14
0010
0000
0100
0010
0000
0100
0010
0000
,  // measure 15
0010
0000
0100
0000
0010
0001
0100
0000
,  // measure 16
0010
0000
0100
0010
0000
0100
1000
0000
,  // measure 17
0100
1000
0001
0100
1000
0001
0100
1000
,  // measure 18
0010
0100
1000
0010
0100
1000
0001
0100
,  // measure 19
0100
1000
0001
0100
1000
0001
0100
1000
,  // measure 20
0010
0100
1000
0010
0100
1000
0001
0100
,  // measure 21
0100
1000
0001
0100
1000
0001
0100
1000
,  // measure 22
0010
0100
1000
0010
0100
1000
0001
0100
,  // measure 23
0100
1000
0001
0100
1000
0001
0100
1000
,  // measure 24
0010
0100
1000
0010
0100
1000
0001
0100
,  // measure 25
0010
0000
1000
0000
0001
0000
0100
0000
0002
0003
0000
0000
1000
0000
0001
0000
,  // measure 26
1000
0000
0010
0000
1000
0000
0100
0000
0002
0003
0000
0000
0100
0000
0001
0000
,  // measure 27
1000
0010
1000
0001
1000
0010
0001
0100
,  // measure 28
0100
0000
1000
0000
0100
0000
0001
0000
0100
0000
1000
0000
0200
0300
0000
0000
,  // measure 29
0010
0000
1000
0000
0001
0000
0100
0000
0002
0003
0000
0000
1000
0000
0001
0000
,  // measure 30
1000
0000
0010
0000
1000
0000
0100
0000
0002
0003
0000
0000
0100
0000
0001
0000
,  // measure 31
1000
0010
1000
0001
1000
0010
0001
0100
,  // measure 32
0100
0000
1000
0000
0100
0000
0001
0000
0100
0000
1000
0000
0200
0300
0000
0000
,  // measure 33
1000
0100
1000
0010
0001
0100
1000
0001
,  // measure 34
0010
1000
0100
1000
0010
0001
1000
0001
,  // measure 35
1000
0100
1000
0010
0001
0100
1000
0001
,  // measure 36
0010
1000
0100
1000
0010
1000
0001
1000
,  // measure 37
1000
0100
1000
0010
0001
0100
1000
0001
,  // measure 38
0010
1000
0100
1000
0010
0001
1000
0001
,  // measure 39
1000
0100
1000
0010
0001
0100
1000
0001
,  // measure 40
0010
1000
0100
1000
0010
1000
0001
1000
,  // measure 41
0001
0000
0001
0001
0100
0000
1000
0000
,  // measure 42
0001
0000
0100
0001
0000
0100
0001
0000
,  // measure 43
0001
0001
0001
0001
0100
0100
1000
1000
,  // measure 44
0001
0000
0100
0001
0000
0100
0001
0000
,  // measure 45
0001
0000
0001
0001
0100
0000
1000
0000
,  // measure 46
0001
0000
0100
0001
0000
0100
0001
0000
,  // measure 47
0001
0001
0001
0001
0100
0100
1000
1000
,  // measure 48
0001
0000
0100
0001
0000
0100
0001
0000
,  // measure 49
0010
1000
0001
0100
0001
0001
1000
0001
,  // measure 50
1000
0010
1000
0100
0001
0001
0100
0001
,  // measure 51
1000
0010
1000
0001
1000
0010
0001
0100
,  // measure 52
0100
0000
1000
0000
0100
0000
0001
0000
0100
0000
1000
0000
0200
0300
0000
0000
,  // measure 53
0010
1000
0001
0100
0001
0001
1000
0001
,  // measure 54
1000
0010
1000
0100
0001
0001
0100
0001
,  // measure 55
1000
0010
1000
0001
1000
0010
0001
0100
,  // measure 56
0100
0000
1000
0000
0100
0000
0001
0000
0100
0000
1000
0000
0200
0300
0000
0000
,  // measure 57
1000
0100
1000
0010
0001
0100
1000
0001
,  // measure 58
0010
1000
0100
1000
0010
0001
1000
0001
,  // measure 59
1000
0100
1000
0010
0001
0100
1000
0001
,  // measure 60
0010
1000
0100
1000
0010
1000
0001
1000
,  // measure 61
1000
0100
1000
0010
0001
0100
1000
0001
,  // measure 62
0010
1000
0100
1000
0010
0001
1000
0001
,  // measure 63
1000
0100
1000
0010
0001
0100
1000
0001
,  // measure 64
0010
1000
0100
1000
0010
1000
0001
1000
,  // measure 65
0010
0001
0100
0001
1000
0001
0100
0100
,  // measure 66
0010
0001
0100
0001
1000
0001
0100
0100
,  // measure 67
0010
0001
0100
0001
1000
0001
0100
0100
,  // measure 68
0010
0001
0100
0001
1000
0001
0100
0100
,  // measure 69
0010
0001
0100
0001
1000
0001
0100
0100
,  // measure 70
0010
0001
0100
0001
1000
0001
0100
0100
,  // measure 71
0010
0001
0100
0001
1000
0001
0100
0100
,  // measure 72
0010
0001
0100
0001
1000
0001
0100
0100
,  // measure 73
0001
0000
0001
0001
0100
0000
1000
0000
,  // measure 74
0001
0000
0100
0001
0000
0100
0001
0000
,  // measure 75
0001
0001
0001
0001
0100
0100
1000
1000
,  // measure 76
0001
0000
0100
0001
0000
0100
0001
0000
,  // measure 77
0001
0000
0001
0001
0100
0000
1000
0000
,  // measure 78
0001
0000
0100
0001
0000
0100
0001
0000
,  // measure 79
0001
0001
0001
0001
0100
0100
1000
1000
,  // measure 80
0001
0000
0100
0001
0000
0100
0001
0000
;
