#TITLE:Thorns;
#SUBTITLE:[B-Side Remix];
#ARTIST:JADS;
#TITLETRANSLIT:;
#SUBTITLETRANSLIT:;
#ARTISTTRANSLIT:;
#GENRE:Friday Night Funkin';
#CREDIT:;
#BANNER:Thorns [B-Side Remix].png;
#BACKGROUND:../bg.png;
#LYRICSPATH:;
#CDTITLE:../cdtitle.png;
#MUSIC:Thorns [B-Side Remix].ogg;
#OFFSET:1.213000;
#SAMPLESTART:10.154000;
#SAMPLELENGTH:15.000000;
#LASTBEATHINT:0.674500;
#SELECTABLE:YES;
#BPMS:0.000000=190.000000
;
#STOPS:
;
#BGCHANGES: -1.000=Thorns [B-Side Remix].avi=1.000=0=0=0=StretchNoLoop====,
99999=-nosongbg-=1.000=0=0=0 // don't automatically add -songbackground-
;
#KEYSOUNDS:;
#ATTACKS:;

//---------------dance-single - ----------------
#NOTES:
     dance-single:
     :
     Hard:
     17:
     0.953833,1.019133,0.144729,0.559619,0.492079,692.000000,677.000000,15.000000,58.000000,0.000000,0.000000,0.953833,1.019133,0.144729,0.559619,0.492079,692.000000,677.000000,15.000000,58.000000,0.000000,0.000000:
// measure 0
0000
0000
0000
0000
,  // measure 1
0012
0003
0100
0100
0001
0001
1000
1000
,  // measure 2
0020
0000
0030
0000
0100
0000
0020
0000
0030
0000
0100
0000
0020
0000
0130
0010
,  // measure 3
0100
0000
0100
0000
0100
0000
0100
0000
0001
0000
0001
0000
0010
0000
0010
1000
,  // measure 4
0010
0010
0001
2000
3000
0001
0020
0030
,  // measure 5
2100
3000
0010
0010
1000
1000
0001
0001
,  // measure 6
0200
0000
0300
0000
0010
0000
0200
0000
0300
0000
0010
0000
0200
0000
0310
0100
,  // measure 7
0010
0000
0010
0000
0010
0000
0010
0000
1000
0000
1000
0000
0100
0000
0100
0001
,  // measure 8
0100
0100
1000
0002
0003
1000
0020
0030
,  // measure 9
0110
0000
0100
0000
0010
0000
1000
0000
0001
0000
1000
0000
0010
0000
0010
1000
,  // measure 10
0010
0100
0001
0010
1000
0010
0001
1000
,  // measure 11
0100
0000
0010
0000
0001
0000
0100
0000
0010
0000
1000
0000
0001
0000
0001
0100
,  // measure 12
0001
0000
0100
0000
0010
0000
0001
0000
0010
0000
0100
0000
0010
1000
0010
1000
,  // measure 13
0100
0000
0100
0000
0010
0000
0001
0000
1000
0000
0001
0000
0010
0000
0010
0001
,  // measure 14
0010
0100
1000
0010
0001
0010
1000
0001
,  // measure 15
0100
0000
0010
0000
1000
0000
0100
0000
0010
0000
0001
0000
1000
0000
1000
0100
,  // measure 16
1000
0000
0100
0000
0010
0000
1000
0000
0010
0000
0100
0000
0010
0001
0010
0001
,  // measure 17
1000
0100
1000
0000
0001
0000
0010
0100
0010
0000
0001
0000
0100
0001
0100
0000
,  // measure 18
0010
0000
1000
0100
0010
0000
0100
0010
0001
0000
0010
0000
0100
0000
0010
0000
,  // measure 19
0001
0000
1000
0000
0010
0000
0100
0010
0100
0000
0001
0000
0010
0000
0100
0000
,  // measure 20
0001
0000
0100
0010
0000
0100
0010
0000
0001
0000
1000
0000
0100
0000
0010
0000
,  // measure 21
0001
0010
0001
0000
1000
0000
0100
0010
0100
0000
1000
0000
0010
1000
0010
0000
,  // measure 22
0100
0000
0001
0010
0100
0000
0010
0100
1000
0000
0100
0000
0010
0000
0100
0000
,  // measure 23
1000
0000
0001
0000
0100
0000
0010
0100
0010
0000
1000
0000
0100
0000
0010
0000
,  // measure 24
1000
0000
0010
0100
0000
0010
0100
0000
1000
0000
0001
0000
0010
0000
0100
0000
,  // measure 25
1000
0000
1000
0000
0001
0000
0100
0000
0010
0000
2000
0000
0100
0000
3100
0010
,  // measure 26
0100
0000
0010
0000
0100
0000
0010
0000
0001
0000
0100
0000
0001
0000
0100
0010
,  // measure 27
0100
0000
0010
0000
1000
0000
0001
0100
0010
0000
0100
0001
0010
0000
0100
0000
,  // measure 28
1000
0100
0001
1000
0010
0100
0020
0000
,  // measure 29
0031
0000
0001
0000
1000
0000
0010
0000
0100
0000
0002
0000
0010
0000
0013
0100
,  // measure 30
0010
0000
0100
0000
0010
0000
0100
0000
1000
0000
0010
0000
1000
0000
0010
0100
,  // measure 31
0010
0000
0100
0000
0001
0000
1000
0010
0100
0000
0010
1000
0100
0000
0010
0000
,  // measure 32
0001
0010
1000
0001
0100
0010
0200
0000
,  // measure 33
1300
0000
0100
0000
0001
0000
0100
0000
1000
0100
1000
0000
0001
0000
0100
0000
,  // measure 34
0020
0000
2030
0000
3002
0000
0203
0000
0310
1000
0010
0100
0010
0000
1000
0000
,  // measure 35
0001
0000
0100
0000
0001
0000
0010
0000
0100
1000
0100
0000
0010
0000
0001
0000
,  // measure 36
1000
0000
1000
0000
0100
0000
0010
0000
0001
0100
0001
1000
0010
0000
0100
0000
,  // measure 37
0001
0000
0010
0000
1000
0000
0010
0000
0001
0010
0001
0000
1000
0000
0010
0000
,  // measure 38
0200
0000
0302
0000
2003
0000
3020
0000
0130
0001
0100
0010
0100
0000
0001
0000
,  // measure 39
1000
0000
0010
0000
1000
0000
0100
0000
0010
0001
0010
0000
0100
0000
1000
0000
,  // measure 40
0001
0000
0001
0000
0010
0000
0100
0000
1000
0010
1000
0001
0100
0000
0010
0000
,  // measure 41
2010
3000
0100
0100
1000
1000
0001
0001
,  // measure 42
0020
0000
0030
0000
0100
0000
0020
0000
0030
0000
0100
0000
0020
0000
0130
0010
,  // measure 43
0100
0000
0100
0000
0100
0000
0100
0000
1000
0000
1000
0000
0010
0000
0010
0001
,  // measure 44
0010
0010
1000
0002
0003
1000
0020
0030
,  // measure 45
0102
0003
0010
0010
0001
0001
1000
1000
,  // measure 46
0200
0000
0300
0000
0010
0000
0200
0000
0300
0000
0010
0000
0200
0000
0310
0100
,  // measure 47
0010
0000
0010
0000
0010
0000
0010
0000
0001
0000
0001
0000
0100
0000
0100
1000
,  // measure 48
0100
0100
0001
2000
3000
0001
0020
0030
,  // measure 49
0010
0000
0100
0000
0010
0000
0001
0000
1000
0010
1000
0000
0010
0000
0100
0000
,  // measure 50
0001
0000
1000
0000
0001
0000
0010
0000
0100
0000
0010
0100
0000
0010
0100
0000
,  // measure 51
1000
0000
0001
0000
0010
0000
0010
0001
0010
0000
0100
0000
1000
0000
0010
0000
,  // measure 52
0100
0000
0001
0000
0010
0000
1000
0000
0010
0001
0010
0001
2000
0000
0000
0000
,  // measure 53
3100
0000
0010
0000
0100
0000
1000
0000
0001
0100
0001
0000
0100
0000
0010
0000
,  // measure 54
1000
0000
0001
0000
1000
0000
0100
0000
0010
0000
0100
0010
0000
0100
0010
0000
,  // measure 55
0001
0000
1000
0000
0100
0000
0100
1000
0100
0000
0010
0000
0001
0000
0100
0000
,  // measure 56
0010
0000
1000
0000
0100
0000
0001
0000
0100
1000
0100
1000
0002
0000
0000
0000
,  // measure 57
0013
0100
0010
0000
2100
0000
3001
0000
,  // measure 58
0010
0001
0100
0000
2001
0000
3100
0000
,  // measure 59
0010
0100
0010
0000
2100
0000
3001
0000
,  // measure 60
0010
0000
0100
0000
1000
0000
0000
0000
1010
0000
0000
1000
0000
0000
0100
0000
,  // measure 61
0010
0100
0010
0000
0102
0000
1003
0000
,  // measure 62
0010
1000
0100
0000
1002
0000
0103
0000
,  // measure 63
0010
0100
0010
0000
0102
0000
1003
0000
,  // measure 64
0010
0000
0100
0000
0001
0000
0000
0000
0011
0000
0000
0001
0000
0000
0100
0000
,  // measure 65
0010
0000
1000
0100
1000
0001
0010
0000
0100
0000
1000
0100
0000
0100
1000
0000
,  // measure 66
0001
0000
0100
0000
0001
0100
0010
0000
1000
0100
0010
0001
1000
0100
0010
0001
,  // measure 67
0010
0100
0010
0000
0001
0000
0001
0000
0100
0000
0001
0100
0000
0100
0010
0000
,  // measure 68
1000
0000
0100
0000
0010
0000
0100
0000
1000
0100
1000
0100
0010
0001
0010
0001
,  // measure 69
0100
0000
0001
0010
0001
1000
0100
0000
0010
0000
0001
0010
0000
0010
0001
0000
,  // measure 70
1000
0000
0010
0000
1000
0010
0100
0000
0001
0010
0100
1000
0001
0010
0100
1000
,  // measure 71
0100
0010
0100
0000
1000
0000
1000
0000
0010
0000
1000
0010
0000
0010
0100
0000
,  // measure 72
0001
0000
0010
0000
0100
0000
0010
0000
0001
0010
0001
0010
0100
1000
0100
1000
,  // measure 73
0020
0030
0100
0100
0001
0001
1000
1000
,  // measure 74
0020
0000
0030
0000
0100
0000
0020
0000
0030
0000
0100
0000
0020
0000
0130
0010
,  // measure 75
0100
0000
0100
0000
0100
0000
0100
0000
0001
0000
0001
0000
0010
0000
0010
1000
,  // measure 76
0010
0010
0001
2000
3000
0001
0020
0030
,  // measure 77
2100
3000
0010
0010
1000
1000
0001
0001
,  // measure 78
0200
0000
0300
0000
0010
0000
0200
0000
0300
0000
0010
0000
0200
0000
0310
0100
,  // measure 79
0010
0000
0010
0000
0010
0000
0010
0000
1000
0000
1000
0000
0100
0000
0100
0001
,  // measure 80
0100
0100
1000
0002
0003
1000
0020
0030
,  // measure 81
0220
0330
0000
0000
;

//---------------dance-single - ----------------
#NOTES:
     dance-single:
     :
     Medium:
     14:
     0.800834,0.705554,0.115783,0.463133,0.077189,581.000000,569.000000,12.000000,48.000000,0.000000,0.000000,0.800834,0.705554,0.115783,0.463133,0.077189,581.000000,569.000000,12.000000,48.000000,0.000000,0.000000:
// measure 0
0000
0000
0000
0000
,  // measure 1
0110
0000
1000
0100
1000
0100
0001
0100
,  // measure 2
2000
3000
0001
0200
0300
0010
0100
0001
,  // measure 3
0010
0100
0010
0100
0010
0010
1000
0010
,  // measure 4
0001
1000
0001
2000
3000
0001
0200
0300
,  // measure 5
0110
0000
0001
0010
0001
0010
1000
0010
,  // measure 6
0002
0003
1000
0020
0030
0100
0010
1000
,  // measure 7
0100
0010
0100
0010
0100
0100
0001
0100
,  // measure 8
1000
0001
1000
0002
0003
1000
0020
0030
,  // measure 9
0011
0000
1010
0000
0001
0010
0100
0010
,  // measure 10
0001
0000
1000
0100
0010
0010
0001
0100
,  // measure 11
0010
0000
1001
0000
0001
0100
1000
0100
,  // measure 12
0001
0000
1000
0010
0001
0010
1000
1000
,  // measure 13
0100
0000
1100
0000
0001
0100
0010
0100
,  // measure 14
0001
0000
1000
0010
0100
0100
0001
0010
,  // measure 15
0100
0000
1001
0000
0001
0010
1000
0010
,  // measure 16
0001
0000
1000
0100
0001
0100
1000
0010
,  // measure 17
1000
0100
0001
1000
0010
0001
1000
0001
,  // measure 18
0010
1000
0001
1000
0010
0001
0010
0100
,  // measure 19
1000
0100
0001
1000
0010
0001
0010
0001
,  // measure 20
0100
0000
0000
0010
0000
0000
0010
0000
0001
0000
0010
0000
0100
0000
0100
0000
,  // measure 21
0001
0010
1000
0001
0100
1000
0001
1000
,  // measure 22
0100
0001
1000
0001
0100
1000
0100
0010
,  // measure 23
0001
0010
1000
0001
0100
1000
0100
1000
,  // measure 24
0010
0000
0000
0100
0000
0000
0100
0000
1000
0000
0100
0000
0010
0000
0010
0000
,  // measure 25
1000
0100
0010
0001
0000
2100
0000
3001
,  // measure 26
0100
1000
0100
0010
0100
1000
0100
0001
,  // measure 27
1000
0010
1000
0010
0100
0001
1000
0010
,  // measure 28
0100
0010
1000
0001
0010
0100
0020
0000
,  // measure 29
0031
0100
0010
1000
0000
0102
0000
1003
,  // measure 30
0100
0001
0100
0010
0100
0001
0100
1000
,  // measure 31
0001
0010
0001
0010
0100
1000
0001
0010
,  // measure 32
0100
0010
0001
1000
0010
0100
0020
0000
,  // measure 33
1030
0000
1000
0100
0010
0100
0010
0001
,  // measure 34
0200
0320
2030
3002
0103
0010
0100
1000
,  // measure 35
0100
0000
0001
0100
0010
1000
0100
0001
,  // measure 36
0100
1000
0100
0010
0100
0100
1000
0001
,  // measure 37
1000
0000
1000
0010
0100
0010
0100
0001
,  // measure 38
0020
0230
2300
3002
0013
0100
0010
1000
,  // measure 39
0010
0000
0001
0010
0100
1000
0010
0001
,  // measure 40
0010
1000
0010
0100
0010
0010
1000
0001
,  // measure 41
0020
0030
0001
0010
0001
0010
1000
0010
,  // measure 42
0002
0003
1000
0020
0030
0100
0010
1000
,  // measure 43
0100
0010
0100
0010
0100
0100
0001
0100
,  // measure 44
1000
0001
1000
0002
0003
1000
0020
0030
,  // measure 45
0110
0000
1000
0100
1000
0100
0001
0100
,  // measure 46
2000
3000
0001
0200
0300
0010
0100
0001
,  // measure 47
0010
0100
0010
0100
0010
0010
1000
0010
,  // measure 48
0001
1000
0001
2000
3000
0001
0200
0300
,  // measure 49
0010
0001
0010
1000
0010
0010
0100
0001
,  // measure 50
0010
0000
0001
0000
0100
0000
0010
0000
1000
0000
0010
1000
0000
0010
1000
0000
,  // measure 51
0001
0100
0010
0100
0001
0001
0010
0010
,  // measure 52
1000
0010
0001
0010
0100
1000
0020
0000
,  // measure 53
0130
1000
0100
0001
0100
0100
0010
1000
,  // measure 54
0100
0000
1000
0000
0010
0000
0100
0000
0001
0000
0100
0001
0000
0100
0001
0000
,  // measure 55
1000
0010
0100
0010
1000
1000
0100
0100
,  // measure 56
0001
0100
1000
0100
0010
0001
0200
0000
,  // measure 57
0310
0100
0010
0000
0020
0000
0130
0000
,  // measure 58
0001
0010
0001
0000
0002
0000
0013
0000
,  // measure 59
1000
0010
1000
0000
2000
0000
3010
0000
,  // measure 60
0100
0000
0010
0000
0100
0000
0000
0000
0100
0000
0000
1000
0000
0000
1000
0000
,  // measure 61
0100
0010
0100
0000
0200
0000
0310
0000
,  // measure 62
0001
0100
0001
0000
0002
0000
0103
0000
,  // measure 63
1000
0100
1000
0000
2000
0000
3100
0000
,  // measure 64
0010
0000
0100
0000
0010
0000
0000
0000
0010
0000
0000
1000
0000
0000
1000
0000
,  // measure 65
0010
0000
1000
0000
0100
0000
0010
0000
0001
0000
0100
0001
0000
0100
0001
0000
,  // measure 66
0100
0010
1000
0001
0010
0100
0001
0100
,  // measure 67
1000
0000
0100
0000
0010
0000
0001
0000
0100
0000
0010
1000
0000
0010
1000
0000
,  // measure 68
0010
0100
0001
1000
0010
0010
0100
0001
,  // measure 69
0010
0000
0001
0000
0100
0000
0010
0000
1000
0000
0100
1000
0000
0100
1000
0000
,  // measure 70
0100
0010
0001
1000
0010
0100
1000
0100
,  // measure 71
0001
0000
0100
0000
0010
0000
1000
0000
0100
0000
0010
0001
0000
0010
0001
0000
,  // measure 72
0010
0100
1000
0001
0010
0010
0100
1000
,  // measure 73
0020
0030
1000
0100
1000
0100
0001
0100
,  // measure 74
2000
3000
0001
0200
0300
0010
0100
0001
,  // measure 75
0010
0100
0010
0100
0010
0010
1000
0010
,  // measure 76
0001
1000
0001
2000
3000
0001
0200
0300
,  // measure 77
0110
0000
0001
0010
0001
0010
1000
0010
,  // measure 78
0002
0003
1000
0020
0030
0100
0010
1000
,  // measure 79
0100
0010
0100
0010
0100
0100
0001
0100
,  // measure 80
1000
0001
1000
0002
0003
1000
0020
0030
,  // measure 81
0220
0330
0000
0000
;

//---------------dance-single - FNF Hard----------------
#NOTES:
     dance-single:
     :
     Edit:
     18:
     0.992427,1.015213,0.000000,0.270161,0.617510,720.000000,720.000000,0.000000,28.000000,0.000000,0.000000,0.992427,1.015213,0.000000,0.270161,0.617510,720.000000,720.000000,0.000000,28.000000,0.000000,0.000000:
// measure 0
0000
0000
0000
0000
,  // measure 1
0001
0000
0001
0001
0100
0100
1000
1000
,  // measure 2
0002
0000
0000
0003
1000
0000
0002
0000
0000
0003
1000
0000
0001
0000
0010
0010
,  // measure 3
0001
0000
0001
0000
0001
0000
0001
0000
0100
0000
0100
0000
1000
0000
0100
0010
,  // measure 4
0001
0000
0001
0000
1000
0000
0002
0000
0000
0003
1000
0000
0002
0000
0000
0003
,  // measure 5
1000
0000
1000
1000
0010
0010
0001
0001
,  // measure 6
2000
0000
0000
3000
0001
0000
2000
0000
0000
3000
0001
0000
1000
0000
0100
0100
,  // measure 7
1000
0000
1000
0000
1000
0000
1000
0000
0010
0000
0010
0000
0001
0000
0010
0100
,  // measure 8
1000
0000
1000
0000
0001
0000
2000
0000
0000
3000
0001
0000
2000
0000
0000
3000
,  // measure 9
0010
0000
1000
0000
0100
0000
1000
0000
0001
0000
0100
0000
0001
0000
0010
0001
,  // measure 10
0010
1000
0100
0010
0001
0010
0100
1000
,  // measure 11
0010
0000
1000
0000
0100
0000
1000
0000
0001
0000
0100
0000
0001
0000
0010
0001
,  // measure 12
0010
0000
1000
0000
0100
0000
0010
0000
0001
0000
0100
0000
0010
0001
0100
1000
,  // measure 13
0100
0000
0001
0000
0010
0000
0001
0000
1000
0000
0010
0000
1000
0000
0100
1000
,  // measure 14
0100
0001
0010
0100
1000
0100
0010
0001
,  // measure 15
0100
0000
0001
0000
0010
0000
0001
0000
1000
0000
0010
0000
1000
0000
0100
1000
,  // measure 16
0100
0000
0001
0000
0010
0000
0100
0000
1000
0000
0010
0000
0100
1000
0010
0001
,  // measure 17
0001
1000
0100
0000
0010
0000
0001
1000
0100
0000
0010
0000
0001
1000
0100
0000
,  // measure 18
0001
0000
0100
1000
0001
0000
0100
1000
0010
0000
0100
0000
0001
0000
1000
0000
,  // measure 19
0001
0000
0100
0000
0010
0000
0001
1000
0100
0000
0010
0000
0001
0000
1000
0000
,  // measure 20
0010
0000
1000
0001
0000
1000
0010
0000
0001
0000
0100
0000
0010
0000
1000
0000
,  // measure 21
1000
0001
0010
0000
0100
0000
1000
0001
0010
0000
0100
0000
1000
0001
0010
0000
,  // measure 22
1000
0000
0010
0001
1000
0000
0010
0001
0100
0000
0010
0000
1000
0000
0001
0000
,  // measure 23
1000
0000
0010
0000
0100
0000
1000
0001
0010
0000
0100
0000
1000
0000
0001
0000
,  // measure 24
0100
0000
0001
1000
0000
0001
0100
0000
1000
0000
0010
0000
0100
0000
0001
0000
,  // measure 25
0010
0000
0001
0000
1000
0000
0100
0000
0000
0000
0002
0000
0000
0003
1000
0001
,  // measure 26
0100
0000
0001
0000
0100
0000
1000
0000
0001
0000
1000
0000
0001
0000
0001
0010
,  // measure 27
0100
0000
0001
0000
0100
0000
1000
0001
0100
0000
0001
1000
0010
0000
0100
0000
,  // measure 28
0001
0000
0010
0000
1000
0000
0100
0000
0001
0000
1000
0000
0001
0000
0100
1000
,  // measure 29
0100
0000
1000
0000
0001
0000
0010
0000
0000
0000
2000
0000
0000
3000
0001
1000
,  // measure 30
0010
0000
1000
0000
0010
0000
0001
0000
1000
0000
0001
0000
1000
0000
1000
0100
,  // measure 31
0010
0000
1000
0000
0010
0000
0001
1000
0010
0000
1000
0001
0100
0000
0010
0000
,  // measure 32
1000
0000
0100
0000
0001
0000
0010
0000
1000
0000
0001
0000
1000
0000
0010
0001
,  // measure 33
0010
0000
0100
1000
0010
0000
1000
0000
0010
0001
1000
0000
0010
0000
0100
0100
,  // measure 34
0010
0000
0001
0000
1000
0000
0010
0000
1000
0001
1000
0001
0100
0000
0001
0000
,  // measure 35
0010
0000
0100
1000
0010
0000
0001
0000
0010
0001
1000
0000
0010
0000
1000
1000
,  // measure 36
0001
0000
0100
0000
0010
0000
1000
0000
0001
0010
0001
0010
1000
0000
0100
0000
,  // measure 37
0100
0000
0010
0001
0100
0000
0001
0000
0100
1000
0001
0000
0100
0000
0010
0010
,  // measure 38
0100
0000
1000
0000
0001
0000
0100
0000
0001
1000
0001
1000
0010
0000
1000
0000
,  // measure 39
0100
0000
0010
0001
0100
0000
1000
0000
0100
1000
0001
0000
0100
0000
0001
0001
,  // measure 40
1000
0000
0010
0000
0100
0000
0001
0000
1000
0100
1000
0100
0001
0000
0010
0000
,  // measure 41
0001
0000
0001
0001
0100
0100
1000
1000
,  // measure 42
0002
0000
0000
0003
1000
0000
0002
0000
0000
0003
1000
0000
0001
0000
0010
0010
,  // measure 43
0001
0000
0001
0000
0001
0000
0001
0000
0100
0000
0100
0000
1000
0000
0100
0010
,  // measure 44
0001
0000
0001
0000
1000
0000
0002
0000
0000
0003
1000
0000
0002
0000
0000
0003
,  // measure 45
1000
0000
1000
1000
0010
0010
0001
0001
,  // measure 46
2000
0000
0000
3000
0001
0000
2000
0000
0000
3000
0001
0000
1000
0000
0100
0100
,  // measure 47
1000
0000
1000
0000
1000
0000
1000
0000
0010
0000
0010
0000
0001
0000
0010
0100
,  // measure 48
1000
0000
1000
0000
0001
0000
2000
0000
0000
3000
0001
0000
2000
0000
0000
3000
,  // measure 49
0010
0000
0001
0000
1000
0000
0100
0000
0001
0100
0001
0000
1000
0000
0010
0000
,  // measure 50
0100
0000
0001
0000
0100
0000
1000
0000
0010
0000
0100
0010
0000
0100
0010
0000
,  // measure 51
0100
0000
0001
0000
0100
0000
1000
0001
0100
0000
0010
0000
0001
0000
0010
0000
,  // measure 52
0001
0000
0100
0000
0001
0000
1000
0000
0010
0001
1000
0100
0020
0000
0000
0030
,  // measure 53
0100
0000
1000
0000
0001
0000
0010
0000
1000
0010
1000
0000
0001
0000
0100
0000
,  // measure 54
0010
0000
1000
0000
0010
0000
0001
0000
0100
0000
0010
0100
0000
0010
0100
0000
,  // measure 55
0010
0000
1000
0000
0010
0000
0001
1000
0010
0000
0100
0000
1000
0000
0100
0000
,  // measure 56
1000
0000
0010
0000
1000
0000
0001
0000
0100
1000
0001
0010
0200
0000
0000
0300
,  // measure 57
0010
0000
1000
0000
0010
0000
0001
1000
0010
0000
0100
0001
0000
1000
0100
0000
,  // measure 58
0010
0000
0001
0000
1000
0000
0010
0000
0010
0001
1000
0000
0010
0001
1000
0100
,  // measure 59
0010
0000
1000
0000
0010
0000
0001
0000
0010
0001
0100
0000
0001
0000
1000
0000
,  // measure 60
0001
0000
0100
0000
0010
0000
1000
0000
0001
0000
0010
1000
0000
0010
0100
0000
,  // measure 61
0100
0000
0001
0000
0100
0000
1000
0001
0100
0000
0010
1000
0000
0001
0010
0000
,  // measure 62
0100
0000
1000
0000
0001
0000
0100
0000
0100
1000
0001
0000
0100
1000
0001
0010
,  // measure 63
0100
0000
0001
0000
0100
0000
1000
0000
0100
1000
0010
0000
1000
0000
0001
0000
,  // measure 64
1000
0000
0010
0000
0100
0000
0001
0000
1000
0000
0100
0001
0000
0100
0010
0000
,  // measure 65
0001
0000
1000
0010
0100
1000
0010
0000
0001
0000
0010
1000
0000
1000
0010
0000
,  // measure 66
0001
0000
0010
0000
0100
1000
0010
0000
0001
0010
0001
1000
0100
0010
0001
0100
,  // measure 67
0010
0001
0010
0000
1000
0000
0010
0000
1000
0000
0010
1000
0000
0100
0001
0000
,  // measure 68
0001
0000
0010
0000
1000
0000
0100
0000
0001
0001
0010
0010
1000
1000
0100
0100
,  // measure 69
1000
0000
0001
0100
0010
0001
0100
0000
1000
0000
0100
0001
0000
0001
0100
0000
,  // measure 70
1000
0000
0100
0000
0010
0001
0100
0000
1000
0100
1000
0001
0010
0100
1000
0010
,  // measure 71
0100
1000
0100
0000
0001
0000
0100
0000
0001
0000
0100
0001
0000
0010
1000
0000
,  // measure 72
1000
0000
0100
0000
0001
0000
0010
0000
1000
1000
0100
0100
0001
0001
0010
0010
,  // measure 73
0001
0000
0001
0001
0100
0100
1000
1000
,  // measure 74
0002
0000
0000
0003
1000
0000
0002
0000
0000
0003
1000
0000
0001
0000
0010
0010
,  // measure 75
0001
0000
0001
0000
0001
0000
0001
0000
0100
0000
0100
0000
1000
0000
0100
0010
,  // measure 76
0001
0000
0001
0000
1000
0000
0002
0000
0000
0003
1000
0000
0002
0000
0000
0003
,  // measure 77
1000
0000
1000
1000
0010
0010
0001
0001
,  // measure 78
2000
0000
0000
3000
0001
0000
2000
0000
0000
3000
0001
0000
1000
0000
0100
0100
,  // measure 79
1000
0000
1000
0000
1000
0000
1000
0000
0010
0000
0010
0000
0001
0000
0010
0100
,  // measure 80
1000
0000
1000
0000
0001
0000
2000
0000
0000
3000
0001
0000
2000
0000
0000
3000
;

//---------------dance-single - ----------------
#NOTES:
     dance-single:
     :
     Easy:
     11:
     0.584429,0.548764,0.356998,0.048243,0.000000,424.000000,387.000000,37.000000,5.000000,0.000000,0.000000,0.584429,0.548764,0.356998,0.048243,0.000000,424.000000,387.000000,37.000000,5.000000,0.000000,0.000000:
0000
0000
0000
0000
,
0010
0000
0001
0100
0001
0000
1000
0000
,
0010
0000
0100
0010
0000
0100
0010
0000
,
1000
0100
1000
0000
0001
0100
0010
0000
,
0100
0000
0001
1000
0000
0001
0100
0000
,
0110
0000
1000
0100
1000
0000
0001
0000
,
0010
0000
0100
0010
0000
0100
0010
0000
,
0001
0100
0001
0000
1000
0100
0010
0000
,
0100
0000
1000
0001
0000
1000
0100
0000
,
0010
0000
1001
0000
0001
0010
1000
0000
,
0010
0001
0100
0010
,
1000
0000
1001
0000
1000
0100
0001
0000
,
0100
1000
0010
0100
,
0010
0000
1001
0000
1000
0010
0001
0000
,
0010
1000
0100
0010
,
0001
0000
1001
0000
0001
0100
1000
0000
,
0100
0001
0010
0100
,
1000
0000
0100
0001
0000
0100
1000
0000
,
0010
0000
0010
0000
0010
0100
0010
0000
,
1000
0000
0010
0001
0000
0010
1000
0000
,
0100
0010
0100
1001
,
0001
0000
0010
1000
0000
0010
0001
0000
,
0100
0000
0100
0000
0100
0010
0100
0000
,
0001
0000
0100
1000
0000
0100
0001
0000
,
0010
0100
0010
1001
,
0001
0000
1000
0010
0000
0200
0000
0301
,
1000
0100
1000
0000
0001
0100
0001
0000
,
1000
0010
0100
0000
0001
0010
0100
0000
,
1000
0001
1000
1001
,
1000
0000
0001
0100
0000
0020
0000
1030
,
0001
0010
0001
0000
1000
0010
1000
0000
,
0001
0100
0010
0000
1000
0100
0010
0000
,
0001
1000
0001
1001
,
0001
0000
0100
0010
1000
0100
0010
0000
,
0001
0100
0001
0000
0100
0010
0100
0000
,
0001
0000
1001
0000
0001
0100
0001
0000
,
0100
0010
1000
0100
1000
0000
0001
0000
,
1000
0000
0010
0100
0001
0010
0100
0000
,
1000
0010
1000
0000
0010
0100
0010
0000
,
1000
0000
1001
0000
1000
0010
1000
0000
,
0010
0100
0001
0010
0001
0000
1000
0000
,
0020
0030
1000
0100
1000
0000
0001
0000
,
0010
0000
0100
0010
0000
0100
0010
0000
,
0001
0100
0001
0000
1000
0100
0010
0000
,
0100
0000
1000
0001
0000
1000
0100
0000
,
0110
0000
0001
0100
0001
0000
1000
0000
,
0010
0000
0100
0010
0000
0100
0010
0000
,
1000
0100
1000
0000
0001
0100
0010
0000
,
0100
0000
0001
1000
0000
0001
0100
0000
,
0010
1000
0100
0000
1000
0000
0001
0000
,
0100
0001
1000
1100
,
0010
0001
0010
0000
0100
1000
0100
0000
,
1000
0001
0100
0110
,
0100
0001
0010
0000
0001
0000
1000
0000
,
0010
1000
0001
0011
,
0100
1000
0100
0000
0010
0001
0010
0000
,
0001
1000
0010
0100
,
0110
0000
1001
0100
,
1100
0000
0101
0000
,
1001
0000
0110
1000
,
1010
0000
1100
0010
,
1001
0000
0110
1000
,
1010
0000
1100
0000
,
0110
0000
1001
0010
,
0011
0000
1010
0001
,
0010
0010
0100
0110
,
0001
0000
0010
0000
0100
1000
0100
0000
,
1000
1000
0001
1001
,
0010
0000
1000
0000
0001
0100
0001
0100
,
0010
0010
0100
0110
,
1000
0000
0010
0000
0100
0001
0100
0000
,
0001
0001
1000
1001
,
0010
0000
0001
0000
1000
0100
1000
0100
,
0010
0000
0001
0100
0001
0000
1000
0000
,
0010
0000
0100
0010
0000
0100
0010
0000
,
1000
0100
1000
0000
0001
0100
0010
0000
,
0100
0000
0001
1000
0000
0001
0100
0000
,
0110
0000
1000
0100
1000
0000
0001
0000
,
0010
0000
0100
0010
0000
0100
0010
0000
,
0001
0100
0001
0000
1000
0100
0010
0000
,
0100
0000
1000
0001
0000
1000
0100
0000
,
0220
0330
0000
0000
;

//---------------dance-single - ----------------
#NOTES:
     dance-single:
     :
     Beginner:
     4:
     0.165405,0.273538,0.048243,0.000000,0.000000,120.000000,115.000000,5.000000,0.000000,0.000000,0.000000,0.165405,0.273538,0.048243,0.000000,0.000000,120.000000,115.000000,5.000000,0.000000,0.000000,0.000000:
0000
0000
0000
0000
,
0100
0000
0000
0000
,
0000
0000
0000
0000
,
0100
0000
0000
0000
,
0000
0000
0000
0000
,
0010
0000
0000
0000
,
0000
0000
0000
0000
,
0010
0000
0000
0000
,
0000
0000
0000
0000
,
1000
0000
1000
0000
,
1000
0000
0000
0000
,
1000
0000
1000
0000
,
1000
0000
0000
0000
,
0001
0000
0001
0000
,
0001
0000
0000
0000
,
0001
0000
0001
0000
,
0001
0000
0000
0000
,
0010
0000
0100
0000
,
0010
0000
0000
0000
,
1000
0000
0001
0000
,
1000
0000
0000
0000
,
0100
0000
0010
0000
,
0100
0000
0000
0000
,
0001
0000
1000
0000
,
0001
0000
0000
0000
,
0100
0000
0000
0000
,
0100
0000
0000
0000
,
0001
0000
0001
0000
,
0001
0000
0000
0000
,
0010
0000
0000
0000
,
0010
0000
0000
0000
,
1000
0000
1000
0000
,
1000
0000
0000
0000
,
0010
0000
0010
0000
,
0001
0000
1000
0000
,
0100
0000
0100
0000
,
0001
0000
1000
0000
,
0010
0000
0010
0000
,
1000
0000
0001
0000
,
0100
0000
0100
0000
,
1000
0000
0001
0000
,
0010
0000
0000
0000
,
1000
0000
0000
0000
,
0010
0000
0000
0000
,
0001
0000
0000
0000
,
0100
0000
0000
0000
,
1000
0000
0000
0000
,
0100
0000
0000
0000
,
0001
0000
0000
0000
,
1000
0000
1000
0000
,
1000
0000
0000
0000
,
0001
0000
0001
0000
,
0001
0000
0000
0000
,
0010
0000
0010
0000
,
0010
0000
0000
0000
,
0100
0000
0100
0000
,
0100
0000
0000
0000
,
1001
0000
0000
0000
,
1000
0000
0000
0000
,
1001
0000
0000
0000
,
0001
0000
0000
0000
,
0110
0000
0000
0000
,
0100
0000
0000
0000
,
0110
0000
0000
0000
,
0010
0000
0000
0000
,
0100
0100
0100
0000
,
0100
0010
0100
0000
,
0001
0001
0001
0000
,
0001
1000
0001
0000
,
0010
0010
0010
0000
,
0010
0100
0010
0000
,
1000
1000
1000
0000
,
1000
0001
1000
0000
,
0100
0000
0000
0000
,
1000
0000
0000
0000
,
0100
0000
0000
0000
,
0001
0000
0000
0000
,
0010
0000
0000
0000
,
1000
0000
0000
0000
,
0010
0000
0000
0000
,
0001
0000
0000
0000
,
0110
0000
0000
0000
;
