#TITLE:There For You;
#SUBTITLE:;
#ARTIST:Martin Garrix & Troye Sivan;
#TITLETRANSLIT:;
#SUBTITLETRANSLIT:;
#ARTISTTRANSLIT:;
#GENRE:Popular Songs;
#CREDIT:;
#BANNER:There For You.png;
#BACKGROUND:There For You-bg.png;
#LYRICSPATH:;
#CDTITLE:../cdtitle.png;
#MUSIC:There For You.ogg;
#OFFSET:2.088000;
#SAMPLESTART:36.403000;
#SAMPLELENGTH:15.000000;
#LASTBEATHINT:1.922133;
#SELECTABLE:YES;
#BPMS:0.000000=106.000000
;
#STOPS:96.000000=1.698000,
189.000000=1.698000
;
#BGCHANGES:3.625=There For You.avi=1.000=0=0=0=StretchNoLoop====,
99999=-nosongbg-=1.000=0=0=0 // don't automatically add -songbackground-
;
#KEYSOUNDS:;
#ATTACKS:;

//---------------dance-single - ----------------
#NOTES:
     dance-single:
     :
     Hard:
     7:
     0.256686,0.331030,0.074556,0.201302,0.007456,241.000000,231.000000,10.000000,27.000000,0.000000,0.000000,0.256686,0.331030,0.074556,0.201302,0.007456,241.000000,231.000000,10.000000,27.000000,0.000000,0.000000:
0000
0000
0000
0000
,
0000
0000
0000
0000
,
0000
0000
0000
0000
,
0000
0000
0000
0000
,
0000
0000
0000
0000
,
1000
0100
1000
0000
1000
0000
0020
0000
,
0030
1000
0000
1000
,
0010
0100
0001
0000
0010
0000
0200
0000
,
0300
1000
0000
1000
,
0100
0010
0001
0000
1000
0000
0002
0000
,
0003
1000
0000
1000
,
0001
0100
0010
0000
1000
0000
0200
0000
,
0300
1000
0000
1000
,
0010
0100
0001
0000
0010
0000
0010
0000
,
0100
1000
0001
0000
0100
0000
0100
0000
,
0010
1000
0100
0000
0010
0000
0100
0000
,
2000
0000
0000
0000
,
3010
1100
0010
0101
,
0010
1000
0100
0001
0100
1000
0001
0000
,
0100
0000
0000
0100
0020
0000
0000
0000
0030
0000
0000
0000
0010
0000
0000
0000
,
1000
0000
0000
0100
0020
0000
0000
0000
0030
0000
0000
0000
0100
0000
1000
0000
,
0010
0101
0010
1100
,
0010
0001
0100
1000
0100
0001
1000
0000
,
0100
0010
0100
0010
1000
0001
1000
0020
,
0030
0000
0110
0100
1000
0001
0100
0000
,
0010
0100
0001
0001
0020
0000
0030
0000
,
0110
0000
0001
0001
0010
0100
1000
0000
,
0100
0010
0001
0001
2000
0000
3002
0000
,
0203
0000
0310
1000
0100
1000
0010
0000
,
0001
0010
1000
0010
0002
0000
0003
0000
,
1010
0000
0001
0010
0100
0100
0010
0000
,
0010
0001
2000
0000
0000
0000
0000
0000
,
3000
0000
0002
0000
0003
0000
1000
0100
,
0001
0000
0200
0000
0300
0000
0001
0100
,
1000
0002
0003
1000
,
1000
0010
0010
1000
,
0010
0000
2000
0000
3000
0000
0001
0100
,
1000
0000
0200
0000
0300
0000
1000
0100
,
0001
2000
3000
0001
,
0001
0010
0010
0001
,
0010
0001
0000
0010
,
0010
0100
0100
0010
,
0001
1000
0000
0001
,
0001
1000
1000
0001
,
0010
0000
0100
0010
0100
0000
1000
0100
,
1000
0000
0001
0100
0001
0000
0100
0010
,
0100
0000
0001
0010
0100
1000
0001
0010
,
0100
2000
3000
0000
0110
0010
0001
1000
,
0010
0000
0100
0010
1000
1000
0200
0000
,
0300
0000
0110
0000
1000
1000
0100
0010
,
0001
0000
0010
0100
1000
1000
0002
0000
,
2003
0000
3020
0000
0130
0001
0010
0001
,
0100
0000
1000
0100
0001
0100
2000
0000
,
3000
0000
0101
0000
1000
0100
0010
0010
,
0100
0000
0100
1000
0002
0000
0000
0000
,
0000
0000
0003
0000
;

//---------------dance-single - ----------------
#NOTES:
     dance-single:
     :
     Medium:
     5:
     0.195976,0.248272,0.029822,0.178935,0.000000,184.000000,180.000000,4.000000,24.000000,0.000000,0.000000,0.195976,0.248272,0.029822,0.178935,0.000000,184.000000,180.000000,4.000000,24.000000,0.000000,0.000000:
0000
0000
0000
0000
,
0000
0000
0000
0000
,
0000
0000
0000
0000
,
0000
0000
0000
0000
,
0000
0000
0000
0000
,
1000
0100
1000
2000
,
3000
0100
0000
0100
,
0001
0010
0001
0002
,
0003
0100
0000
0100
,
1000
0010
0001
0020
,
0030
1000
0000
1000
,
0001
0010
1000
0020
,
0030
0001
0000
0001
,
1000
0100
0001
0000
0100
0000
0000
0000
,
0001
0100
1000
0000
0100
0000
0000
0000
,
1000
0100
0010
0000
0001
0000
0000
0000
,
1000
0000
0000
0000
,
1000
1000
0001
0001
,
0010
0001
0100
0000
0010
0000
1000
0000
,
0001
2000
3000
1000
,
0001
2000
3000
1000
,
0001
0001
1000
1000
,
0100
1000
0010
0000
0100
0000
0001
0000
,
0010
0200
0000
0020
,
0330
0000
0100
1000
0100
0000
1000
0000
,
1000
0000
0010
0100
0020
0000
0030
0000
,
0110
0000
0100
0001
0100
0000
0001
0000
,
0001
0000
1000
0001
0020
0000
0200
0000
,
0330
0000
0010
0001
0010
0000
0001
0000
,
0001
0000
0100
0010
0200
0000
0300
0000
,
0110
0000
0010
1000
0010
0000
1000
0000
,
1000
0001
0020
0000
0000
0000
0000
0000
,
0030
0002
0003
0001
,
0000
2000
3000
1000
,
0000
0020
0030
0100
,
0100
0001
0001
0100
,
0001
2000
3000
1000
,
0000
0002
0003
0001
,
0000
0020
0030
0100
,
0100
1000
1000
0100
,
1000
0001
0000
0010
,
0010
0001
0001
0010
,
0001
1000
0000
0010
,
0010
0100
0100
0010
,
0100
0001
0000
1000
,
0100
1000
1000
0100
,
1000
0001
0001
1000
,
0100
0010
0000
0000
0100
1000
0100
0000
,
1000
0000
1000
0000
0010
0100
0020
0000
,
0030
0000
0110
0000
0100
0001
0100
0000
,
0001
0000
0001
0000
1000
0001
0020
0000
,
0200
0000
0330
0000
0010
0001
0010
0000
,
0001
0000
0001
0000
0100
0010
0200
0000
,
0300
0000
0110
0000
0010
1000
0010
0000
,
1000
0000
1000
0001
0020
0000
0000
0000
,
0000
0000
0030
0000
;

//---------------dance-single - ----------------
#NOTES:
     dance-single:
     :
     Easy:
     3:
     0.103314,0.144825,0.000000,0.111834,0.000000,97.000000,97.000000,0.000000,15.000000,0.000000,0.000000,0.103314,0.144825,0.000000,0.111834,0.000000,97.000000,97.000000,0.000000,15.000000,0.000000,0.000000:
0000
0000
0000
0000
,
0000
0000
0000
0000
,
0000
0000
0000
0000
,
0000
0000
0000
0000
,
0000
0000
0000
0000
,
1000
0000
1000
0001
,
0000
0000
0000
0000
,
0010
0000
0010
0100
,
0000
0000
0000
0000
,
0010
0000
1000
0010
,
0000
0000
0000
0000
,
0100
0000
0001
0100
,
0000
0000
0000
0000
,
1000
0000
1000
0000
,
0001
0000
0001
0000
,
0010
0000
0010
0000
,
0000
0000
0000
0000
,
0100
0000
0100
0000
,
1000
1000
1000
0000
,
1000
0020
0030
0000
,
0001
0020
0030
0000
,
0100
0000
0100
0000
,
0001
0001
0001
0000
,
1000
0020
0000
0000
,
0030
0100
0000
0100
,
0000
1000
0020
0030
,
0000
0001
0000
0001
,
0000
0010
1000
0100
,
0000
0010
0000
0010
,
0000
0001
0200
0300
,
0000
1000
0000
1000
,
0000
0002
0000
0000
,
0003
0020
0000
0030
,
0000
0200
0000
0300
,
0000
2000
3000
1000
,
0000
0100
0000
1000
,
0000
0020
0000
0030
,
0000
0200
0000
0300
,
0000
0002
0003
0001
,
0000
0100
0000
0001
,
0000
0010
0000
0100
,
0000
0100
0010
0100
,
0000
0001
0000
1000
,
0000
1000
0001
1000
,
0000
0100
0000
0010
,
0000
0010
0100
0010
,
0000
1000
0001
1000
,
0001
0000
0010
0000
,
0010
0000
0001
0200
,
0300
0000
1000
0000
,
1000
0000
0100
0001
,
0010
0000
0100
0000
,
0100
0000
1000
0020
,
0030
0000
0001
0000
,
0001
0000
2000
0000
,
0000
0000
3000
0000
;

//---------------dance-single - ----------------
#NOTES:
     dance-single:
     :
     Beginner:
     1:
     0.053254,0.082757,0.000000,0.067101,0.000000,50.000000,50.000000,0.000000,9.000000,0.000000,0.000000,0.053254,0.082757,0.000000,0.067101,0.000000,50.000000,50.000000,0.000000,9.000000,0.000000,0.000000:
0000
0000
0000
0000
,
0000
0000
0000
0000
,
0000
0000
0000
0000
,
0000
0000
0000
0000
,
0000
0000
0000
0000
,
0002
0000
0000
0000
,
0003
0000
0000
0000
,
0002
0000
0000
0000
,
0003
0000
0000
0000
,
2000
0000
0000
0000
,
3000
0000
0000
0000
,
2000
0000
0000
0000
,
3000
0000
0000
0000
,
0001
0000
0000
0000
,
0001
0000
0000
0000
,
1000
0000
0000
0000
,
0000
0000
0000
0000
,
1000
0000
0000
0000
,
0010
0000
0000
0000
,
0200
0000
0300
0000
,
0200
0000
0300
0000
,
0001
0000
0000
0000
,
0010
0000
0000
0000
,
0200
0000
0000
0000
,
0300
1000
0000
0000
,
0000
0100
0000
0000
,
0000
1000
0000
0000
,
0000
0010
0000
0000
,
0000
0001
0000
0000
,
0000
0100
0000
0000
,
0000
0001
0000
0000
,
0000
0010
0000
0000
,
0000
1000
0000
0000
,
0000
0010
0000
0000
,
0000
1000
0000
0000
,
0000
0100
0000
0100
,
0000
0001
0000
0000
,
0000
0100
0000
0000
,
0000
0001
0000
0000
,
0000
0010
0000
0010
,
0000
1000
0000
0000
,
0000
0001
0000
0001
,
0000
0001
0000
0000
,
0000
0010
0000
0010
,
0000
0010
0000
0000
,
0000
0100
0000
0100
,
0000
0200
0000
0000
,
0000
0300
0001
0000
,
0000
0000
0010
0000
,
0000
0000
0001
0000
,
0000
0000
0100
0000
,
0000
0000
1000
0000
,
0000
0000
0010
0000
,
0000
0000
1000
0000
,
0000
0000
0200
0000
,
0000
0000
0300
0000
;

//---------------dance-double - ----------------
#NOTES:
     dance-double:
     :
     Hard:
     8:
     0.277988,0.351719,0.074556,0.201302,0.037278,261.000000,251.000000,10.000000,27.000000,0.000000,0.000000,0.277988,0.351719,0.074556,0.201302,0.037278,261.000000,251.000000,10.000000,27.000000,0.000000,0.000000:
// measure 0
00000000
00000000
00000000
00000000
,  // measure 1
00000000
00000000
00000000
00000000
,  // measure 2
00000000
00000000
00000000
00000000
,  // measure 3
00000000
00000000
00000000
00000000
,  // measure 4
00000000
00000000
00000000
00000000
,  // measure 5
10000000
01000000
00100000
00000000
00001000
00000000
00020000
00000000
,  // measure 6
00030000
00001000
00000000
00001000
,  // measure 7
00010000
00001000
00000100
00000000
00000001
00000000
00002000
00000000
,  // measure 8
00003000
00000010
00000000
00000010
,  // measure 9
00000001
00000010
00001000
00000000
00000010
00010000
00002000
00000000
,  // measure 10
00003000
00010000
00000000
00010000
,  // measure 11
00001000
00100000
00010000
00000000
00100000
01000000
20000000
00000000
,  // measure 12
30000000
01000000
00000000
01000000
,  // measure 13
10000000
01000000
00010000
01000000
10000000
00000000
10000000
00000000
,  // measure 14
00100000
00010000
00001000
00010000
00100000
00000000
00100000
00000000
,  // measure 15
00010000
00001000
00000010
00001000
00010000
00000000
00010000
00000000
,  // measure 16
00002000
00000000
00000000
00000000
,  // measure 17
00013000
00011000
01000000
01010000
,  // measure 18
00100000
10000000
01000000
00010000
01000000
00010000
00001000
00000100
,  // measure 19
00000001
00000000
00000000
00000100
00000020
00000000
00000000
00000000
00000030
00000000
00000000
00000000
00000100
00000000
00001000
00000000
,  // measure 20
00010000
00000000
00000000
00000100
00020000
00000000
00000000
00000000
00030000
00000000
00000000
00000000
00000100
00000000
00010000
00000000
,  // measure 21
00001000
00011000
00000100
00001100
,  // measure 22
00000010
00000001
00000100
00001000
00000100
00001000
00010000
01000000
,  // measure 23
00010000
00001000
00000010
00001000
00010000
00010000
00010000
00020000
,  // measure 24
00030000
00000000
00011000
00001000
00100000
00010000
10000000
00000000
,  // measure 25
10000000
01000000
00010000
01000000
00200000
00000000
00300000
00000000
,  // measure 26
01100000
00000000
00010000
00100000
10000000
00100000
00010000
00000000
,  // measure 27
01000000
00100000
00010000
00100000
02000000
00000000
03002000
00000000
,  // measure 28
00023000
00000000
00031000
00010000
00000100
00001000
00000010
00000000
,  // measure 29
00000010
00000100
00001000
00000100
00000020
00000000
00000030
00000000
,  // measure 30
00000110
00000000
00001000
00000001
00000100
00000010
00001000
00000000
,  // measure 31
00000100
00010000
00002000
00000000
00000000
00000000
00000000
00000000
,  // measure 32
00003000
00000000
00200000
00000000
00300000
00000000
01000000
00100000
,  // measure 33
00010000
00000000
20000000
00000000
30000000
00000000
00100000
01000000
,  // measure 34
10000000
02000000
03000000
00100000
,  // measure 35
00100000
00010000
00010000
00001000
,  // measure 36
00010000
00000000
00000020
00000000
00000030
00000000
00000100
00000010
,  // measure 37
00001000
00000000
00000002
00000000
00000003
00000000
00000010
00000100
,  // measure 38
00000001
00000200
00000300
00000010
,  // measure 39
00000010
00001000
00001000
00010000
,  // measure 40
00001000
00000000
00000000
00000000
00010000
00000000
00000000
00000000
00000000
00000000
00000000
00000000
00001000
00000010
00000000
00000000
,  // measure 41
00001000
00000010
00000000
00000000
00000001
00000010
00000000
00000000
00000001
00000010
00000000
00000000
00000100
00000000
00000000
00000000
,  // measure 42
00010000
00000000
00000000
00000000
00001000
00000000
00000000
00000000
00000000
00000000
00000000
00000000
00100000
00010000
00000000
00000000
,  // measure 43
00100000
00010000
00000000
00000000
10000000
00100000
00000000
00000000
10000000
00100000
00000000
00000000
01000000
00000000
00000000
00000000
,  // measure 44
00010000
00000000
00100000
01000000
00100000
00010000
10000000
00100000
,  // measure 45
01000000
00100000
00010000
00001000
00000100
00000010
00001000
00000100
,  // measure 46
00000010
00000001
00000010
00001000
00000010
00001000
00010000
00001000
,  // measure 47
00010000
00002000
00003000
00000000
00011000
00001000
00100000
00010000
,  // measure 48
10000000
00000000
10000000
01000000
00010000
01000000
00200000
00000000
,  // measure 49
00300000
00000000
01100000
00000000
00010000
00100000
10000000
00100000
,  // measure 50
00010000
00000000
01000000
00100000
00010000
00100000
02000000
00000000
,  // measure 51
03002000
00000000
00023000
00000000
00031000
00010000
00000100
00001000
,  // measure 52
00000010
00000000
00000010
00000100
00001000
00000100
00000020
00000000
,  // measure 53
00000030
00000000
00000110
00000000
00001000
00000001
00000100
00000010
,  // measure 54
00001000
00000000
00000100
00010000
00002000
00000000
00000000
00000000
,  // measure 55
00000000
00000000
00003000
00000000
;

//---------------dance-double - ----------------
#NOTES:
     dance-double:
     :
     Medium:
     4:
     0.172544,0.206893,0.037278,0.186391,0.000000,162.000000,157.000000,5.000000,25.000000,0.000000,0.000000,0.172544,0.206893,0.037278,0.186391,0.000000,162.000000,157.000000,5.000000,25.000000,0.000000,0.000000:
// measure 0
00000000
00000000
00000000
00000000
,  // measure 1
00000000
00000000
00000000
00000000
,  // measure 2
00000000
00000000
00000000
00000000
,  // measure 3
00000000
00000000
00000000
00000000
,  // measure 4
00000000
00000000
00000000
00000000
,  // measure 5
00100000
00010000
00001000
00000200
,  // measure 6
00000300
00000001
00000000
00000001
,  // measure 7
00000010
00001000
00010000
02000000
,  // measure 8
03000000
10000000
00000000
10000000
,  // measure 9
01000000
00100000
01000000
02000000
,  // measure 10
03000000
00010000
00000000
00010000
,  // measure 11
00000100
00010000
00000100
00000200
,  // measure 12
00000300
00010000
00000000
00010000
,  // measure 13
00001000
00001000
00000100
00000000
,  // measure 14
00010000
00010000
01000000
00000000
,  // measure 15
00001000
00001000
00100000
00000000
,  // measure 16
00002000
00000000
00000000
00000000
,  // measure 17
00013000
00000000
00010000
00000000
,  // measure 18
00001000
00001000
00010000
01000000
,  // measure 19
20000000
00000000
30000000
10000000
,  // measure 20
00200000
00000000
00300000
00100000
,  // measure 21
00010000
00000000
00010000
00000000
,  // measure 22
00001000
00001000
00010000
00001000
,  // measure 23
00000020
00000000
00000000
00000000
,  // measure 24
00000030
00000000
00000001
00000100
00000001
00000000
00001000
00000000
,  // measure 25
00001000
00000100
00000020
00000030
,  // measure 26
00000110
00000000
00001000
00010000
00001000
00000000
00010000
00000000
,  // measure 27
00010000
00001000
02000000
00200000
,  // measure 28
03300000
00000000
10000000
01000000
10000000
00000000
00010000
00000000
,  // measure 29
00010000
01000000
00200000
00300000
,  // measure 30
01100000
00000000
00010000
00001000
00010000
00000000
00001000
00000000
,  // measure 31
00001000
00020000
00000000
00000000
,  // measure 32
00030000
00002000
00003000
00000010
,  // measure 33
00000000
00000020
00000030
00000001
,  // measure 34
00000000
00000002
00000003
00001000
,  // measure 35
00001000
00000001
00000001
00000010
,  // measure 36
00000100
00002000
00003000
00000010
,  // measure 37
00000000
00000020
00000030
00010000
,  // measure 38
00000000
00020000
00030000
00001000
,  // measure 39
00001000
00010000
00010000
01000000
,  // measure 40
00000000
01100000
00000000
00010000
,  // measure 41
00010000
10000000
10000000
01000000
,  // measure 42
00100000
00010000
00000000
01000000
,  // measure 43
01000000
00001000
00001000
00010000
,  // measure 44
00000100
00001000
00000000
00000010
,  // measure 45
00000010
00000100
00000100
00000001
,  // measure 46
00001000
00000100
00000100
00000010
,  // measure 47
00000002
00000000
00000003
00000000
00000001
00000100
00000001
00000000
,  // measure 48
00001000
00001000
00000100
00000020
,  // measure 49
00000030
00000000
00000110
00000000
00001000
00010000
00001000
00000000
,  // measure 50
00010000
00010000
00001000
02000000
,  // measure 51
00200000
00000000
03300000
00000000
10000000
01000000
10000000
00000000
,  // measure 52
00010000
00010000
01000000
00200000
,  // measure 53
00300000
00000000
01100000
00000000
00010000
00001000
00010000
00000000
,  // measure 54
00001000
00001000
00020000
00000000
,  // measure 55
00000000
00000000
00030000
00000000
;

//---------------dance-double - ----------------
#NOTES:
     dance-double:
     :
     Easy:
     2:
     0.083077,0.124136,0.000000,0.164024,0.000000,78.000000,78.000000,0.000000,22.000000,0.000000,0.000000,0.083077,0.124136,0.000000,0.164024,0.000000,78.000000,78.000000,0.000000,22.000000,0.000000,0.000000:
// measure 0
00000000
00000000
00000000
00000000
,  // measure 1
00000000
00000000
00000000
00000000
,  // measure 2
00000000
00000000
00000000
00000000
,  // measure 3
00000000
00000000
00000000
00000000
,  // measure 4
00000000
00000000
00000000
00000000
,  // measure 5
00200000
00000000
00000000
00000000
,  // measure 6
00300000
00000000
00000000
00000000
,  // measure 7
02000000
00000000
00000000
00000000
,  // measure 8
03000000
00000000
00000000
00000000
,  // measure 9
20000000
00000000
00000000
00000000
,  // measure 10
30000000
00000000
00000000
00000000
,  // measure 11
00020000
00000000
00000000
00000000
,  // measure 12
00030000
00000000
00000000
00000000
,  // measure 13
00200000
00000000
00310000
00000000
,  // measure 14
00020000
00000000
01030000
00000000
,  // measure 15
02000000
00000000
03001000
00000000
,  // measure 16
00020000
00000000
00000000
00000000
,  // measure 17
00030100
00000000
00000100
00000000
,  // measure 18
00010000
00000000
00010000
00000000
,  // measure 19
00001000
00002000
00003000
00000000
,  // measure 20
00000100
00000200
00000300
00000000
,  // measure 21
00000001
00000000
00000001
00000000
,  // measure 22
00001000
00000000
00001000
00000000
,  // measure 23
00000010
00000020
00000000
00000000
,  // measure 24
00000030
00000100
00000000
00000100
,  // measure 25
00000000
00001000
00002000
00003000
,  // measure 26
00000000
00010000
00000000
00010000
,  // measure 27
00000000
01000000
00000000
01000000
,  // measure 28
00000000
10000000
00000000
00100000
,  // measure 29
00000000
00010000
00020000
00030000
,  // measure 30
00000000
00001000
00000000
00001000
,  // measure 31
00000000
00010000
00000000
00000000
,  // measure 32
00000000
00002000
00000000
00003000
,  // measure 33
00000000
00000020
00000000
00000030
,  // measure 34
00000000
00000200
00000000
00000300
,  // measure 35
00000000
00001000
00000000
00001000
,  // measure 36
00000000
00000002
00000000
00000003
,  // measure 37
00000000
00000200
00000000
00000300
,  // measure 38
00000000
00000020
00000000
00000030
,  // measure 39
00000000
00010000
00000000
00010000
,  // measure 40
00000000
00001000
00000000
00000000
,  // measure 41
00000000
00100000
00000000
00100000
,  // measure 42
00000000
00010000
00000000
00000000
,  // measure 43
00000000
10000000
00000000
10000000
,  // measure 44
00000000
00010000
00000000
00010000
,  // measure 45
00000000
00100000
00000000
00100000
,  // measure 46
00000000
01000000
00000000
01000000
,  // measure 47
01000000
00000000
01000000
00000000
,  // measure 48
01000000
00000000
00010000
00020000
,  // measure 49
00030000
00000000
00001000
00000000
,  // measure 50
00001000
00000000
00000100
00000000
,  // measure 51
00000100
00000000
00000001
00000000
,  // measure 52
00000010
00000000
00001000
00002000
,  // measure 53
00003000
00000000
00010000
00000000
,  // measure 54
00010000
00000000
00002000
00000000
,  // measure 55
00000000
00000000
00003000
00000000
;
