#TITLE:The Most Wanted Person In the United States;
#SUBTITLE:;
#ARTIST:100 gecs;
#TITLETRANSLIT:;
#SUBTITLETRANSLIT:;
#ARTISTTRANSLIT:;
#GENRE:Popular Songs;
#CREDIT:;
#BANNER:The Most Wanted Person In the United States.png;
#BACKGROUND:The Most Wanted Person In the United States-bg.png;
#LYRICSPATH:;
#CDTITLE:../cdtitle.png;
#MUSIC:The Most Wanted Person In the United States.ogg;
#OFFSET:2.524000;
#SAMPLESTART:0.401000;
#SAMPLELENGTH:15.000000;
#LASTBEATHINT:2.082800;
#SELECTABLE:YES;
#BPMS:0.000000=82.000000
;
#STOPS:
;
#BGCHANGES:3.500=The Most Wanted Person In the United States.avi=1.000=0=0=0=StretchNoLoop====,
99999=-nosongbg-=1.000=0=0=0 // don't automatically add -songbackground-
;
#KEYSOUNDS:;
#ATTACKS:;

//---------------dance-single - ----------------
#NOTES:
     dance-single:
     :
     Beginner:
     1:
     0.049859,0.084223,0.000000,0.000000,0.000000,36.000000,36.000000,0.000000,0.000000,0.000000,0.000000,0.049859,0.084223,0.000000,0.000000,0.000000,36.000000,36.000000,0.000000,0.000000,0.000000,0.000000:
0000
0000
0000
0000
,
0000
0000
0000
0000
,
0000
0000
0000
0000
,
1000
0000
0000
0000
,
1000
0000
0000
0000
,
0001
0000
0000
0000
,
0001
0000
0000
0000
,
0100
0000
0000
0000
,
0010
0000
0000
0000
,
0100
0000
0000
0000
,
0010
0000
0000
0000
,
1000
0000
0000
0000
,
0100
0000
0000
0000
,
0010
0000
0000
0000
,
0001
0000
0000
0000
,
0100
0000
0000
0000
,
0010
0000
0000
0000
,
0001
0000
0000
0000
,
1000
0000
0000
0000
,
0000
0100
0000
0100
,
0000
0010
0000
0010
,
0000
1000
0000
1000
,
0000
0100
0000
0100
,
0100
0000
0000
0000
,
0100
0000
0000
0000
,
0010
0000
0000
0000
,
0000
0000
0000
0000
,
0001
0000
0000
0000
,
0001
0000
0000
0000
,
1000
0000
0000
0000
,
1000
0000
0000
0000
,
0100
0000
0000
0000
,
0001
0000
0000
0000
,
0010
0000
0000
0000
,
1000
0000
0000
0100
;

//---------------dance-single - ----------------
#NOTES:
     dance-single:
     :
     Easy:
     4:
     0.189739,0.235824,0.213284,0.174505,0.000000,137.000000,115.000000,22.000000,18.000000,0.000000,0.000000,0.189739,0.235824,0.213284,0.174505,0.000000,137.000000,115.000000,22.000000,18.000000,0.000000,0.000000:
0000
0000
0000
0000
,
0000
0000
0000
0000
,
0100
0100
0100
0110
,
2000
3100
0002
0103
,
1000
0001
1000
1100
,
2000
3010
0002
0013
,
1000
0001
1000
1010
,
0002
0003
0100
0001
,
0010
0100
0100
1001
,
0001
0100
1000
0100
,
0001
0010
0100
0110
,
2000
3000
0100
0101
,
1000
0001
0010
0000
,
0001
1000
0010
0011
,
0100
0100
0010
0000
,
1001
0000
0100
0100
,
0001
0100
1000
0000
,
0001
0001
0010
0000
,
0220
0330
2002
3003
,
0001
0101
0001
0011
,
0100
1100
0100
0101
,
1000
1010
1000
1100
,
0010
0011
0010
1010
,
0100
0000
0000
0000
,
1000
0000
0000
0000
,
0002
0013
2000
3010
,
0001
0000
0000
0011
,
1001
1000
0001
0001
,
0010
0100
0010
0010
,
0002
0103
2000
3100
,
0001
1000
0001
0101
,
2000
0100
0010
3100
,
0002
0100
0010
0103
,
2000
0010
0100
3010
,
0002
0010
1003
0101
;

//---------------dance-single - ----------------
#NOTES:
     dance-single:
     :
     Medium:
     7:
     0.313001,0.338103,0.261757,0.087252,0.000000,226.000000,199.000000,27.000000,9.000000,0.000000,0.000000,0.313001,0.338103,0.261757,0.087252,0.000000,226.000000,199.000000,27.000000,9.000000,0.000000,0.000000:
0000
0000
0000
0000
,
0000
0000
0000
0000
,
0100
0100
0010
0010
0100
0100
0010
0100
,
1001
0001
0100
0000
1000
1000
0110
0000
,
0001
0010
1000
0010
0100
0100
1001
0000
,
0001
0100
1010
0000
0001
0001
0110
0000
,
1000
0100
0001
0100
0010
0010
1001
0000
,
0220
0000
0330
0000
1000
0001
0001
0000
,
0010
0010
0001
0001
0100
0010
1000
0000
,
0001
0100
0010
0100
0001
1000
0100
0000
,
1000
1000
0010
0010
0100
0001
1000
0000
,
2200
0000
3300
0000
0001
0100
0100
0000
,
0010
0010
1000
1000
0100
0020
0030
0000
,
0001
0100
1000
0100
0010
0100
1000
0000
,
0100
0001
0010
1000
0010
0001
0100
0000
,
0220
0000
0330
0000
0001
0010
0001
0000
,
0001
1000
0100
1000
0010
1000
0100
0000
,
0010
0100
1000
0000
0001
0100
1000
0000
,
0100
0100
0100
0000
0010
0010
0010
0000
,
1000
0100
0101
1000
0010
0010
0011
0000
,
0001
0100
1100
0001
0010
0010
1010
0000
,
0010
0100
0110
0001
0100
0100
0011
0000
,
0100
0010
0110
1000
0010
0010
1100
0000
,
0002
0000
0000
0003
,
2000
0000
0000
3000
,
0001
0010
1100
0000
0001
0001
0110
0000
,
1000
0000
0000
0000
0100
0010
1001
0000
,
0110
0000
1000
0100
0010
0100
1000
0100
,
0010
0000
0001
0100
0010
0100
0001
0010
,
0100
1000
1001
0000
0001
0001
0110
0000
,
1000
0100
0001
0100
0010
0010
1001
0000
,
0110
0000
0100
0100
0100
0100
0100
0000
,
0010
0010
0010
0000
1000
0001
1000
0000
,
1100
0000
0001
0001
0001
0001
0001
0000
,
0100
0100
0010
0010
0100
0010
1001
0100
;

//---------------dance-single - ----------------
#NOTES:
     dance-single:
     :
     Hard:
     12:
     0.516590,0.507155,0.329620,0.193894,0.508972,373.000000,339.000000,34.000000,20.000000,0.000000,0.000000,0.516590,0.507155,0.329620,0.193894,0.508972,373.000000,339.000000,34.000000,20.000000,0.000000,0.000000:
0000
0000
0000
0000
,
0000
0000
0000
0000
,
1000
0100
1000
0100
0001
0100
0001
0100
1000
0100
0001
0100
0010
0000
0110
0000
,
1000
0100
0000
0100
1000
0000
1001
0000
0001
0100
0000
0100
0001
0000
1001
0000
,
1000
0000
0100
0000
0001
0100
1000
0000
0010
0100
0000
0100
0010
0000
1000
0000
,
0001
0010
0000
0010
0001
0000
1001
0000
1000
0010
0000
0010
1000
0000
1001
0000
,
0001
0000
0010
0000
1000
0010
0001
0000
0100
0010
0000
0010
0100
0000
0001
0000
,
1010
0000
2000
0000
0100
0000
3000
0000
0001
0010
0001
0000
1000
0002
0000
0003
,
0100
1000
0100
0000
0001
0100
0001
0000
0010
1000
0010
0000
0001
2000
0000
3000
,
0100
0010
0100
0010
0001
0000
1000
0100
0010
0001
1000
0000
0100
0000
1000
0000
,
0001
0100
0001
0100
0010
1000
0010
0000
0100
0001
0010
0100
1000
0000
0001
0000
,
1100
0000
2000
0000
0010
0000
3000
0001
0010
0000
0100
0000
1100
0002
0100
0003
,
1000
0000
0001
0010
0001
0000
1000
0010
0100
0000
0001
0000
2200
0000
3300
0000
,
0100
1000
0100
1000
0010
1000
0100
0000
0110
0000
0001
0100
0010
0000
1000
0000
,
0001
0010
0001
0010
1000
0010
1000
0010
0200
0000
0310
0001
1000
0000
0100
0000
,
0220
0000
0330
0000
1001
0000
0010
0100
0010
0000
0010
0000
0110
0000
1000
0000
,
0001
0100
0010
0100
1000
0000
0001
0000
0010
0100
0010
0000
1000
0000
0001
0000
,
1000
0100
1000
0000
1100
0000
0001
0000
0100
0000
0001
0010
0011
0000
0001
0000
,
1000
0100
1000
0000
0001
0010
0001
0000
1000
0010
1000
0010
0100
0001
0010
0100
,
1000
0000
0100
0000
1001
0000
0001
0000
0100
0000
0001
0000
1100
0000
0100
0010
,
0001
0000
0010
0000
1001
0000
1000
0000
0010
0000
1000
0000
0011
0000
0010
0100
,
0010
0000
0010
0000
1001
0000
0010
0000
0100
0000
0010
0000
1001
0000
0001
0100
,
0010
1000
0010
1000
0001
0010
0001
0010
0100
1000
0001
0010
0100
1000
0001
0000
,
2001
0100
0000
3100
,
0002
0100
0000
0103
,
1000
0010
1000
0000
1100
0000
0001
0000
0100
0001
0100
0000
0110
0000
0001
0000
,
1000
0000
0000
0000
0000
0000
0000
0000
0010
0100
0010
0000
0220
0000
0330
0000
,
2002
0000
3003
0001
0010
0000
0001
0000
0100
0000
0001
0000
0010
0000
1000
0010
,
0001
0000
0000
1000
0100
0000
1000
0000
0010
0000
1000
0100
0010
0000
0001
0000
,
1000
0100
1000
0000
1010
0000
0001
0000
0010
0001
0010
0000
0110
0000
0001
0000
,
1000
0100
1000
0100
0001
0100
1000
0001
0100
0010
1000
0100
0010
0000
0001
0000
,
0022
0000
0033
0000
1000
0100
1000
0100
1000
0100
1000
0100
1000
0000
1001
0000
,
0001
0010
0001
0010
1000
0010
0001
1000
0100
1000
0001
0100
0010
0000
1000
0000
,
2020
0000
3030
0000
0001
0010
0001
0010
0001
0010
0001
0010
0001
0000
1001
0000
,
1000
0010
1000
0010
1000
0100
1000
0100
0010
0001
0100
0010
1010
0000
0011
0000
;

//---------------dance-single - ----------------
#NOTES:
     dance-single:
     :
     Challenge:
     11:
     0.443187,0.473344,0.310231,0.193894,0.349010,320.000000,288.000000,32.000000,20.000000,80.000000,0.000000,0.443187,0.473344,0.310231,0.193894,0.349010,320.000000,288.000000,32.000000,20.000000,80.000000,0.000000:
0000
0000
0000
0000
,
0000
0000
0000
0000
,
0100
0100
0001
0000
0100
0100
1000
0000
0100
0100
0001
0000
0110
0000
0001
0000
,
1000
0100
0010
0000
MMMM
0000
0000
0000
0001
0100
0010
0000
MMMM
0000
0000
0000
,
1000
0000
0001
0000
1000
0100
0010
0000
0001
0100
0010
0000
0110
0000
MMMM
0000
,
0001
0010
0100
0000
MMMM
0000
0000
0000
1000
0010
0100
0000
MMMM
0000
0000
0000
,
0001
0000
1000
0000
0001
0010
0100
0000
1000
0010
0100
0000
0110
0000
MMMM
0000
,
2001
0000
0000
0000
0100
0000
0000
0000
3001
0100
0001
0000
2200
0000
3300
0000
,
0001
0010
0001
0000
0100
0000
0010
0000
0100
1000
0100
0000
0002
0000
0003
0000
,
1000
0000
0001
0100
0001
0000
0010
0100
0010
0000
0001
0000
2020
0000
3030
0000
,
0001
0100
0001
0000
1000
0100
1000
0000
0100
0010
0100
0010
0100
0000
MMMM
0000
,
2002
0000
0000
0000
3003
0000
0000
1000
0010
0000
1000
0000
0100
0000
0000
0000
,
0001
0000
0100
0010
0001
0000
0100
0010
1000
0000
0001
0000
MMMM
0000
0000
0000
,
0001
1000
0100
0000
1000
0001
0100
0000
0010
0000
1000
0100
0010
0000
0001
0000
,
1000
0100
1000
0100
1000
0100
1000
0100
0010
0001
0010
0001
0010
0000
0001
0000
,
0202
0000
0000
0000
0303
0000
0000
0010
0010
0000
0010
0000
0220
0000
0330
0000
,
0001
0010
0001
0000
0100
0000
0001
0000
1000
0100
1000
0000
0020
0000
0030
0000
,
0100
0001
0010
0000
0100
0000
1000
0000
0010
0000
0100
0001
2000
0000
3000
0000
,
0001
0010
0001
0010
0001
0010
0001
0010
0100
1000
0100
1000
0100
0000
1000
0000
,
0101
0100
0110
1000
0011
0011
0101
MMMM
,
1100
0100
0110
0001
1010
1010
1100
MMMM
,
0011
0001
1001
0100
1010
1010
0011
MMMM
,
0100
1000
0100
0000
1000
0010
1000
0000
0001
0010
0001
0010
0100
0000
1100
0000
,
MMMM
0000
0000
1000
0100
0000
0001
0000
0100
0000
1000
0000
0100
0000
0001
0000
,
0100
0000
0000
1000
0010
0000
0001
0000
0010
0000
1000
0000
0001
0000
0010
0000
,
0100
0010
0100
0000
1001
0000
0100
0000
0010
0100
0010
0000
1001
0000
0010
0000
,
MMMM
0000
0000
0000
MMMM
0000
0000
0000
0100
0010
0100
0000
0110
0000
MMMM
0000
,
2002
0000
3003
0001
0010
0000
1000
0000
0010
0000
0001
0000
0010
0000
1000
0000
,
0010
0000
0000
0001
0100
0000
1000
0000
0100
0000
0001
0000
1000
0000
0100
0000
,
0010
0100
0010
0000
MMMM
0000
0010
0000
0100
0010
0100
0000
MMMM
0000
0100
0000
,
1000
0001
1000
0001
1000
0001
1000
0001
0100
0010
0100
0010
0100
0000
MMMM
0000
,
2002
0000
3003
0000
0001
0010
0001
0000
0010
0001
0010
0000
1000
0000
0010
0000
,
0001
0100
1000
0000
1000
0100
0001
0000
1000
0100
0010
0000
0100
0000
MMMM
0000
,
2002
0000
3003
0000
1000
0010
1000
0000
0010
1000
0010
0000
0001
0000
0010
0000
,
1000
0100
0001
0000
0001
0100
1000
0000
0001
0100
0010
0000
1100
0000
MMMM
0000
;

//---------------dance-double - ----------------
#NOTES:
     dance-double:
     :
     Easy:
     4:
     0.174505,0.202135,0.135726,0.135726,0.000000,126.000000,112.000000,14.000000,14.000000,0.000000,0.000000,0.174505,0.202135,0.135726,0.135726,0.000000,126.000000,112.000000,14.000000,14.000000,0.000000,0.000000:
00000000
00000000
00000000
00000000
,
00000000
00000000
00000000
00000000
,
00001000
00001000
00001000
00011000
,
00200000
00310000
00002000
00013000
,
01000000
01000000
00001000
00010100
,
00000200
00001300
00020000
00031000
,
00000010
00000010
00010000
00101000
,
00020000
00030000
00010000
00000000
,
00010000
10000000
00010000
00000000
,
01000000
01000000
01000000
00010000
,
00000100
00000100
00000100
00000110
,
00002000
00003000
00001000
00000100
,
00001000
00000001
00001000
00000000
,
00000010
00000010
00000010
00001000
,
00100000
00100000
00100000
00000000
,
10010000
00000000
01000000
00000000
,
00010000
00001000
00010000
00000000
,
00000100
00000010
00000100
00000000
,
00001000
00000000
00001000
00001001
,
00000010
00001000
00000010
00011000
,
00100000
00010000
00100000
00011000
,
00000100
00001000
00000100
00011000
,
01000000
00010000
01000000
00011000
,
00001000
00000000
00000000
00000000
,
00010000
00000000
00000000
00000000
,
00000200
00001300
00020000
00031000
,
00000010
00000000
00000000
00101000
,
00011000
00010000
00001000
00001000
,
01000000
00000000
01000000
00010000
,
00200000
00310000
00002000
00013000
,
01000000
01000000
00001000
00010100
,
00020000
00001000
00001000
00031000
,
00002000
00010000
00010000
00013000
,
20000000
30010000
00002000
00013000
,
00000001
00000001
00000001
00011000
;

//---------------dance-double - ----------------
#NOTES:
     dance-double:
     :
     Medium:
     7:
     0.317156,0.371913,0.261757,0.087252,0.000000,229.000000,202.000000,27.000000,9.000000,0.000000,0.000000,0.317156,0.371913,0.261757,0.087252,0.000000,229.000000,202.000000,27.000000,9.000000,0.000000,0.000000:
00000000
00000000
00000000
00000000
,
00000000
00000000
00000000
00000000
,
00010000
00010000
00001000
00001000
00010000
00010000
00001000
00001000
,
00100000
00010000
01010000
00000000
00000010
00001000
00001100
00000000
,
00010000
00001000
01000000
00001000
00010000
00010000
00101000
00000000
,
00000100
00001000
00001010
00000000
01000000
00010000
00110000
00000000
,
00001000
00010000
00000010
00010000
00001000
00001000
00010100
00000000
,
00022000
00000000
00033000
00000000
00001000
00010000
01000000
00000000
,
10000000
01000000
00100000
01000000
10000000
01000000
00100000
00000000
,
00010000
01000000
00001000
00000000
00010000
00000100
00001000
00000000
,
00000010
00000010
00000100
00000100
00000010
00001000
00000001
00000000
,
00002200
00000000
00003300
00000000
00010000
00001000
00001000
00000000
,
01000000
00010000
00100000
00001000
01000000
00020000
00030000
00000000
,
10000000
01000000
00010000
01000000
00100000
01000000
00010000
00000000
,
00001000
00000100
00000010
00000100
00001000
00000100
00000001
00000000
,
00002002
00000000
00003003
00000000
00000001
00000001
00000100
00000000
,
00000001
00000010
00000100
00001000
00000010
00000100
00001000
00000000
,
00010000
00100000
01000000
00000000
00010000
10000000
01000000
00000000
,
00100000
00100000
00100000
00000000
00010000
00010000
00010000
00000000
,
10000000
00010000
01010000
00001000
00010000
00010000
00001100
00001000
,
00000001
00001000
00001010
00010000
00001000
00001000
00110000
00010000
,
10000000
00100000
01100000
00010000
00100000
00100000
00011000
00000100
,
00000001
00000100
00000110
00001000
00000010
00000010
00011000
00100000
,
02000000
00000000
00000000
03000000
,
00000200
00000000
00000000
00000300
,
00000010
00001000
00001100
00000000
00100000
00010000
01010000
00000000
,
00001000
00000000
00000000
00000000
00000010
00000100
00000110
00000000
,
00001001
00000000
00000001
00001000
00000010
00001000
00000100
00010000
,
00001000
00000000
00100000
00010000
10000000
00100000
01000000
00010000
,
00100000
00010000
01010000
00000000
00000010
00001000
00001100
00000000
,
00010000
00001000
01000000
00001000
00010000
00010000
00101000
00000000
,
00011000
00000000
00010000
00010000
00010000
00010000
00010000
00000000
,
00000100
00000100
00000100
00000000
00001000
00000010
00001000
00000000
,
00010010
00000000
00001000
00001000
00001000
00001000
00001000
00000000
,
01000000
01000000
00010000
00010000
00001000
00001000
00000110
00000001
;

//---------------dance-double - ----------------
#NOTES:
     dance-double:
     :
     Hard:
     12:
     0.513820,0.507155,0.319926,0.193894,0.499278,371.000000,338.000000,33.000000,20.000000,0.000000,0.000000,0.513820,0.507155,0.319926,0.193894,0.499278,371.000000,338.000000,33.000000,20.000000,0.000000,0.000000:
00000000
00000000
00000000
00000000
,
00000000
00000000
00000000
00000000
,
10000000
01000000
10000000
01000000
00010000
01000000
00010000
01000000
00010000
00001000
00010000
00001000
00000100
00000000
00000110
00000000
,
00000001
00000010
00000000
00000010
00000001
00000000
00001100
00000000
00001000
00000010
00000000
00000010
00001000
00000000
00011000
00000000
,
00001000
00000000
00100000
00000000
00010000
10000000
00100000
00000000
01000000
00100000
00000000
00100000
01000000
00000000
10010000
00000000
,
10000000
01000000
00000000
01000000
10000000
00000000
00110000
00000000
00010000
01000000
00000000
01000000
00010000
00000000
00011000
00000000
,
00010000
00000000
00000100
00000000
00001000
00000001
00000100
00000000
00000010
00000100
00000000
00000100
00000010
00000000
00001000
00000000
,
00001001
00000000
00000002
00000000
00000010
00000000
00000003
00000000
00001000
00000100
00001000
00000000
00001000
00000020
00000000
00000030
,
00010000
00001000
00010000
00000000
00001000
01000000
00001000
00000000
00100000
00010000
00100000
00000000
01000000
20000000
00000000
30000000
,
01000000
00100000
01000000
00100000
01000000
00000000
00010000
00000000
00001000
00010000
00100000
00000000
10000000
00000000
00010000
00000000
,
10000000
01000000
10000000
01000000
00100000
00010000
00100000
00010000
00001000
00000100
00000010
00000001
00001000
00000000
00000100
00000000
,
00001001
00000000
00000002
00000000
00000100
00000000
00000003
00001000
00000010
00000000
00001000
00000100
00010000
00002000
00000000
00003000
,
00100000
00000000
00001000
00010000
00001000
00000000
01000000
00100000
01000000
00000000
00010000
00000000
22000000
00000000
33000000
00000000
,
01000000
00010000
01000000
00010000
00001000
00010000
00000100
00000000
00000110
00000000
00000001
00001000
00000010
00000000
00000100
00000000
,
00000001
00000010
00000001
00000010
00000100
00001000
00000100
00001000
00020000
00000000
00130000
01000000
10000000
00000000
00010000
00000000
,
20020000
00000000
30030000
00000000
01100000
00000000
10000000
01000000
10000000
00000000
10000000
00000000
01010000
00000000
00001000
00000000
,
00010000
00000100
00001000
00000100
00000010
00000000
00000001
00000000
00000100
00000010
00000100
00000000
00001000
00000000
00010000
00000000
,
00100000
10000000
00100000
00000000
01000000
00000000
00010000
00000000
00100000
00000000
00001000
00000000
00011000
00000000
00010000
00000000
,
00000100
00001000
00000100
00000000
00010000
00001000
00010000
00000000
00000010
00001000
00000010
00000100
00000001
00000010
00000100
00000010
,
00000001
00000000
00000010
00000000
00001001
00000000
00000010
00000000
00001000
00000000
00000010
00000000
00011000
00000000
00100000
00010000
,
10000000
00000000
00100000
00000000
10010000
00000000
00100000
00000000
00010000
00000000
00100000
00000000
00011000
00000000
00000010
00001000
,
00000100
00000001
00001100
00010000
00001000
01000000
10010000
01000000
,
10000000
00100000
10000000
00100000
01000000
00010000
01000000
00010000
00100000
00001000
00010000
00000100
00001000
00000000
00000001
00000000
,
00000201
00000000
00001000
00000000
00000000
00000000
00000310
00010000
,
00002000
00000000
00000100
00000000
00000000
00000000
00103000
00001000
,
01000000
00010000
01000000
00000000
01100000
00000000
00010000
00000000
00000100
00001000
00000100
00000000
00000110
00000000
00000001
00000000
,
00001000
00000000
00000000
00000000
00000000
00000000
00000000
00000000
00000100
00000010
00000100
00000000
00000220
00000000
00000330
00000000
,
00002002
00000000
00003003
00000001
00000010
00000000
00000001
00000000
00000100
00000000
00000010
00000000
00001000
00000000
00000100
00010000
,
00001000
00000000
00000000
00100000
00010000
00000000
10000000
00000000
00100000
00000000
10000000
01000000
00010000
00000000
01000000
00000000
,
00100000
00010000
00100000
00000000
01100000
00000000
00010000
00000000
00000010
00001000
00000010
00000000
00000110
00000000
00000001
00000000
,
00001000
00000100
00001000
00000100
00010000
00001000
00010000
00001000
01000000
00010000
10000000
01000000
00010000
00000000
00001000
00000000
,
00000220
00000000
00000330
00000000
00001000
00000010
00001000
00000010
00001000
00000010
00001000
00000010
00001000
00000000
00011000
00000000
,
00100000
00010000
00100000
00010000
10000000
00100000
10000000
00100000
01000000
00010000
10000000
01000000
00100000
00000000
00010000
00000000
,
02200000
00000000
03300000
00000000
00010000
01000000
00010000
01000000
00010000
01000000
00010000
01000000
00010000
00000000
00011000
00000000
,
00000100
00001000
00000100
00001000
00000001
00000100
00000001
00000100
00000010
00001000
00000100
00010000
00011000
00000000
01100000
00000000
;

//---------------dance-double - ----------------
#NOTES:
     dance-double:
     :
     Challenge:
     12:
     0.477811,0.507155,0.339315,0.184200,0.373246,345.000000,310.000000,35.000000,19.000000,120.000000,0.000000,0.477811,0.507155,0.339315,0.184200,0.373246,345.000000,310.000000,35.000000,19.000000,120.000000,0.000000:
// measure 0
00000000
00000000
00000000
00000000
,  // measure 1
00000000
00000000
00000000
00000000
,  // measure 2
00010000
00010000
01000000
00000000
00010000
00010000
00001000
00000000
00010000
00010000
00100000
00000000
01100000
00000000
10000000
00000000
,  // measure 3
01000000
00010000
00001000
00000000
MMMM0110
00000000
00000001
00000000
00000100
00001000
00010000
00000000
0110MMMM
00000000
10000000
00000000
,  // measure 4
00010000
00000000
00100000
00000000
01000000
10000000
01000000
00000000
00010000
00001000
00010000
00000000
00000110
00000000
MMMMMMMM
00000000
,  // measure 5
00000010
00001000
00010000
00000000
0110MMMM
00000000
10000000
00000000
00100000
00010000
00001000
00000000
MMMM0110
00000000
00000001
00000000
,  // measure 6
00001000
00000000
00000100
00000000
00000010
00000001
00000010
00000000
00001000
00010000
00001000
00000000
01100000
00000000
MMMMMMMM
00000000
,  // measure 7
20010000
00000000
00000000
00000000
31000000
00000000
00100000
00000000
00010000
01000000
00010000
00000000
20200000
00000000
30300000
00000000
,  // measure 8
00010000
00100000
00010000
00000000
01000000
00000000
00001000
00000000
00010000
00001000
00010000
00000000
00000200
00000000
00000300
00000000
,  // measure 9
00010000
00001000
00010000
00000000
01000000
00000000
00010000
00000000
00001000
00010000
00001000
00000000
00000020
00000000
00000030
00000000
,  // measure 10
00000100
00010000
00001000
00000000
00010000
00000100
00001000
00000000
00000010
00000001
00000010
00000100
00000010
00000000
MMMMMMMM
00000000
,  // measure 11
00002002
00000000
00000000
00000000
00003003
00000000
00000000
00001000
00000100
00000000
00001000
00000000
00000022
00000000
00000033
00000000
,  // measure 12
00001000
00000000
00000100
00001000
00000010
00000000
00001000
00000100
00010000
00000000
00001000
00000000
MMMMMMMM
00000000
00000000
00000000
,  // measure 13
00010000
00100000
00001000
01000000
00010000
10000000
00100000
00000000
01100000
00000000
01000000
00010000
10000000
00000000
00010000
00000000
,  // measure 14
00100000
00010000
00100000
00001000
00010000
00001000
00010000
00000010
00001000
00000001
00000100
00000010
00001000
00000000
00000001
00000000
,  // measure 15
00000220
00000000
00000000
00000000
00000330
00000000
00000000
00001000
00001000
00000000
00001000
00000000
00011000
00000000
00001000
00000000
,  // measure 16
00001000
00000010
00001000
00000000
00010000
00000000
00001000
00000000
00001000
00000100
00001000
00000000
00020000
00000000
00030000
00000000
,  // measure 17
00010000
00100000
00010000
00000000
00100000
00000000
10000000
00000000
01000000
00000000
00100000
00010000
20000000
00000000
30000000
00000000
,  // measure 18
01000000
00010000
01000000
00000000
00010000
00001000
00010000
00000000
00001000
00000100
00001000
00000100
00000010
00000000
00000001
00000010
,  // measure 19
00000100
00000000
00000010
00000000
00000110
00000000
00001000
00000000
00000011
00000000
00001010
00000000
00011000
00000000
0001MMMM
01000000
,  // measure 20
00100000
00000000
01000000
00000000
01100000
00000000
10000000
00000000
00110000
00000000
01010000
00000000
00110000
00000000
0100MMMM
00010000
,  // measure 21
00001000
00000000
00000010
00000000
00000011
00000000
00001000
00000000
00001100
00000000
00001010
00000000
00001100
00000000
MMMM0001
00000100
,  // measure 22
00001000
00010000
00001000
00010000
00100000
00010000
00100000
00010000
00100000
01000000
10000000
01000000
00010000
00000000
10000000
00000000
,  // measure 23
MMMMMMMM
00000000
00000000
00100000
01000000
00000000
10000000
00000000
01000000
00000000
00010000
00000000
00001000
00000000
00010000
00000000
,  // measure 24
00100000
00000000
00000000
00010000
00001000
00000000
00010000
00000000
01000000
00000000
00010000
00000000
00001000
00000000
00000100
00000000
,  // measure 25
00000001
00001000
00000100
00000000
00000011
00000000
00001000
00000000
00000010
00010000
00001000
00000000
00110000
00000000
10000000
00000000
,  // measure 26
MMMMMMMM
00000000
00000000
00000000
MMMMMMMM
00000000
00000000
00000000
10000000
00010000
01000000
00000000
01100000
00000000
MMMMMMMM
00000000
,  // measure 27
20020000
00000000
30030000
00010000
00100000
00000000
01000000
00000000
10000000
00000000
00100000
00000000
00010000
00000000
00001000
00000000
,  // measure 28
00000010
00000000
00000000
00001000
00010000
00000000
01000000
00000000
00010000
00000000
00001000
00000000
00000100
00000000
00000001
00000000
,  // measure 29
00000010
00001000
00010000
00000000
0110MMMM
00000000
10000000
00000000
00100000
00010000
00001000
00000000
MMMM0110
00000000
00000001
00000000
,  // measure 30
00001000
00000100
00001000
00000100
00000010
00000001
00000010
00000001
00001000
00000010
00010000
00000100
00001000
00000000
0001MMMM
00000000
,  // measure 31
00022000
00000000
00033000
00000000
00100000
00010000
00100000
00000000
00010000
00100000
00010000
00000000
01000000
00000000
00001000
00000000
,  // measure 32
00010000
00001000
00000010
00000000
00000010
00001000
00010000
00000000
00010000
00001000
00000010
00000000
00000001
00000000
MMMM0100
00000000
,  // measure 33
00000220
00000000
00000330
00000000
00000010
00001000
00000010
00000000
00001000
00000010
00001000
00000000
00000100
00000000
00010000
00000000
,  // measure 34
00001000
00010000
00100000
00000000
00100000
00010000
00001000
00000000
00001000
00010000
01000000
00000000
0110MMMM
00000000
MMMMMMMM
00000000
;
