#TITLE:The Government;
#SUBTITLE:;
#ARTIST:Stonebank;
#TITLETRANSLIT:;
#SUBTITLETRANSLIT:;
#ARTISTTRANSLIT:;
#GENRE:Monstercat;
#CREDIT:;
#BANNER:The Government.png;
#BACKGROUND:The Government-bg.png;
#LYRICSPATH:;
#CDTITLE:../cdtitle.png;
#MUSIC:The Government.ogg;
#OFFSET:2.461000;
#SAMPLESTART:56.832001;
#SAMPLELENGTH:15.000000;
#LASTBEATHINT:2.069750;
#SELECTABLE:YES;
#DISPLAYBPM:85.000000:170.000000;
#BPMS:0.000000=85.000000
,52.000000=170.000000
,108.000000=85.000000
,109.000000=680.000000
,117.000000=170.000000
,180.000000=340.000000
,182.000000=170.000000
;
#STOPS:117.000000=1.059000,
180.000000=0.044000,
180.250000=0.044000,
180.500000=0.044000,
180.750000=0.044000,
181.000000=0.044000,
181.250000=0.044000,
181.500000=0.044000,
181.750000=0.044000
;
#BGCHANGES:-99.000=../bg.avi=1.000=0=0=1=====,
99999=-nosongbg-=1.000=0=0=0 // don't automatically add -songbackground-
;
#KEYSOUNDS:;
#ATTACKS:;

//---------------dance-single - ----------------
#NOTES:
     dance-single:
     :
     Beginner:
     2:
     0.078594,0.140977,0.018339,0.055016,0.000000,60.000000,58.000000,2.000000,6.000000,0.000000,0.000000,0.078594,0.140977,0.018339,0.055016,0.000000,60.000000,58.000000,2.000000,6.000000,0.000000,0.000000:
0000
0000
0000
0000
,
0000
0000
0000
0000
,
0000
0000
0000
0000
,
0000
0000
0000
0000
,
0000
0000
0000
0000
,
1000
0000
0000
0000
,
1000
0000
0000
0000
,
0001
0000
0000
0000
,
0001
0000
0000
0000
,
1001
0000
0000
0000
,
0000
0000
0000
0000
,
0000
0000
0000
0000
,
0000
0000
0000
0000
,
1000
0000
0000
0000
,
0000
0000
0000
0000
,
0001
0000
0000
0000
,
0000
0000
0000
0000
,
0100
0000
0000
0000
,
0000
0000
0000
0000
,
0010
0000
0000
0000
,
0000
0000
0000
0000
,
1000
0000
0000
0000
,
1000
0000
0000
0000
,
0001
0000
0000
0000
,
0001
0000
0000
0000
,
0010
0000
0010
0000
,
0100
0000
0100
0000
,
0020
0000
0000
0000
,
0000
0000
0000
0000
,
0000
0030
1000
0000
,
0000
0000
1000
0000
,
0000
0000
0001
0000
,
0000
0000
0001
0000
,
0000
0000
1000
0000
,
0000
0000
0001
0000
,
0000
0000
0200
0000
,
0000
0000
0000
0000
,
0000
0300
0000
0000
,
0010
0000
0010
0000
,
0000
0000
0000
0000
,
0100
0000
0100
0000
,
0000
0000
2000
0000
,
0000
0000
0000
0000
,
0000
0000
3000
0000
,
0000
0000
0000
0000
,
0000
0000
0001
0000
,
0001
0000
0001
0000
,
0100
0000
1000
0000
,
1000
0000
1000
0000
,
0010
0000
0001
0000
,
0001
0000
0001
0000
,
1000
0000
0020
0000
,
0000
0000
0000
0000
,
0000
0030
0100
0000
,
0001
0000
0100
0000
,
0100
0000
0010
0000
,
0001
0000
0010
0000
,
0010
0000
0001
0000
,
0100
0000
0001
0000
,
0001
0000
2000
0000
,
3000
0000
0002
0000
,
0003
0000
0110
0000
;

//---------------dance-single - ----------------
#NOTES:
     dance-single:
     :
     Easy:
     5:
     0.189935,0.338346,0.100862,0.119200,0.000000,145.000000,134.000000,11.000000,13.000000,0.000000,0.000000,0.189935,0.338346,0.100862,0.119200,0.000000,145.000000,134.000000,11.000000,13.000000,0.000000,0.000000:
0000
0000
0000
0000
,
0000
0000
0000
0000
,
0000
0000
0000
0000
,
0000
0000
0000
0000
,
0000
0000
0000
0000
,
1001
0100
1000
0100
,
0011
1000
0001
1000
,
1100
0010
0100
0010
,
0110
0001
0200
0301
,
1001
0000
0000
0000
,
0000
0000
0000
0000
,
0000
0000
0000
0000
,
0000
0000
0000
0000
,
0011
0000
2000
0000
,
0100
0000
0001
0000
,
3100
0000
0020
0000
,
0100
0000
1000
0000
,
0130
0000
0002
0000
,
0010
0000
1000
0000
,
0013
0000
0200
0000
,
0010
0000
0001
0000
,
0310
0000
0010
0000
,
0100
0000
0100
0000
,
1000
0000
1000
0000
,
0001
0000
0001
0000
,
1000
0100
0001
0000
,
1000
0010
0001
0000
,
2000
0000
0000
0000
,
0000
0000
0000
0000
,
0000
3000
0001
0000
,
0001
0100
0001
1000
,
0100
1000
1001
0000
,
0010
0001
0010
0100
,
0001
0000
0110
0000
,
1000
0010
1000
0100
,
0010
0100
2000
0000
,
0000
0000
0002
0000
,
0000
3003
0001
0110
,
0001
0010
0001
0100
,
0001
1000
1100
0000
,
1000
0100
1000
0010
,
1000
0001
0020
0000
,
0000
0000
0000
0000
,
0000
0000
0130
0000
,
0100
0000
0100
0000
,
0020
0000
0130
0000
,
0100
0000
0100
1000
,
0010
1000
0001
0000
,
0001
0000
0001
0100
,
1000
0100
0010
0000
,
0010
0000
0010
1000
,
0100
0010
0002
0000
,
0000
0000
2000
0000
,
0000
3003
0001
0000
,
0001
0000
0010
0001
,
0100
0010
1000
0000
,
1000
0000
0100
1000
,
0010
0001
0010
0000
,
0010
0000
1000
0100
,
0001
0100
2000
0100
,
0000
0001
0000
0100
,
0000
3010
0110
0000
;

//---------------dance-single - ----------------
#NOTES:
     dance-single:
     :
     Medium:
     9:
     0.319614,0.422932,0.165047,0.146708,0.000000,244.000000,226.000000,18.000000,16.000000,0.000000,0.000000,0.319614,0.422932,0.165047,0.146708,0.000000,244.000000,226.000000,18.000000,16.000000,0.000000,0.000000:
0000
0000
0000
0000
,
0000
0000
0000
0000
,
0000
0000
0000
0000
,
0000
0000
0000
0000
,
0000
0000
0000
0000
,
0001
0000
1100
0000
0010
0001
0100
0000
,
0010
0000
0110
0000
0010
0010
1000
0001
,
1000
0000
0011
0000
0100
1000
0010
0000
,
0100
0000
0110
0000
0020
0000
1030
0100
,
0002
0000
0000
0000
,
0000
0000
0000
0000
,
0003
0000
0000
0000
,
0000
0000
0000
0000
,
1100
0000
0002
0010
,
0010
1000
0010
2003
,
3100
0000
2000
0100
,
0100
0001
0100
3001
,
0101
0000
0020
1000
,
1000
0100
1000
0100
,
1030
0000
0020
0001
,
0001
0100
0032
1003
,
1000
0010
1000
0100
,
0010
0001
0100
0001
,
0010
0010
0100
0100
,
1000
1000
0001
0001
,
0010
0100
1000
0000
0100
0000
0010
0000
,
0001
1000
0010
0000
0100
0010
1000
0001
,
0020
0000
0000
0000
,
0000
0000
0000
0000
,
0000
0000
0030
0000
0001
0100
0010
0000
,
1000
0100
1000
0010
,
0100
0010
1010
0001
,
0010
0100
1000
0000
0001
0010
0001
0000
,
0100
0010
0100
0000
0110
0000
0001
0000
,
1000
0100
0001
0000
0100
0000
0010
0000
,
0001
1000
0100
0000
0020
0000
0100
0000
,
0000
0100
0032
0100
,
0000
0103
0001
1010
,
1000
0100
0010
0000
0010
0001
1000
0000
,
0100
1000
0010
0000
0110
0000
0001
0000
,
1000
0100
0001
0000
0100
1000
0001
0000
,
0010
0001
1000
0000
0210
0000
0000
0000
,
0000
0000
0000
0000
,
0000
0000
0310
0010
,
0010
0010
0010
0010
,
0020
0000
0130
1001
,
0010
0010
0100
0000
1000
1000
0100
0000
,
0001
0100
0010
0000
0110
0000
0001
0000
,
0010
0100
1000
0000
0001
0010
0001
0000
,
1000
0100
1000
0000
1001
0000
0010
0000
,
0100
0001
1000
0000
0010
0010
0100
0000
,
0001
0001
0010
0000
0200
0000
0010
0000
,
0000
0010
2300
0010
,
0000
3010
1000
0011
,
0100
1000
0001
0000
0100
0001
1000
0010
,
0100
0010
1000
0000
0001
0000
1100
0000
,
0010
0001
1000
0000
0010
1000
0001
0100
,
0010
0100
0001
0000
1000
0000
0011
0000
,
0001
1000
0010
0000
0100
0001
1000
0100
,
0010
0100
1000
0000
0002
0000
0010
0000
,
0000
1000
0000
0010
,
0000
0103
0110
0000
;

//---------------dance-single - ----------------
#NOTES:
     dance-single:
     :
     Hard:
     12:
     0.407377,0.761278,0.183385,0.201724,0.036677,311.000000,291.000000,20.000000,22.000000,0.000000,0.000000,0.407377,0.761278,0.183385,0.201724,0.036677,311.000000,291.000000,20.000000,22.000000,0.000000,0.000000:
// measure 0
0000
0000
0000
0000
,  // measure 1
0000
0000
0000
0000
,  // measure 2
0000
0000
0000
0000
,  // measure 3
0000
0000
0000
0000
,  // measure 4
0000
0000
0000
0000
0000
0000
0000
0010
,  // measure 5
1001
0000
0100
0000
0001
0100
0001
0000
1000
0000
0010
0000
0110
0000
1000
0000
,  // measure 6
1001
0000
0100
0000
1000
0100
1000
0000
2000
0000
0100
0000
3002
0000
0103
0000
,  // measure 7
1001
0000
0100
0000
0010
0001
0010
0000
0100
0000
1000
0000
1010
0000
0001
0000
,  // measure 8
0011
0000
0000
0000
0000
0000
0000
0000
0000
0000
0000
0000
0000
0000
0000
0000
0000
0000
0000
0000
0000
0000
0000
0000
0100
0000
0000
0000
0000
0000
0000
0000
0000
0000
0000
0000
0000
0000
0000
0000
0000
0000
0000
0000
0000
0000
0000
0000
1000
0000
0000
0000
0000
0000
0000
0000
0000
0000
0000
0000
0010
0000
0000
0000
0000
0000
0000
0000
0000
0000
0000
0000
1000
0000
0000
0000
0000
0000
0000
0000
0000
0000
0000
0000
0100
0000
0000
0000
0000
0000
0000
0000
0000
0000
0000
0000
0020
0000
0000
0000
0000
0000
0000
0000
0000
0000
0000
0000
0000
0000
0000
0000
0000
0000
0031
0000
0000
0000
0000
0000
0010
0000
0000
0000
0000
0000
0000
0000
0000
0000
0000
0000
0000
0000
0000
0000
0010
0000
0000
0000
0000
0000
0000
0000
0100
0000
0000
0000
0000
0000
0000
0000
0000
0000
0000
0000
0000
0000
0000
0000
1000
0000
0000
0000
0000
0000
0000
0000
0001
0000
0000
0000
0000
0000
0000
0000
0000
0000
0000
0000
0000
0000
0000
0000
0000
0000
0000
0000
0000
0000
0000
0000
,  // measure 9
2002
0000
0000
0000
,  // measure 10
0000
0000
0000
0000
,  // measure 11
3003
0000
0000
0000
,  // measure 12
0000
0000
0000
0000
0000
0000
0000
0010
,  // measure 13
0110
0000
1000
0001
0020
0000
1000
0000
,  // measure 14
0001
0001
0100
0032
,  // measure 15
0103
0000
0100
0010
2000
0000
0001
0000
,  // measure 16
0100
0100
3002
0103
,  // measure 17
0110
0000
0001
1000
0020
0000
0001
0000
,  // measure 18
1000
1000
0100
2030
,  // measure 19
3100
0000
0100
0010
0002
0000
1000
0000
,  // measure 20
0100
0100
2003
3100
,  // measure 21
0010
0100
1000
0000
0100
0010
0001
0000
,  // measure 22
1000
0001
0100
0000
0010
1000
0001
0000
,  // measure 23
0100
0010
1000
0000
0010
0100
0001
0000
,  // measure 24
1000
0001
0010
0000
0100
1000
0001
0000
,  // measure 25
1000
0100
1000
0100
0001
0100
1000
0001
,  // measure 26
0100
0010
0100
0010
0001
0010
1000
0100
,  // measure 27
0020
0000
0000
0000
,  // measure 28
0000
0000
0000
0000
,  // measure 29
0000
0000
0030
0000
0001
0100
0001
1000
,  // measure 30
0001
0100
0010
0000
1000
0100
0010
0000
,  // measure 31
0010
0100
1000
0001
1001
0000
1000
0001
,  // measure 32
0010
0100
1000
0000
0100
0010
0100
0000
,  // measure 33
1000
0100
1000
0000
0101
0000
0001
1000
,  // measure 34
0001
0100
0010
0000
1000
0100
0010
0000
,  // measure 35
0010
0100
1000
0000
0002
0000
0100
0000
,  // measure 36
0000
0100
2003
0100
,  // measure 37
0000
0000
0100
0000
3000
0000
1001
0001
,  // measure 38
0100
0010
1000
0100
1000
0001
1000
0000
,  // measure 39
0100
0010
0001
1000
1010
0000
0001
0010
,  // measure 40
0100
1000
0010
0000
1000
0100
0010
0000
,  // measure 41
0100
1000
0001
0000
2002
0000
0000
0000
,  // measure 42
0000
0000
0000
0000
,  // measure 43
0000
0003
0001
0001
,  // measure 44
0001
0001
0001
0001
,  // measure 45
3002
0000
0000
0000
1003
0100
1000
0001
,  // measure 46
0100
0010
1000
0100
0010
0100
0010
0001
,  // measure 47
1000
0100
1000
0001
0101
0000
0010
1000
,  // measure 48
0100
0010
0100
1000
0010
1000
0010
0100
,  // measure 49
1000
0100
0010
0000
0110
0000
0001
0100
,  // measure 50
0010
1000
0100
1000
0001
0010
0100
0001
,  // measure 51
0100
0010
0001
0000
2000
0000
0010
0000
,  // measure 52
0000
0010
3002
0010
,  // measure 53
0000
0013
0100
1001
,  // measure 54
1000
0100
0010
0000
0100
1000
0001
0100
,  // measure 55
0001
1000
0010
0100
0010
0000
1100
0000
,  // measure 56
0001
0100
0001
0000
1000
0100
0010
0001
,  // measure 57
0010
0100
1000
0100
0010
0000
1001
0000
,  // measure 58
0010
0001
0100
0000
0010
1000
0001
0010
,  // measure 59
0001
1000
0100
0000
0020
0000
0001
0000
,  // measure 60
0000
1000
0000
0001
,  // measure 61
0000
0130
1001
0000
;

//---------------dance-double - ----------------
#NOTES:
     dance-double:
     :
     Easy:
     5:
     0.197794,0.338346,0.128370,0.201724,0.000000,151.000000,137.000000,14.000000,22.000000,0.000000,0.000000,0.197794,0.338346,0.128370,0.201724,0.000000,151.000000,137.000000,14.000000,22.000000,0.000000,0.000000:
00000000
00000000
00000000
00000000
,
00000000
00000000
00000000
00000000
,
00000000
00000000
00000000
00000000
,
00000000
00000000
00000000
00000000
,
00000000
00000000
00000000
00000000
,
00001010
00000100
00001000
00000100
,
00011000
00100000
00010000
00100000
,
01010000
00001000
00010000
00001000
,
00000110
00000100
00002000
00003100
,
00001001
00000000
00000000
00000000
,
00000000
00000000
00000000
00000000
,
00000000
00000000
00000000
00000000
,
00000000
00000000
00000000
00000000
,
10010000
00000000
02000000
00000000
,
03200000
00000000
02300000
00000000
,
03010000
00000000
00002000
00000000
,
00203000
00000000
00302000
00000000
,
00013000
00000000
00000020
00000000
,
00000230
00000000
00000320
00000000
,
00001030
00000000
00020000
00000000
,
00030200
00000000
00020300
00000000
,
00031000
00000000
00001000
00000000
,
00100000
00000000
00100000
00000000
,
01000000
00000000
01000000
00000000
,
10000000
00000000
10000000
00000000
,
00010000
01000000
00100000
00000000
,
01000000
00001000
00010000
00000000
,
00002000
00000000
00000000
00000000
,
00000000
00000000
00000000
00000000
,
00000000
00003000
00011000
00000000
,
00000100
00010000
00001000
00001000
,
00010000
00000010
00001010
00000000
,
00000001
00001000
00000100
00001000
,
00001000
00000100
00011000
00000000
,
00100000
00010000
01000000
00001000
,
00010000
00001000
00020000
00000000
,
00000000
00000000
00002000
00000000
,
00000000
00033000
00001000
00011000
,
00000100
00001000
00000010
00000010
,
00010000
00001000
00011000
00000000
,
00010000
00010000
00100000
10000000
,
00010000
10000000
02000000
00000000
,
00000000
00000000
00000000
00000000
,
00000000
00000000
03100000
00000000
,
00100000
00000000
00100000
00000000
,
00200000
00000000
01300000
00000000
,
00100000
01000000
10000000
00010000
,
01000000
00001000
00011000
00000000
,
00000100
00010000
00010000
00001000
,
00100000
00001000
00011000
00000000
,
00000010
00000100
00000010
00001000
,
00000100
00000010
00000002
00000000
,
00000000
00000000
00002000
00000000
,
00000000
00003003
00000001
00000000
,
00000001
00000000
00000001
00000100
,
00001000
00000100
00001000
00000000
,
00001000
00000000
00010000
00100000
,
10000000
00010000
10000000
00000000
,
10000000
00000000
01000000
00010000
,
00001000
00010000
00002000
00000000
,
00000100
00000000
00023000
00000000
,
01000000
00030000
00011000
00000000
;

//---------------dance-double - ----------------
#NOTES:
     dance-double:
     :
     Medium:
     9:
     0.311755,0.422932,0.165047,0.146708,0.000000,238.000000,220.000000,18.000000,16.000000,0.000000,0.000000,0.311755,0.422932,0.165047,0.146708,0.000000,238.000000,220.000000,18.000000,16.000000,0.000000,0.000000:
00000000
00000000
00000000
00000000
,
00000000
00000000
00000000
00000000
,
00000000
00000000
00000000
00000000
,
00000000
00000000
00000000
00000000
,
00000000
00000000
00000000
00000000
,
00000100
00000000
00011000
00000000
00000100
00010000
00001000
00000000
,
00100000
00000000
00011000
00000000
00100000
00001000
00010000
00000000
,
00001000
00000000
00010010
00000000
00001000
00001000
00000100
00000000
,
00010000
00000000
00101000
00000000
00020000
00000000
01030000
00001000
,
00200000
00000000
00000000
00000000
,
00000000
00000000
00000000
00000000
,
00300000
00000000
00000000
00000000
,
00000000
00000000
00000000
00000000
,
00000110
00000000
00020000
00001000
,
00001000
00000100
00001000
00032000
,
00003100
00000000
00000020
00000001
,
00000001
00000100
00001000
00000130
,
00001001
00000000
00000200
00000010
,
00000010
00001000
00010000
00020300
,
00031000
00000000
00200000
00010000
,
00010000
10000000
01000000
00310000
,
01000000
00001000
01000000
00001000
,
00010000
00001000
00010000
00001000
,
00010000
00010000
00001000
00001000
,
00000010
00000010
00000001
00000001
,
00001000
00000100
00001000
00000000
00000100
00000000
00000010
00000000
,
00000001
00000100
00000010
00000000
00001000
00000100
00000010
00000100
,
00020000
00000000
00000000
00000000
,
00000000
00000000
00000000
00000000
,
00000000
00030000
00010000
00010000
,
00000100
00010000
00001000
00000000
00001000
00000000
01000000
00000000
,
00010000
10000000
11000000
00000000
,
00100000
00010000
00100000
00000000
01000000
00000000
01000000
00000000
,
00010000
00001000
00000110
00000000
,
00000001
00000010
00000001
00000000
00001000
00000010
00000100
00000000
,
00000010
00000100
00000001
00000000
00002000
00000000
00000100
00000000
,
00000000
00003100
00020000
00100000
,
00000000
00130000
01000000
00011000
,
00100000
00001000
00010000
00000000
00000100
00010000
00001000
00000000
,
00000100
00000010
00001000
00000000
00001001
00000000
00000010
00000000
,
00000001
00000100
00000010
00000000
00001000
00000100
00010000
00000000
,
00001000
00010000
00100000
00000000
02100000
00000000
00000000
00000000
,
00000000
00000000
00000000
00000000
,
00000000
00000000
03100000
00100000
,
01000000
01000000
00100000
01000000
,
00200000
00000000
01300000
10010000
,
01000000
01000000
10000000
00000000
00100000
01000000
00100000
00000000
,
01000000
00001000
00010000
00000000
00011000
00000000
00000100
00000000
,
00010000
00010000
00001000
00000000
00000010
00000001
00000010
00000000
,
00000100
00001000
00000001
00000000
00001001
00000000
00000100
00000000
,
00000010
00000010
00000001
00000000
00000100
00000010
00000100
00000000
,
00000010
00010000
00001000
00000000
00200000
00000000
01000000
00000000
,
00000000
01300000
20000000
00010000
,
00000000
30010000
10000000
01100000
,
00010000
01000000
00001000
00000000
00100000
00010000
01000000
00001000
,
00010000
00000100
00010000
00011000
,
00001000
00000010
00000001
00000000
00001000
00000010
00000100
00000001
,
00001000
00000100
00000010
00000000
00000001
00000000
00000110
00000000
,
00000100
00001000
00000010
00000000
00010000
00000100
00001000
00000010
,
00010000
00001000
00200000
01000000
,
00000000
00001000
00000000
10000000
,
00000000
00310000
10010000
00000000
;

//---------------dance-double - ----------------
#NOTES:
     dance-double:
     :
     Hard:
     13:
     0.434885,0.789474,0.183385,0.174216,0.100862,332.000000,312.000000,20.000000,19.000000,0.000000,0.000000,0.434885,0.789474,0.183385,0.174216,0.100862,332.000000,312.000000,20.000000,19.000000,0.000000,0.000000:
00000000
00000000
00000000
00000000
,
00000000
00000000
00000000
00000000
,
00000000
00000000
00000000
00000000
,
00000000
00000000
00000000
00000000
,
00000000
00000000
00000000
00000000
00000000
00000000
00000000
00000100
,
00011000
00000000
00000100
00000000
00000010
00000100
00000010
00000000
00000001
00000000
00000001
00000000
00001001
00000000
00000100
00000000
,
00001010
00000000
00000100
00000000
00000001
00000100
00000001
00000000
00000020
00000000
00001000
00000000
00000230
00000000
00010300
00000000
,
00011000
00000000
00100000
00000000
01000000
00100000
01000000
00000000
10000000
00000000
10000000
00000000
10010000
00000000
00100000
00000000
,
01010000
00000000
00000000
00000000
00000000
00000000
00000000
00000000
00000000
00000000
00000000
00000000
00000000
00000000
00000000
00000000
00000000
00000000
00000000
00000000
00000000
00000000
00000000
00000000
00100000
00000000
00000000
00000000
00000000
00000000
00000000
00000000
00000000
00000000
00000000
00000000
00000000
00000000
00000000
00000000
00000000
00000000
00000000
00000000
00000000
00000000
00000000
00000000
10000000
00000000
00000000
00000000
00000000
00000000
00000000
00000000
00000000
00000000
00000000
00000000
01000000
00000000
00000000
00000000
00000000
00000000
00000000
00000000
00000000
00000000
00000000
00000000
00010000
00000000
00000000
00000000
00000000
00000000
00000000
00000000
00000000
00000000
00000000
00000000
00001000
00000000
00000000
00000000
00000000
00000000
00000000
00000000
00000000
00000000
00000000
00000000
00020000
00000000
00000000
00000000
00000000
00000000
00000000
00000000
00000000
00000000
00000000
00000000
00000000
00000000
00000000
00000000
00000000
00000000
00030100
00000000
00000000
00010000
00000000
00000000
00001000
00000000
00000000
00000000
00000000
00000000
00000000
00000000
00000000
00000000
00000000
00000000
00000000
00000000
00000000
00000000
00010000
00000000
00000000
00000000
00000000
00000000
00000000
00000000
00001000
00000000
00000000
00000000
00000000
00000000
00000000
00000000
00000000
00000000
00000000
00000000
00000000
00000000
00000000
00000000
00000010
00000000
00000000
00000000
00000000
00000000
00000000
00000000
00000001
00000000
00000000
00000000
00000000
00000000
00000000
00000000
00000000
00000000
00000000
00000000
00000000
00000000
00000000
00000000
00000000
00000000
00000000
00000000
00000000
00000000
00000000
00000000
,
00002002
00000000
00000000
00000000
,
00000000
00000000
00000000
00000000
,
00003003
00000000
00000000
00000000
,
00000000
00000000
00000000
00000000
00000000
00000000
00000000
00100000
,
01100000
00000000
00000000
10000000
00200000
00000000
01000000
00000000
,
10000000
01000000
10000000
02300000
,
03010000
00000000
00000000
00100000
00002000
00000000
01000000
00000000
,
00010000
01000000
00010000
00003010
,
00000110
00000000
00000000
00000001
00000020
00000000
00000100
00000000
,
00000001
00000100
00000001
00000230
,
00001300
00000000
00000000
00000010
00020000
00000000
00000100
00000000
,
00001000
00000100
00001000
00130000
,
01000000
00010000
10000000
00000000
01000000
00100000
00010000
00000000
,
00100000
00001000
00010000
00000000
00000100
00001000
00000010
00000000
,
00000001
00000010
00001000
00000000
00000001
00001000
00000100
00000000
,
00000010
00001000
00010000
00000000
01000000
10000000
00100000
00000000
,
10000000
01000000
10000000
01000000
00010000
00001000
00000100
00000001
,
00000010
00000000
00000100
00000000
00000010
00000000
00000100
00000000
00001000
00000100
00010000
00000100
00001000
00000010
00010000
00001000
,
00200000
00000000
00000000
00000000
,
00000000
00000000
00000000
00000000
,
00000000
00000000
00300000
00000000
00010000
01000000
00001000
00100000
,
00010000
01000000
00100000
00000000
10000000
01000000
00010000
00000000
,
00010000
01000000
10000000
00010000
10010000
00000000
00010000
00100000
,
01000000
10000000
00100000
00000000
10000000
01000000
00010000
00000000
,
00001000
00000100
00000010
00000000
00000110
00000000
00001000
00000100
,
00010000
00000010
00001000
00000000
00000100
00010000
00001000
00000000
,
00001000
00000010
00000001
00000000
00002000
00000000
00000100
00000000
,
00000000
00000010
00003002
00000010
,
00000000
00000000
00000100
00000000
00000003
00000000
00001001
00000001
,
00000100
00000010
00001000
00000100
00010000
00000010
00001000
00000100
,
00010000
00001000
01000000
00010000
10010000
00000000
01000000
10000000
,
00100000
01000000
00100000
01000000
00001000
00010000
01000000
00010000
,
00001000
00000100
00000001
00001000
00002002
00000000
00000000
00000000
,
00000000
00000000
00000000
00000000
,
00000000
00000003
00000100
00000100
,
00000010
00000010
00000100
00000100
,
00003002
00000000
00000000
00000000
00000000
00000000
00000000
00000000
00001003
00000100
00001000
00000000
00000001
00000000
00001000
00000000
,
00000010
00000000
00000100
00000000
00000001
00000000
00001000
00000000
00000010
00000100
00000010
00000000
00001000
00000100
00001000
00000000
,
00000001
00000010
00001000
00010000
00011000
00000000
00001000
00010000
,
01000000
00010000
00001000
00000010
00001000
00001000
00010000
00010000
,
00100000
01000000
00100000
10000000
10010000
00000000
00010000
01000000
,
00100000
10000000
00100000
00000000
10000000
00000000
01000000
00000000
00100000
00010000
10000000
00000000
01000000
10000000
00010000
00000000
,
01000000
00100000
00010000
00001000
00020000
00000000
00000100
00000000
,
00000000
00001000
00030020
00001000
,
00000000
00000130
00000001
00001001
,
00001000
00000000
00000100
00000000
00000010
00000000
00000000
00000000
00000001
00000000
00000000
00001000
00000100
00000000
00001000
00000000
,
00000010
00000100
00001000
00000100
00000010
00000000
00000110
00000000
,
00000010
00000000
00001000
00000000
00000001
00000000
00000000
00000000
00001000
00000000
00000000
00000001
00000100
00000000
00001000
00000000
,
00010000
00001000
00010000
00100000
10000000
00000000
10010000
00000000
,
00010000
00000000
01000000
00000000
00100000
00000000
00000000
00000000
10000000
00000000
00000000
00010000
01000000
00000000
00010000
00000000
,
00100000
01000000
00010000
01000000
00100000
00001000
00010000
00000100
,
00000000
00000100
00010000
00001000
00000000
00001000
00010000
00100000
,
00000000
00010000
00001000
00000000
00011000
00000000
00000000
00000000
;
