#TITLE:Tantanmen;
#SUBTITLE:;
#ARTIST:Memme;
#TITLETRANSLIT:;
#SUBTITLETRANSLIT:;
#ARTISTTRANSLIT:;
#GENRE:Crossover;
#CREDIT:;
#BANNER:Tantanmen.png;
#BACKGROUND:Tantanmen-bg.png;
#LYRICSPATH:;
#CDTITLE:../cdtitle.png;
#MUSIC:Tantanmen.ogg;
#OFFSET:-0.134000;
#SAMPLESTART:11.484000;
#SAMPLELENGTH:15.000000;
#SELECTABLE:YES;
#BPMS:0.000000=185.000000
,200.000000=92.500000
,216.000000=185.000000
;
#STOPS:
;
#BGCHANGES:-0.250=Tantanmen.avi=1.000=0=0=0=StretchNoLoop====,
99999=-nosongbg-=1.000=0=0=0 // don't automatically add -songbackground-
;
#KEYSOUNDS:;
#ATTACKS:;

//---------------dance-single - ----------------
#NOTES:
     dance-single:
     :
     Challenge:
     18:
     1.024769,1.025170,0.484809,0.404008,0.848416,799.000000,745.000000,54.000000,45.000000,0.000000,0.000000,1.024769,1.025170,0.484809,0.404008,0.848416,799.000000,745.000000,54.000000,45.000000,0.000000,0.000000:
0000
0000
0000
0000
,
0000
0000
0000
0000
,
0000
0000
0000
0000
,
0000
0000
0000
0000
,
0000
0000
0000
0000
,
0020
0000
0130
0010
0100
0100
0010
0001
,
1000
0100
1000
0010
0200
0000
0310
1000
,
0200
0320
2030
3002
2003
3020
0032
0023
,
0130
0000
0010
0000
1002
0000
0103
0010
,
1010
1000
0100
0010
0011
0001
0100
0010
,
0001
0010
0100
1000
0100
0001
0100
0001
,
1000
0000
0010
1000
0010
0000
0100
0000
0001
0000
0010
0001
0010
0000
0100
0000
,
0010
0000
0001
0100
0010
0000
1000
0100
0010
0000
0001
0000
1001
0000
0000
0000
,
1100
0100
0010
0001
0011
0010
0100
1000
,
0010
1000
0100
1000
0001
1000
0010
1000
,
0001
0000
0010
0100
0010
0000
0100
0000
1000
0001
1000
0000
0100
0000
0110
0000
,
0000
0000
0001
0100
0010
1000
0010
1000
0001
0010
0100
1000
0001
0010
0100
1000
,
0001
0000
1000
0010
1000
0000
1000
0001
1000
0000
1000
0100
1000
0000
1000
0001
,
0010
0100
1000
0010
0100
0000
0010
1000
0001
0000
0010
0000
0100
1000
0001
0000
,
1000
0000
0001
0100
0001
0000
0001
1000
0001
0000
0001
0010
0001
0000
0001
1000
,
0100
0010
0001
0100
0010
0100
0001
1000
0010
0100
0001
0010
0200
0000
0310
0000
,
0001
0000
0010
1000
0010
0000
0010
0100
0010
0000
0010
0001
0010
0000
0010
0100
,
1000
0000
0001
0010
0001
0000
1000
0000
0200
0000
0310
0000
0100
0000
1001
0000
,
0000
0010
0011
0100
0110
0001
1000
1100
,
0000
0000
0100
0000
1000
0000
0010
0000
1000
0000
0100
1000
0100
0010
0001
0000
,
1001
0000
1000
0100
1000
0000
1000
0001
1000
0000
1000
0010
1000
0000
1000
0001
,
0100
0010
1000
0100
0010
0000
0100
1000
0001
0000
0100
0000
0010
1000
0001
0000
,
1000
0000
0001
0010
0001
0000
0001
1000
0001
0000
0001
0100
0001
0000
0001
1000
,
0010
0100
0001
0010
0100
0010
0001
1000
0100
0010
0001
0100
0020
0000
0130
0000
,
0001
0000
0100
1000
0100
0000
0100
0010
0100
0000
0100
0001
0100
0000
0100
0010
,
1000
0000
0001
0100
0001
0000
1000
0000
0020
0000
0130
0000
0010
0000
1000
0000
,
2010
0000
3001
0000
0010
0000
0100
0000
0110
0000
0010
0001
0010
0000
0200
0000
,
0000
0000
1300
0000
0001
0000
0010
0000
0100
0000
1000
0001
1000
0000
0020
0000
,
0000
0000
0130
0000
0010
0000
0100
0000
0001
1000
0100
0000
1000
0000
0001
0000
,
1001
0001
0011
0000
1100
1000
1002
0000
,
1003
0001
0010
0001
0100
0010
1000
0001
,
1001
0001
0101
0000
1010
1000
1002
0000
,
0013
0000
0001
0000
0100
0000
0001
0000
0010
0100
0010
0100
1000
0000
0001
0000
,
1001
0001
0011
0100
1100
1000
1002
0013
,
0100
0010
0001
1000
0100
1000
0010
2010
,
0000
0000
3010
0100
0010
0000
0100
0001
0100
0000
0010
0000
1000
0000
0100
0000
,
0010
0000
0010
0000
0001
0010
0100
1000
0002
0000
0000
0000
0103
0000
0010
0000
,
1010
1000
0100
0010
0011
0001
0100
0010
,
0001
0010
0100
1000
0100
0001
0100
0001
,
1000
0000
0010
1000
0010
0000
0100
0000
0001
0000
0010
0001
0010
0000
0100
0000
,
0010
0000
0001
0100
0010
0000
1000
0100
0010
0000
0001
0000
1001
0000
0000
0000
,
1100
0100
0010
0001
0011
0010
0100
1000
,
0010
1000
0100
1000
0001
1000
0010
1000
,
0001
0000
0010
0100
0010
0000
0100
0000
1000
0001
1000
0000
0100
0000
0110
0000
,
0000
0000
0001
0100
0010
1000
0010
1000
0001
0010
0100
1000
0002
0000
0023
0000
,
0230
0000
0000
0310
0001
1000
0100
0010
0001
0010
1000
0010
0002
0000
0013
0001
,
0011
0000
1000
0010
1010
0000
0100
1000
1100
0000
0001
0100
0202
0000
0303
0000
,
0220
0000
0330
1000
0100
1000
0010
0100
0001
0010
0100
0010
0002
0000
1003
0100
,
0010
0001
0100
0010
1000
0100
0010
0001
1000
0000
0001
0000
2002
0000
3003
0000
,
1001
0000
0001
0100
0001
0000
0001
1000
0001
0000
1000
0001
1000
0000
1000
0100
,
1000
0001
0010
0100
1000
0000
0010
0001
0010
1000
0001
0000
0010
1000
0001
0000
,
0100
0000
1000
0100
1000
0000
1000
0001
1000
0000
0001
1000
0001
0000
0001
0100
,
0001
1000
0010
0100
0001
0010
0100
0010
0001
1000
0100
0010
0100
1000
0001
0000
,
1000
0000
0010
0100
0010
0000
0001
0010
0001
0000
0010
0100
0010
0000
1000
0010
,
1000
0000
0001
0010
0100
0010
0100
0000
1000
0100
0010
0000
0001
0000
1002
0000
,
0000
0000
0103
0000
0010
0000
1020
0000
0000
0000
1030
0100
1000
0001
0020
0000
,
0000
0000
0130
1000
0001
0010
0100
1000
0001
0010
1000
0000
0010
0000
0001
0000
,
1001
0000
1000
0100
1000
0000
1000
0001
1000
0000
0001
1000
0001
0000
0001
0100
,
0001
1000
0010
0100
0001
0000
0010
1000
0010
0001
1000
0000
0010
0001
1000
0000
,
0100
0000
0001
0100
0001
0000
0001
1000
0001
0000
1000
0001
1000
0000
1000
0100
,
1000
0001
0010
0100
1000
0010
0100
0010
1000
0001
0100
0010
0100
0001
1000
0000
,
0001
0000
0010
0100
0010
0000
1000
0010
1000
0000
0010
0100
0010
0000
0001
0010
,
0001
0000
1000
0001
1000
0010
0100
0000
1000
0100
0010
0000
1000
0000
2010
0000
,
0000
0000
3100
0000
0010
0000
0021
0000
0000
0000
0130
1000
0010
0100
0020
0000
,
0000
0000
0031
1000
0001
0010
0100
1000
0100
0010
0001
0000
0010
0000
0210
0000
,
0000
0301
0100
0010
1000
0100
1000
0001
,
1000
0000
0010
0000
0001
0000
0010
0000
1000
0000
0100
0000
0010
0001
0010
0001
,
1000
0000
0010
0000
0100
0001
0100
0010
0100
0001
1000
0010
0100
0010
2000
0000
,
0000
0000
3001
0010
0100
0010
0001
1000
0100
0010
0001
0100
0010
1000
0100
0010
,
0001
0010
0001
0010
1000
0010
1000
0010
,
0100
0000
0001
0000
0100
0000
1000
0000
0001
0000
0010
0000
0100
1000
0001
0100
,
0010
1000
0010
0100
1000
0100
0010
1000
0100
0010
0100
1000
0001
0100
0020
0000
,
0000
0030
0110
0010
0011
0010
1010
1000
,
1100
0101
0011
0110
2002
0000
3003
0000
;

//---------------dance-single - ----------------
#NOTES:
     dance-single:
     :
     Beginner:
     5:
     0.241122,0.317146,0.152625,0.053868,0.000000,188.000000,171.000000,17.000000,6.000000,0.000000,0.000000,0.241122,0.317146,0.152625,0.053868,0.000000,188.000000,171.000000,17.000000,6.000000,0.000000,0.000000:
0000
0000
0000
0000
,
0000
0000
0000
0000
,
0000
0000
0000
0000
,
0000
0000
0000
0000
,
0000
0000
0000
0000
,
1000
0000
1000
0000
,
0001
0000
0001
0000
,
0010
0000
1000
0000
,
0100
0100
0100
0000
,
0010
0000
0100
0000
,
0010
0010
0010
0000
,
1000
0000
0100
0000
,
0010
0000
0001
0000
,
0100
0000
0010
0000
,
0100
0100
0100
0000
,
0001
0000
0010
0010
,
0000
0000
0000
0000
,
0100
0000
0100
0000
,
0100
0100
0100
0000
,
0010
0000
0010
0000
,
0010
0010
0010
0000
,
0001
0000
0001
0000
,
0001
0001
0001
0000
,
1000
0000
0001
0001
,
0000
0000
0000
0000
,
0100
0000
0100
0000
,
0100
0100
0100
0000
,
0010
0000
0010
0000
,
0010
0010
0010
0000
,
1000
0000
1000
0000
,
1000
1000
1000
0000
,
0001
0000
0010
0000
,
0100
0000
0100
0000
,
0020
0000
0030
0000
,
0001
0000
0001
0000
,
0010
0010
0010
0000
,
1000
0000
1000
0000
,
0100
0100
0100
0000
,
1000
0000
1000
0000
,
0010
0010
0010
0000
,
0001
0000
1000
0000
,
0001
0001
0001
0000
,
0010
0000
0100
0000
,
0010
0010
0010
0000
,
0001
0000
0100
0000
,
0010
0000
1000
0000
,
0100
0000
0010
0000
,
0100
0100
0100
0000
,
1000
0000
0010
0010
,
0000
0000
0000
0000
,
2000
3000
0002
0003
,
1000
1000
1000
0000
,
0002
0003
2000
3000
,
0001
0001
0002
0003
,
1001
0000
1001
0000
,
0010
0010
0010
0000
,
0110
0000
0110
0000
,
0001
0001
0001
0000
,
1001
0000
1001
0000
,
0100
0100
0100
0000
,
0010
0000
0010
0000
,
1000
0000
0001
0000
,
1001
0000
1001
0000
,
0010
0010
0010
0000
,
0110
0000
0110
0000
,
1000
1000
1000
0000
,
1001
0000
1001
0000
,
0100
0100
0100
0000
,
1001
0000
1001
0000
,
0110
0000
0010
0010
,
0000
0000
1000
0000
,
0001
0001
0001
0000
,
0010
0000
1000
0000
,
0001
0001
0001
0000
,
0100
0000
1000
0000
,
0010
0010
0010
0000
,
0001
0000
1000
1000
,
0000
0000
1001
0000
,
0010
0010
0110
0000
;

//---------------dance-single - ----------------
#NOTES:
     dance-single:
     :
     Hard:
     17:
     0.917033,1.095871,0.691302,0.350140,0.556633,715.000000,638.000000,77.000000,39.000000,0.000000,0.000000,0.917033,1.095871,0.691302,0.350140,0.556633,715.000000,638.000000,77.000000,39.000000,0.000000,0.000000:
// measure 0
0000
0000
0000
0000
,  // measure 1
0000
0000
0000
0000
,  // measure 2
0000
0000
0000
0000
,  // measure 3
0000
0000
0000
0000
,  // measure 4
0000
0000
0000
0000
,  // measure 5
2000
0000
3001
0010
0100
0100
1000
1000
,  // measure 6
0001
0010
0100
0010
0002
0000
1003
0100
,  // measure 7
0010
0001
0100
0010
1000
0100
0010
0001
,  // measure 8
1000
0000
0001
0000
1002
0000
0103
0010
,  // measure 9
1010
0000
0100
0010
0011
0000
0100
0010
,  // measure 10
0001
0010
0100
1000
0100
0001
0020
0000
,  // measure 11
0130
0010
0001
0001
0100
0010
0001
2000
,  // measure 12
0000
3100
0010
1000
0100
0010
0110
0000
,  // measure 13
1100
0000
0010
0100
0101
0000
0010
0100
,  // measure 14
0001
0100
0010
1000
0010
0001
0100
0010
,  // measure 15
0001
0010
1000
1000
0100
0001
0100
0010
,  // measure 16
0000
0000
0100
0010
0001
0010
0001
0010
0100
1000
0001
0010
0100
1000
0001
0000
,  // measure 17
1001
1000
1100
0000
0110
0000
0011
0000
,  // measure 18
0010
0100
0010
0100
1000
0000
1000
0010
1000
0000
0010
0000
0100
0001
0010
0000
,  // measure 19
0011
0010
0110
0000
1100
0000
1001
0000
,  // measure 20
1000
0100
0010
0001
1000
0000
0001
0100
0010
1000
0010
0100
0002
0000
0013
0000
,  // measure 21
0110
0100
1100
0000
1001
0000
1010
0000
,  // measure 22
0100
0000
0010
1000
0010
0000
1000
0000
0100
0000
0010
0000
0001
0000
0010
0000
,  // measure 23
0000
0100
1000
0100
1100
0010
0001
1000
,  // measure 24
0000
0000
0010
0000
0100
0000
0010
0000
1000
0000
0001
0100
0010
1000
0001
0000
,  // measure 25
1001
0001
0011
0000
0110
0000
1100
0000
,  // measure 26
0100
0010
0100
0010
0001
0000
0001
0100
0001
0000
0100
0000
0010
1000
0100
0000
,  // measure 27
1100
0100
0110
0000
0011
0000
1001
0000
,  // measure 28
0001
0010
0100
1000
0001
0000
1000
0010
0100
0001
0100
0010
2000
0000
3100
0000
,  // measure 29
0110
0010
0011
0000
1001
0000
0101
0000
,  // measure 30
0010
0000
0100
0001
0100
0000
0001
0000
0010
0000
0100
0000
1000
0000
0100
0000
,  // measure 31
0020
0000
0000
0000
0031
0000
1000
0000
0010
0000
0001
0010
0001
0000
2000
0000
,  // measure 32
0000
0000
3100
0000
0001
0000
0010
0000
0100
0000
0001
1000
0001
0000
2000
0000
,  // measure 33
0000
0000
3010
0000
0100
0000
1000
0000
0010
0100
0010
0000
1000
0000
0001
0000
,  // measure 34
0101
1100
0110
2010
,  // measure 35
3001
0010
0100
0001
0100
0010
0001
0010
,  // measure 36
0011
1010
0110
2100
,  // measure 37
3001
0000
0010
0000
0100
0000
1000
0000
0020
0000
0130
0001
0100
0000
0010
0000
,  // measure 38
1010
0101
1001
0110
,  // measure 39
1000
0001
0100
0001
0010
0100
0010
0021
,  // measure 40
0000
0000
0130
1000
0100
0000
0010
0001
1000
0000
0010
0000
0100
0000
0010
0000
,  // measure 41
1000
0000
0010
0000
1000
0100
0010
0001
2000
0000
0000
0000
3100
0000
0010
0000
,  // measure 42
0011
0000
0100
0010
1010
0000
0100
0010
,  // measure 43
1000
0010
0100
0001
0100
1000
0020
0000
,  // measure 44
0130
0010
1000
1000
0100
0010
1000
0002
,  // measure 45
0000
0103
0010
0001
0100
0010
0110
0000
,  // measure 46
0101
0000
0010
0100
1100
0000
0010
0100
,  // measure 47
1000
0100
0010
0001
0010
1000
0100
0010
,  // measure 48
1000
0010
0001
0001
0100
1000
0100
0010
,  // measure 49
0000
0000
0100
0010
1000
0010
1000
0010
0100
0001
0010
0100
2000
0000
3200
0000
,  // measure 50
0320
0000
0000
0031
0010
0100
0010
0001
1000
0100
0010
0001
1001
0000
1000
0010
,  // measure 51
0110
0000
0010
1000
1010
0000
1000
0100
0110
0000
0100
1000
2200
0000
3300
0000
,  // measure 52
2002
0000
3003
0001
0100
0010
0100
0001
1000
0010
0100
0001
1001
0000
1000
0100
,  // measure 53
1000
0001
0010
1000
0010
0001
1000
0100
0001
0000
0100
0000
2002
0000
3003
0000
,  // measure 54
0110
0000
0001
0000
1000
0000
0001
0100
0001
0000
1000
0100
1000
0000
0001
0000
,  // measure 55
1000
0100
1000
0001
0010
0000
0100
1000
0001
0000
0010
0000
0001
1000
0010
0000
,  // measure 56
0100
0000
0001
0000
1001
0000
1000
0100
1000
0000
0100
0010
0100
0000
1000
0000
,  // measure 57
0001
0010
0100
1000
0001
1000
0010
0100
0001
1000
0001
0010
0100
1000
0001
0000
,  // measure 58
0010
0000
0100
0000
0110
0000
1000
0100
1000
0000
0010
0100
0010
0000
1000
0010
,  // measure 59
2000
0000
3001
0010
0100
1000
0001
0000
0010
0000
0100
0000
0010
0000
0012
0000
,  // measure 60
0000
0000
1003
0000
0100
0000
2100
0000
0000
0000
3001
0100
0010
1000
0002
0000
,  // measure 61
0000
0000
0013
0100
1000
0001
0010
0100
1000
0000
0010
0000
0100
0000
0010
0000
,  // measure 62
0110
0000
1000
0000
0001
0000
1000
0010
1000
0000
0001
0010
0001
0000
1000
0000
,  // measure 63
0001
0010
0001
1000
0100
0000
0010
0001
1000
0000
0100
0000
1000
0001
0100
0000
,  // measure 64
0010
0000
1000
0000
1001
0000
0001
0010
0001
0000
0010
0100
0010
0000
0001
0000
,  // measure 65
1000
0100
0010
0001
1000
0001
0100
0010
1000
0001
1000
0100
0010
0001
1000
0000
,  // measure 66
0100
0000
0010
0000
0110
0000
0001
0010
0001
0000
0100
0010
0100
0000
0001
0100
,  // measure 67
0002
0000
1003
0100
0010
0001
1000
0000
0001
0000
0010
0000
1000
0000
2010
0000
,  // measure 68
0000
0000
3010
0000
0001
0000
0012
0000
0000
0000
1003
0010
0100
0010
0002
0000
,  // measure 69
0000
0000
1003
0100
0010
0100
0001
1000
0010
0000
0100
0000
0010
0000
1010
0000
,  // measure 70
0000
0001
0010
0100
1100
1000
0010
0100
,  // measure 71
1000
0000
0100
0000
0010
0000
0001
0000
0010
0000
1000
0000
0100
0010
0100
0010
,  // measure 72
0001
0000
0010
0000
0100
1000
0001
0010
0100
1000
0100
0010
0001
0000
2000
0000
,  // measure 73
0000
0000
3010
0100
0010
0000
1000
0000
0001
0010
0001
0010
0100
0000
0010
0000
,  // measure 74
0011
0001
0100
0010
1010
1000
0100
0010
,  // measure 75
1000
0000
0010
0000
0100
0000
0001
0000
0100
0000
1000
0000
0010
0100
0010
0100
,  // measure 76
0001
0000
0010
0000
0100
0010
0100
0000
1000
0100
0010
0001
1000
0000
0220
0000
,  // measure 77
0000
0330
1100
0000
0101
0000
0011
0000
,  // measure 78
0110
0100
0010
0100
2002
0000
3003
0000
;

//---------------dance-single - ----------------
#NOTES:
     dance-single:
     :
     Medium:
     13:
     0.661803,0.636312,0.502765,0.251383,0.000000,516.000000,460.000000,56.000000,28.000000,0.000000,0.000000,0.661803,0.636312,0.502765,0.251383,0.000000,516.000000,460.000000,56.000000,28.000000,0.000000,0.000000:
0000
0000
0000
0000
,
0000
0000
0000
0000
,
0000
0000
0000
0000
,
0000
0000
0000
0000
,
0000
0000
0000
0000
,
2000
3000
0001
0001
,
1000
0100
0010
0001
2000
0000
3010
0000
,
0100
0001
0010
0000
0100
1000
0010
0000
,
0100
0000
0010
0000
1002
0000
1003
0100
,
1100
0000
0001
0010
0011
0000
1000
0100
,
0010
0001
0100
0010
1000
0000
0002
0000
,
0013
1000
0010
0010
0001
1000
0010
0200
,
0000
0301
0010
0100
0010
0001
1000
0000
,
1010
0000
0001
0100
0101
0000
1000
0010
,
0100
0001
0010
0100
1000
0000
0001
0010
,
0100
1000
0100
0100
1000
0001
0100
0010
,
0000
0010
0100
0001
0010
0100
0010
0100
,
1000
1100
0001
0101
,
1000
0100
1000
0001
0010
0100
1000
0001
,
1000
1100
0010
0101
,
0001
0100
0001
0010
0100
0010
0001
0100
,
0010
0011
0100
1100
,
0001
0100
0010
1000
0100
0000
0100
1000
,
0000
0001
0100
0001
0010
0100
1000
0001
,
0000
1000
0100
1000
0001
0100
0010
1000
,
0001
0101
1000
1100
,
0001
0100
0001
1000
0010
0100
0001
1000
,
0001
0101
0010
1100
,
1000
0100
1000
0010
0100
0010
1000
0100
,
0010
1010
0100
0101
,
1000
0100
0010
0001
1000
0000
0001
0010
,
0100
1000
0100
0010
0100
1000
0001
2000
,
0000
3010
0100
0001
0100
0010
1000
0002
,
0000
0013
0100
1000
0100
0010
0001
1000
,
1100
1001
0011
0110
,
0001
0010
1000
0010
0001
0000
1000
0100
,
0110
1001
0101
1010
,
1000
0100
0001
0100
2000
0000
3001
0000
,
0101
1001
1010
0110
,
1000
0010
0001
0010
1000
0000
0001
0010
,
0000
0010
1000
0010
0001
1000
0100
0001
,
0100
1000
0001
0010
0200
0000
1300
0100
,
1100
0000
0001
0010
0011
0000
1000
0100
,
0010
0001
0100
0010
1000
0000
0002
0000
,
0013
1000
0010
0010
0001
1000
0010
0200
,
0000
0301
0010
0100
0010
0001
1000
0000
,
1010
0000
0001
0100
0101
0000
1000
0010
,
0100
0001
0010
0100
1000
0000
0001
0010
,
0100
1000
0100
0100
1000
0001
0100
0010
,
0000
0010
0100
0001
0010
0100
0010
0100
,
2000
3000
1100
0000
0010
0001
0101
0000
,
0002
0003
0020
0030
0100
0010
2200
3300
,
0022
0033
0001
0100
0010
1000
2020
3030
,
0200
1300
0200
0301
0010
0100
0220
0330
,
0001
0100
1000
0000
0101
0000
1010
0000
,
1000
0100
0001
0100
1000
0001
0010
0000
,
0100
1000
0001
0000
1001
0000
0110
0000
,
0001
0100
1000
0001
0010
1000
0001
0010
,
0100
0010
0011
1100
,
0001
0100
0001
1000
0010
1000
0100
0001
,
0000
0100
0010
0100
0000
1000
0010
1000
,
0000
0001
0010
1000
0001
0100
1000
0001
,
1000
0010
0001
0000
1010
0000
0101
0000
,
0001
0010
1000
0010
0001
1000
0100
0000
,
0010
0001
1000
0000
1001
0000
0110
0000
,
1000
0010
0001
1000
0100
0001
1000
0100
,
0010
0100
1100
0011
,
1000
0010
1000
0001
0100
0001
0010
1000
,
0000
0010
0100
0010
0000
0001
0100
0010
,
0000
1000
0100
0001
1000
0010
0001
1000
,
0000
0001
0010
0100
0010
0000
0001
0100
,
0010
1000
0100
0010
0001
0000
1000
0100
,
1000
0010
1000
0100
0010
0001
1000
0020
,
0000
0130
1000
0100
0010
1000
0100
0010
,
0001
0000
1000
0100
1100
0000
0001
0010
,
0100
1000
0010
0100
0001
0000
1000
0010
,
0100
0001
0010
0100
0001
0100
0010
0002
,
0000
0003
0101
0000
1010
0000
0110
0000
,
1000
0100
0010
0001
2002
0000
3003
0000
;

//---------------dance-single - ----------------
#NOTES:
     dance-single:
     :
     Easy:
     10:
     0.492505,0.600962,0.457875,0.197515,0.000000,384.000000,333.000000,51.000000,22.000000,0.000000,0.000000,0.492505,0.600962,0.457875,0.197515,0.000000,384.000000,333.000000,51.000000,22.000000,0.000000,0.000000:
0000
0000
0000
0000
,
0000
0000
0000
0000
,
0000
0000
0000
0000
,
0000
0000
0000
0000
,
0000
0000
0000
0000
,
0002
0003
1000
1000
,
0001
0010
2000
3010
,
0001
0010
1000
0100
,
0001
1000
0220
0330
,
1001
0100
1001
0010
,
0100
1000
0001
0002
,
1003
0000
1100
0000
0001
0000
0101
0010
,
0000
0100
0010
0000
1000
0000
0001
0000
,
0100
1001
0100
1001
,
0010
0100
1000
1000
,
0002
0000
0013
0000
0100
0000
1000
0001
,
0000
0000
0000
0000
,
1000
0100
1000
0000
1001
0000
0110
0000
,
0001
1000
0010
0000
0100
0000
0001
0000
,
0001
1000
0001
0000
1100
0000
0011
0000
,
0100
1000
0001
0000
0100
0001
1000
0000
,
0100
0010
0100
0000
0110
0000
1001
0000
,
0001
0100
0010
0000
1000
0000
0100
0010
,
0000
0100
0010
0000
0100
1000
0001
1000
,
0000
0000
0000
0000
,
0001
0100
0001
0000
1001
0000
0110
0000
,
1000
0001
0010
0000
0100
0000
1000
0000
,
1000
0001
1000
0000
0101
0000
1010
0000
,
0100
0001
1000
0000
0100
1000
0001
0000
,
0100
0010
0100
0000
0110
0000
1001
0000
,
1000
0100
0010
0000
0001
0000
0100
0010
,
1000
0000
0100
0010
0001
0000
0100
0010
,
0000
0100
0010
0000
1000
0000
0100
0020
,
0000
0000
0030
0000
,
0001
0001
0100
0001
,
1000
0100
1000
0000
0010
0000
0001
0000
,
0010
0010
0100
0010
,
1000
0001
1000
0000
0100
0010
0100
0000
,
1000
1000
0100
1000
,
0001
0100
0001
0000
1000
0000
0100
0010
,
0000
0100
0010
0000
0001
0100
0010
0000
,
1000
0001
0220
0330
,
1001
0100
1001
0010
,
0100
1000
0001
0002
,
1003
0000
1100
0000
0001
0000
0101
0010
,
0000
0100
0010
0000
1000
0000
0001
0000
,
0100
1001
0100
1001
,
0010
0100
1000
1000
,
0002
0000
0013
0000
0100
0000
1000
0001
,
0000
0020
0230
2300
,
3001
0000
0101
0000
0010
1000
1100
0000
,
0002
0013
2000
3100
,
0001
0000
0011
0000
0100
1000
1010
0000
,
2000
0100
3002
0010
0103
0010
2002
3003
,
1001
0100
1100
0101
,
0001
1000
0100
0000
0010
0000
0001
0000
,
0001
0100
0001
0000
1010
0000
0011
0000
,
0100
1000
0100
0000
0010
0001
0010
0000
,
0100
1000
0001
0000
1001
0000
0110
0000
,
0001
0000
0010
0000
0100
0000
1000
0001
,
0000
1000
0100
1000
0000
0010
0100
0010
,
0000
0100
0001
0000
0010
0000
0100
0000
,
1001
0010
1010
0011
,
0001
1000
0010
0000
0100
0000
0001
0000
,
0001
0010
0001
0000
1100
0000
0101
0000
,
0010
1000
0010
0000
0100
0001
0100
0000
,
0010
1000
0001
0000
1001
0000
0110
0000
,
0001
0000
0100
0000
0010
0000
1000
0100
,
0000
0001
0100
0001
0000
1000
0010
1000
,
0000
0010
0001
0000
1000
0000
0100
0010
,
0000
0100
1001
0010
,
0100
1000
0001
0001
,
1000
0000
1100
0000
0001
0000
0100
0010
,
0000
0100
0001
0000
0010
0000
0100
0000
,
1001
0010
1001
0100
,
0010
0001
1000
1000
,
0010
0000
0001
0000
0100
0000
1000
0001
,
0000
0100
1001
0100
,
0010
0100
0010
0000
2002
0000
3003
0000
;

//---------------dance-double - ----------------
#NOTES:
     dance-double:
     :
     Challenge:
     18:
     0.979879,0.989819,0.466853,0.421964,0.758637,764.000000,712.000000,52.000000,47.000000,0.000000,0.000000,0.979879,0.989819,0.466853,0.421964,0.758637,764.000000,712.000000,52.000000,47.000000,0.000000,0.000000:
00000000
00000000
00000000
00000000
,
00000000
00000000
00000000
00000000
,
00000000
00000000
00000000
00000000
,
00000000
00000000
00000000
00000000
,
00000000
00000000
00000000
00000000
,
00020000
00000000
00031000
00000010
00001000
00001000
00000010
00000001
,
00001000
00000100
00010000
00001000
00020000
00000000
01030000
10000000
,
00200000
00320000
00230000
02300000
03002000
00023000
00032000
00003020
,
00000130
00000000
00000010
00000000
00001002
00000000
00000103
00000010
,
00001010
00000010
00010000
00001000
00011000
00001000
00100000
00010000
,
10000000
00100000
00010000
00100000
10000000
01000000
00020000
00000000
,
00032000
00000000
00103000
00010000
00100000
00000000
00001000
00000000
00020000
00000000
00030010
00001000
00000010
00000000
00000200
00000000
,
00002300
00000000
00003100
00000010
00001000
00000000
00000100
00010000
00001000
00000000
00100000
00000000
00110000
00000000
00000000
00000000
,
11000000
01000000
10000000
00100000
01100000
00100000
10000000
01000000
,
00010000
00001000
00010000
01000000
00100000
00001000
00010000
00000010
,
00000100
00000010
00000100
00000000
00001000
00000000
00010000
00000000
00100000
01000000
00100000
00000000
10000000
00000000
00010000
00000000
,
00000000
00000000
10000000
01000000
00100000
00010000
00100000
00010000
00100000
01000000
00010000
00001000
00000010
00000100
00000010
00000001
,
00001000
00000000
00000001
00000000
00001001
00000000
00000001
00000010
00000001
00000000
00001000
00000100
00001000
00000000
00000001
00000000
,
00000100
00000010
00001000
00000010
00000100
00000000
00001000
00010000
00001000
00000000
00100000
00000000
00010000
00100000
01000000
00000000
,
10000000
00000000
00010000
00000000
10010000
00000000
00010000
00100000
00010000
00000000
10000000
01000000
10000000
00000000
00010000
00000000
,
01000000
00100000
10000000
01000000
00100000
00000000
01000000
10000000
00010000
00100000
01000000
00100000
00010000
00100000
00001000
00000000
,
00010000
00000000
00001000
00000000
00011000
00000000
00000010
00001000
00000010
00000000
00000100
00000001
00000100
00000000
00000010
00001000
,
00000001
00000000
00000010
00000100
00000010
00000000
00000100
00000000
00010000
00000000
00001000
00000000
00010000
00000000
00011000
00000000
,
00000000
00010000
01000000
10000000
10010000
00010000
00100000
10000000
,
00000000
00000000
00010000
00000000
01000000
00000000
10000000
00000000
00100000
00000000
01000000
00010000
01000000
00100000
10000000
00000000
,
00010000
00000000
10000000
00000000
10010000
00000000
10000000
01000000
10000000
00000000
00010000
00100000
00010000
00000000
10000000
00000000
,
00100000
01000000
00010000
01000000
00100000
00000000
00010000
00001000
00010000
00000000
00000100
00000000
00001000
00000100
00000010
00000000
,
00000001
00000000
00001000
00000000
00001001
00000000
00001000
00000100
00001000
00000000
00000001
00000010
00000001
00000000
00001000
00000000
,
00000010
00000100
00000001
00000010
00000100
00000000
00000010
00000001
00001000
00000100
00000010
00000100
00001000
00000100
00010000
00000000
,
00001000
00000000
00010000
00000000
00011000
00000000
01000000
00010000
01000000
00000000
00100000
10000000
00100000
00000000
01000000
00010000
,
10000000
00000000
01000000
00100000
01000000
00000000
00100000
00000000
00001000
00000000
00001000
00000000
00010000
00000000
00000010
00000000
,
00001010
00000000
00010000
00000000
00001000
00000000
00100000
00000000
00110000
00000000
00100000
00010000
00100000
00000000
02000000
00000000
,
00000000
00000000
13000000
00000000
00100000
00000000
00010000
00000000
00100000
00000000
01000000
00010000
01000000
00000000
00002000
00000000
,
00000000
00000000
00013000
00000000
00001000
00000000
00000010
00000000
00001000
00010000
00001000
00000000
00010000
00000000
00001000
00000000
,
00011000
00101000
00011000
00010020
,
00000130
00000001
00000010
00001000
00000010
00000001
00000100
00001000
,
00011000
00110000
11000000
02100000
,
13000000
00000000
00100000
00000000
00010000
00000000
00100000
00000000
01000000
00010000
01000000
00010000
01000000
00000000
00001000
00000000
,
00011000
00010010
00011000
00201000
,
01300000
10000000
00010000
00100000
01000000
10000000
00100000
00020000
,
00000000
00000000
00031000
00000010
00001000
00000000
00000010
00000001
00000010
00000000
00000100
00000000
00001000
00000000
00000001
00000000
,
00000010
00000000
00000010
00000000
00001000
00010000
00001000
00010000
00002000
00000000
00000000
00000000
00003100
00000000
00000010
00000000
,
00001010
00000010
00010000
00001000
00011000
00001000
00100000
00010000
,
10000000
00100000
00010000
00100000
10000000
01000000
00020000
00000000
,
00032000
00000000
00103000
00010000
00100000
00000000
00001000
00000000
00020000
00000000
00030010
00001000
00000010
00000000
00000200
00000000
,
00002300
00000000
00003100
00000010
00001000
00000000
00000100
00010000
00001000
00000000
00100000
00000000
00110000
00000000
00000000
00000000
,
11000000
01000000
10000000
00100000
01100000
00100000
10000000
01000000
,
00010000
00001000
00010000
01000000
00100000
00001000
00010000
00000010
,
00000100
00000010
00000100
00000000
00001000
00000000
00010000
00000000
00100000
01000000
00100000
00000000
10000000
00000000
00010000
00000000
,
00000000
00000000
10000000
01000000
00100000
00010000
00100000
00010000
00100000
01000000
00010000
00001000
00000020
00000000
00000230
00000000
,
00002300
00000000
00000000
00003001
00000100
00000001
00001000
00000010
00000100
00000001
00000010
00001000
00010000
00000000
00001000
00010000
,
00100000
00000000
00010000
00100000
10000000
00000000
10000000
01000000
00010000
00000000
01000000
00010000
00002000
00000000
00003000
00000000
,
00022000
00000000
00033000
00001000
00000100
00001000
00010000
00001000
00000100
00000010
00001000
00000100
00000020
00000000
00000031
00000100
,
00000010
00001000
00010000
01000000
00100000
10000000
01000000
00100000
01000000
00000000
00100000
00000000
20020000
00000000
30030000
00000000
,
01100000
00000000
00010000
00000000
10000000
00000000
01000000
00100000
01000000
00000000
10000000
01000000
10000000
00000000
00010000
00000000
,
01000000
00100000
01000000
00100000
00010000
00000000
00001000
00000100
00000010
00001000
00000010
00000000
00001000
00000100
00000010
00000000
,
00000100
00000000
00001000
00000001
00001000
00000000
00000010
00000100
00000010
00000000
00000100
00000001
00000100
00000000
00000001
00000000
,
00000010
00000100
00000010
00000001
00000010
00000100
00001000
00000010
00000100
00000010
00001000
00000010
00000100
00001000
00010000
00000000
,
00001000
00000000
00010000
00000000
00011000
00000000
00001000
00100000
00010000
00000000
00100000
00010000
10000000
00000000
01000000
10000000
,
00010000
00000000
01000000
00100000
10000000
00010000
10000000
00000000
01000000
00000000
00100000
00000000
00010000
00000000
00012000
00000000
,
00000000
00000000
00013000
00000000
00100000
00000000
02100000
00000000
00000000
00000000
03010000
00001000
00010000
00001000
00000020
00000000
,
00000000
00000000
00000031
00001000
00000100
00001000
00000010
00000100
00000010
00000000
00000100
00000000
00000001
00000000
00000010
00000000
,
00000110
00000000
00001000
00000000
00000001
00000000
00000010
00000100
00000010
00000000
00000001
00000010
00000001
00000000
00001000
00000000
,
00000010
00000100
00000010
00000100
00001000
00000000
00010000
00100000
01000000
00010000
01000000
00000000
00010000
00100000
01000000
00000000
,
00100000
00000000
00010000
10000000
00010000
00000000
01000000
00100000
01000000
00000000
00100000
10000000
00100000
00000000
10000000
00000000
,
01000000
00100000
01000000
10000000
01000000
00100000
00010000
01000000
00100000
01000000
00010000
01000000
00100000
00010000
00001000
00000000
,
00010000
00000000
00001000
00000000
00011000
00000000
00010000
00000100
00001000
00000000
00000100
00001000
00000001
00000000
00000010
00000001
,
00001000
00000000
00000010
00000100
00000001
00001000
00000001
00000000
00000010
00000000
00000100
00000000
00001000
00000000
00021000
00000000
,
00000000
00000000
00031000
00000100
00000010
00000100
00000020
00000000
00000000
00000000
00001030
00010000
00001000
00010000
00200000
00000000
,
00000000
00000000
01300000
00010000
10000000
00100000
01000000
00010000
00100000
00000000
01000000
00000000
00100000
00000000
10010000
00000000
,
00000000
00100000
01000000
00100000
01100000
00010000
01000000
00010000
,
10000000
00000000
00100000
00000000
00010000
00000000
00100000
00000000
10000000
00000000
01000000
00000000
00010000
00001000
00010000
00001000
,
00010000
00000000
00000010
00000000
00000100
00000001
00001000
00000010
00001000
00000001
00000010
00000100
00000010
00000001
00002000
00000000
,
00000000
00000000
00003010
00000100
00000001
00000100
00000001
00001000
00000010
00001000
00000100
00010000
00001000
00100000
00010000
01000000
,
00100000
10000000
00100000
10000000
00100000
00010000
00100000
00010000
,
00100000
00000000
10000000
00000000
00100000
00000000
00010000
00000000
00001000
00000000
00000100
00000000
00000001
00000010
00001000
00000010
,
00000001
00001000
00000100
00000001
00000100
00001000
00000010
00000100
00000001
00000010
00001000
00010000
00100000
10000000
00020000
00000000
,
00000000
00030000
00110000
00000000
11000000
00000000
01010000
00000000
,
00011000
00011000
00001100
00001001
00000220
00000000
00000330
00000000
;

//---------------dance-double - ----------------
#NOTES:
     dance-double:
     :
     Hard:
     17:
     0.893947,0.989819,0.556633,0.305250,0.547655,697.000000,635.000000,62.000000,34.000000,0.000000,0.000000,0.893947,0.989819,0.556633,0.305250,0.547655,697.000000,635.000000,62.000000,34.000000,0.000000,0.000000:
00000000
00000000
00000000
00000000
,
00000000
00000000
00000000
00000000
,
00000000
00000000
00000000
00000000
,
00000000
00000000
00000000
00000000
,
00000000
00000000
00000000
00000000
,
00200000
00000000
00300000
00010000
01000000
00100000
01000000
00001000
,
00010000
00001000
00100000
00010000
20000000
00000000
30100000
00010000
,
00001000
00000010
00000001
00000010
00001000
00010000
00001000
00000100
,
00000010
00000000
00000100
00000000
00001002
00000000
00001003
00000010
,
00000110
00000000
00000001
00000010
00001010
00000000
00001000
00010000
,
00001000
00100000
00001000
00010000
00001000
01000000
00200000
00000000
,
10300000
01000000
00010000
00010000
00001000
00000100
00000001
00000020
,
00000000
00001030
00010000
00001000
00010000
01000000
10000000
00000000
,
01100000
00000000
10000000
00100000
00110000
00000000
00010000
00001000
,
00010000
00000010
00010000
00001000
00010000
00000100
00000010
00000001
,
00000010
00000100
00010000
00001000
00100000
00010000
01000000
00100000
,
00000000
00000000
01000000
00010000
01000000
00000000
00010000
00000000
10000000
01000000
00100000
00010000
00100000
01000000
10000000
00000000
,
00010000
10000000
11000000
00000000
01100000
00000000
00110000
00000000
,
00001000
00100000
00010000
00100000
00001000
00000000
00001000
00010000
00000010
00000000
00001000
00000000
00000001
00000100
00000001
00000000
,
00001000
00000001
00000011
00000000
00000110
00000000
00001100
00000000
,
00000100
00010000
00001000
00010000
00000100
00000000
00010000
00001000
00010000
00001000
00100000
00010000
10000000
00000000
00100000
00000000
,
01000000
00100000
10100000
00000000
01010000
00000000
00011000
00000000
,
00001000
00000000
00100000
00010000
00100000
00000000
00001000
00000000
00010000
00000000
00001000
00000000
00000100
00000000
00000110
00000000
,
00000000
00000010
00000100
00000001
00000011
00000010
00001000
00010000
,
00000000
00000000
00010000
00000000
00001000
00000000
00010000
00000000
01000000
00000000
00100000
00010000
00100000
00010000
10000000
00000000
,
01000000
10000000
10100000
00000000
01100000
00000000
01010000
00000000
,
00001000
01000000
00010000
01000000
00001000
00000000
00001000
00010000
00000100
00000000
00001000
00000000
00000001
00000010
00000001
00000000
,
00001000
00000001
00000101
00000000
00000110
00000000
00001010
00000000
,
00000010
00010000
00001000
00010000
00000010
00000000
00010000
00001000
00010000
00001000
01000000
00010000
10000000
00000000
01000000
00000000
,
00100000
01000000
11000000
00000000
00110000
00000000
00011000
00000000
,
00001000
00000000
01000000
00010000
01000000
00000000
00001000
00000000
00010000
00000000
00001000
00000000
00000010
00000000
00000100
00000000
,
00000110
00000000
00000100
00000000
00001000
00000000
00000001
00000000
00001001
00000000
00000001
00001000
00000010
00000000
00000200
00000000
,
00000000
00000000
00000310
00000000
00010000
00000000
00001000
00000000
00100000
00000000
01000000
10000000
01000000
00000000
00200000
00000000
,
00000000
00000000
01300000
00000000
10000000
00000000
00010000
00000000
01000000
00100000
01000000
00000000
00100000
00000000
00010000
00000000
,
00011000
00010010
00011000
00101000
,
00010000
00100000
00001000
00010000
00000010
00001000
00000100
00000010
,
00000011
00001100
00011000
00001010
,
00000001
00000000
00000010
00000000
00001000
00000000
00010000
00000000
02000000
00000000
03100000
01000000
00100000
00000000
00001000
00000000
,
00011000
00101000
00011000
00010010
,
00001000
00000010
00010000
00001000
00100000
00010000
10000000
12000000
,
00000000
00000000
03100000
00010000
00100000
00000000
01000000
00010000
01000000
00000000
00010000
00000000
00001000
00000000
00000100
00000000
,
00000001
00000000
00000010
00000000
00000100
00000010
00000001
00000100
00000020
00000000
00000000
00000000
00001030
00000000
00000010
00000000
,
00000110
00000000
00000001
00000010
00001010
00000000
00001000
00010000
,
00001000
00100000
00001000
00010000
00001000
01000000
00200000
00000000
,
10300000
01000000
00010000
00010000
00001000
00000100
00000001
00000020
,
00000000
00001030
00010000
00001000
00010000
01000000
10000000
00000000
,
01100000
00000000
10000000
00100000
00110000
00000000
00010000
00001000
,
00010000
00000010
00010000
00001000
00010000
00000100
00000010
00000001
,
00000010
00000100
00010000
00001000
00100000
00010000
01000000
00100000
,
00000000
00000000
10000000
01000000
10000000
00000000
00010000
00000000
00100000
01000000
00100000
01000000
00100000
00000000
00010000
00000000
,
20000000
00000000
30000000
00100000
01000000
00100000
01000000
00010000
00100000
00010000
00100000
00001000
00010000
00000000
00000010
00001000
,
00000001
00000000
00000010
00000100
00001000
00000000
00000010
00000100
00001000
00000000
01000000
00010000
00200000
00000000
00300000
00000000
,
02200000
00000000
03300000
00010000
10000000
01000000
10000000
00100000
01000000
00010000
00100000
01000000
00020000
00000000
00031000
00010000
,
00000010
00001000
00000010
00010000
00001000
00000010
00000001
00000010
00000100
00000000
00000010
00000000
00002002
00000000
00003003
00000000
,
00001001
00000000
00000001
00000000
00000100
00000000
00000010
00001000
00000010
00000000
00010000
00001000
00010000
00000000
00000100
00000000
,
00001000
00000100
00000010
00000100
00001000
00000000
00000010
00000100
00001000
00010000
00001000
00000000
00010000
00100000
10000000
00000000
,
00010000
00000000
00100000
00000000
01100000
00000000
10000000
01000000
10000000
00000000
00010000
00100000
00010000
00000000
10000000
00000000
,
00100000
01000000
00010000
01000000
00100000
00000000
10000000
01000000
00100000
01000000
10000000
01000000
00010000
00000000
00001000
00000000
,
00010000
00000000
00000010
00000000
00001010
00000000
00000010
00000100
00000001
00000000
00000100
00000010
00001000
00000000
00000100
00000010
,
00000002
00000000
00000013
00000100
00001000
00000100
00001000
00000000
00000010
00001000
00000010
00000000
00010000
00000000
00012000
00000000
,
00000000
00000000
00103000
00000000
00010000
00000000
20000000
00000000
00000000
00000000
31000000
00100000
01000000
00100000
00020000
00000000
,
00000000
00000000
10030000
00100000
01000000
00010000
00100000
01000000
00100000
00000000
01000000
00000000
10000000
00000000
00010000
00000000
,
10010000
00000000
10000000
00000000
00100000
00000000
01000000
00010000
01000000
00000000
00001000
00010000
00001000
00000000
00100000
00000000
,
00010000
00100000
01000000
00100000
00010000
00000000
01000000
00100000
00010000
00001000
00010000
00000000
00001000
00000100
00000001
00000000
,
00001000
00000000
00000100
00000000
00000110
00000000
00000001
00000010
00000001
00000000
00001000
00000100
00001000
00000000
00000001
00000000
,
00000100
00000010
00001000
00000010
00000100
00000000
00000001
00000010
00000100
00000010
00000001
00000010
00001000
00000000
00010000
00000000
,
00001000
00000000
01000000
00000000
01010000
00000000
01000000
00100000
10000000
00000000
00100000
01000000
00010000
00000000
00100000
01000000
,
20000000
00000000
31000000
00100000
00010000
00100000
00010000
00000000
10000000
00100000
10000000
00000000
00100000
00000000
02100000
00000000
,
00000000
00000000
03010000
01000000
00001000
00010000
00000200
00000000
00000000
00000000
00010300
00001000
00100000
00010000
02000000
00000000
,
00000000
00000000
03100000
00010000
00001000
00010000
00001000
00010000
00001000
00000000
00000100
00000000
00000010
00000000
00002020
00000000
,
00003030
00000001
00000010
00001000
00010000
00000000
00001000
00010000
,
00001000
00000000
00100000
00000000
00001000
00000000
00010000
00000000
00001000
00000000
01000000
00000000
00010000
00100000
01000000
00100000
,
00010000
00000000
10000000
00000000
00100000
10000000
00100000
00000000
01000000
00010000
00100000
01000000
10000000
00010000
00200000
00000000
,
00000000
00000000
01300000
10000000
00010000
00000000
00100000
00000000
00001000
00010000
00000010
00001000
00000010
00000000
00000100
00000000
,
00000110
00000001
00000010
00000001
00000010
00001000
00000010
00001000
,
00010000
00000000
00001000
00000000
00010000
00000000
00100000
00000000
10000000
00000000
01000000
00000000
10000000
00010000
10000000
00000000
,
00100000
01000000
00100000
00000000
01000000
00010000
01000000
00000000
00001000
00010000
00001000
00100000
00010000
00000000
00220000
00000000
,
00000000
00330000
00011000
00000000
00001010
00000000
00000101
00000000
,
00001100
00000100
00000001
00000010
00002020
00000000
00003030
00000000
;

//---------------dance-double - ----------------
#NOTES:
     dance-double:
     :
     Medium:
     13:
     0.648978,0.600962,0.466853,0.305250,0.000000,506.000000,454.000000,52.000000,34.000000,0.000000,0.000000,0.648978,0.600962,0.466853,0.305250,0.000000,506.000000,454.000000,52.000000,34.000000,0.000000,0.000000:
00000000
00000000
00000000
00000000
,
00000000
00000000
00000000
00000000
,
00000000
00000000
00000000
00000000
,
00000000
00000000
00000000
00000000
,
00000000
00000000
00000000
00000000
,
00200000
00300000
00010000
00010000
,
01000000
00100000
10000000
00100000
02000000
00000000
03010000
00000000
,
00100000
01000000
00100000
00000000
00001000
00010000
00001000
00000000
,
00000100
00000000
00000010
00000000
00001002
00000000
00000103
00000010
,
00001000
00000000
00001000
00000100
00000010
00000000
00000010
00001000
,
00000010
00000001
00001000
00000100
00010000
00000000
00002000
00000000
,
00013000
00100000
00010000
00100000
10000000
01000000
00010000
00002000
,
00000000
00013000
00001000
00000100
00000010
00000001
00000010
00000000
,
00001001
00000000
00000001
00000010
00001000
00000000
00001000
00010000
,
00001000
00100000
00010000
10000000
01000000
00000000
10000000
00100000
,
00010000
00100000
01000000
00010000
00100000
01000000
00010000
00001000
,
00000000
00010000
00001000
00000100
00000010
00000100
00000010
00000100
,
00000001
00000101
00001000
00001100
,
00000100
00010000
00001000
00100000
00010000
01000000
00001000
00010000
,
00001000
00101000
00010000
11000000
,
00010000
10000000
01000000
10000000
00010000
01000000
00100000
00010000
,
00001000
00001010
00000001
00000011
,
00000100
00000001
00000100
00000010
00001000
00010000
00001000
00010000
,
00000000
01000000
10000000
01000000
00010000
10000000
00100000
00010000
,
00000000
00000000
00000000
00000000
,
10000000
11000000
00010000
01010000
,
01000000
00001000
00010000
00000010
00001000
00000100
00010000
00001000
,
00010000
00010010
00001000
00000101
,
00001000
00000001
00000100
00000001
00001000
00000100
00000010
00001000
,
00010000
00110000
10000000
10100000
,
01000000
10000000
01000000
00100000
00010000
00001000
00010000
00001000
,
00000100
00000010
00000001
00000010
00000100
00001000
00010000
00200000
,
00000000
10300000
01000000
00010000
01000000
00100000
00001000
00020000
,
00000000
00030100
00010000
00001000
00000100
00000001
00000100
00000010
,
00001010
00011000
00110000
01100000
,
10000000
01000000
00010000
00001000
00010000
00000000
01000000
00100000
,
00110000
00011000
00001010
00000110
,
00000001
00000100
00001000
00010000
00002000
00000000
00013000
00000000
,
00110000
01100000
11000000
10010000
,
10000000
00100000
00010000
10000000
00010000
00100000
10000000
00020000
,
00000000
01030000
00100000
01000000
00001000
00010000
00001000
00100000
,
01000000
00100000
00001000
00010000
00002000
00000000
00003100
00000010
,
00001000
00000000
00001000
00000100
00000010
00000000
00000010
00001000
,
00000010
00000001
00001000
00000100
00010000
00000000
00002000
00000000
,
00013000
00100000
00010000
00100000
10000000
01000000
00010000
00002000
,
00000000
00013000
00001000
00000100
00000010
00000001
00000010
00000000
,
00001001
00000000
00000001
00000010
00001000
00000000
00001000
00010000
,
00001000
00100000
00010000
10000000
01000000
00000000
10000000
00100000
,
00010000
00100000
01000000
00010000
00100000
01000000
00010000
00001000
,
00000000
00010000
00001000
00000100
00000010
00000100
00000010
00000100
,
00000020
00000030
00001001
00000000
00010000
00001000
10010000
00000000
,
20000000
30000000
00200000
00300000
00010000
00010000
02200000
03300000
,
20020000
30030000
10000000
01000000
00010000
00001000
00000200
00000300
,
00000020
00001000
00020030
00001000
00030100
00000010
00000220
00000330
,
00001001
00000001
00000101
00001001
,
00001000
00000100
00010000
00000010
00001000
00000100
00010000
01000000
,
00100000
10100000
00100000
00110000
,
00100000
01000000
10000000
00100000
00010000
00001000
00010000
00001000
,
00100000
00110000
01000000
10010000
,
00010000
01000000
10000000
01000000
00001000
00010000
00000010
00020000
,
00000000
00031000
00000010
00000002
00000000
00000013
00001000
00020000
,
00000000
01030000
00010000
00001000
00000100
00001000
00010000
00100000
,
10010000
10000000
11000000
10010000
,
00010000
01000000
00001000
00100000
00010000
01000000
00001000
00000100
,
00000010
00000011
00000010
00001010
,
00000010
00000100
00000001
00000010
00001000
00010000
00001000
00010000
,
00000010
00001010
00000100
00001001
,
00001000
00000100
00000001
00000100
00010000
00001000
00100000
00002000
,
00000000
00013000
00100000
20000000
00000000
31000000
00010000
00002000
,
00000000
00003100
00000001
00000010
00001000
00000010
00000001
00001001
,
00000000
00000001
00000100
00000010
00001000
00000000
00010000
00100000
,
01000000
10000000
01000000
00100000
00010000
00000000
10000000
01000000
,
10000000
00100000
10000000
01000000
00010000
00001000
00000100
00000002
,
00000000
00000013
00000100
00000010
00000001
00000100
00001000
00010000
,
00011000
00000000
00010000
01000000
00100000
00000000
00100000
01000000
,
00010000
00001000
00000100
00000010
00000100
00000000
00000001
00000010
,
00001000
00010000
00001000
00000010
00000001
00000100
00001000
00020000
,
00000000
00030000
00110000
00000000
10100000
00000000
11000000
00000000
,
01000000
00010000
00001000
00000010
00000022
00000000
00000033
00000000
;

//---------------dance-double - ----------------
#NOTES:
     dance-double:
     :
     Easy:
     10:
     0.496352,0.600962,0.502765,0.260361,0.000000,387.000000,331.000000,56.000000,29.000000,0.000000,0.000000,0.496352,0.600962,0.502765,0.260361,0.000000,387.000000,331.000000,56.000000,29.000000,0.000000,0.000000:
00000000
00000000
00000000
00000000
,
00000000
00000000
00000000
00000000
,
00000000
00000000
00000000
00000000
,
00000000
00000000
00000000
00000000
,
00000000
00000000
00000000
00000000
,
20000000
30000000
00010000
00010000
,
10000000
01000000
00020000
00030000
,
00001000
00001000
00000100
00000100
,
00000001
00000010
00000220
00000330
,
00001001
00000100
00011000
00000010
,
00010000
00001000
00100000
00100000
,
00010000
00000000
11000000
00000000
00010000
00000000
01000000
00100000
,
00000000
01000000
00100000
00000000
10000000
00000000
10000000
00000000
,
11000000
00010000
00011000
00100000
,
00001000
00000100
00000001
00001000
,
00000001
00000000
00000001
00000000
00000010
00000000
00000100
00000010
,
00000000
00000000
00000000
00000000
,
00001000
00001000
00001100
00011000
,
00010000
01000000
00010000
00000000
01000000
10000000
00010000
00000000
,
00100000
00100000
10100000
00110000
,
10000000
01000000
00100000
00000000
00010000
01000000
00001000
00000000
,
00010000
00010000
00110000
00011000
,
00001000
00000100
00001000
00000000
00000101
00000000
00001000
00000010
,
00000000
00000100
00000010
00000000
00010000
00001000
00100000
00001000
,
00000000
00000000
00000000
00000000
,
00010000
00010000
01010000
00011000
,
00001000
00000100
00001000
00000000
00000100
00000001
00001000
00000000
,
00000010
00000010
00000011
00001010
,
00000001
00000100
00000010
00000000
00001000
00000100
00010000
00000000
,
00001000
00001000
00001010
00011000
,
00010000
01000000
00010000
00000000
11000000
00000000
00010000
00100000
,
01000000
00000000
00100000
00001000
00010000
00000000
00000010
00010000
,
00000000
00001000
00010000
00000000
00000100
00000000
00000010
00000002
,
00000000
00000000
00000003
00000000
,
00000010
00001100
00010000
00001010
,
00010000
00001000
00010000
00000000
00001000
00000000
00001000
00000000
,
00100000
01010000
00001000
00110000
,
00001000
00010000
00001000
00010000
00000020
00000000
00000030
00000000
,
00000100
00001010
00010000
00001100
,
00010000
00001000
00010000
00000000
00002000
00000000
00103000
00010000
,
00000000
00100000
00010000
00000000
10000000
01000000
00010000
00000000
,
00001000
00000100
00000001
00000000
00000220
00000000
00000330
00000000
,
00001001
00000100
00011000
00000010
,
00010000
00001000
00100000
00100000
,
00010000
00000000
11000000
00000000
00010000
00000000
01000000
00100000
,
00000000
01000000
00100000
00000000
10000000
00000000
10000000
00000000
,
11000000
00010000
00011000
00100000
,
00001000
00000100
00000001
00001000
,
00000001
00000000
00000001
00000000
00000010
00000000
00000100
00000010
,
00000000
00002000
00023000
00032000
,
00023000
00030000
01100000
00000000
10000000
00010000
20020000
30030000
,
00200000
00300000
00020000
00030000
00002000
00003000
00000020
00000030
,
00000200
00000300
00001001
00000000
00000001
00000100
00002200
00003300
,
00002000
00013000
00200000
00310000
00001000
00010000
00022000
00033000
,
00011000
00000010
00001010
00011000
,
00010000
00001000
00100000
00000000
00010000
01000000
00100000
00000000
,
10000000
01000000
10010000
01010000
,
00100000
00010000
00001000
00000000
00010000
00001000
00000100
00000000
,
00000010
00000100
00001001
00000010
,
00001000
00000000
00000100
00000000
00000010
00000001
00000010
00000001
,
00000000
00000100
00001000
00000100
00000000
00000010
00010000
00000010
,
00000000
00010000
00001000
00000000
00100000
01000000
00010000
00000000
,
00011000
00100000
00110000
00011000
,
00001000
00010000
00000010
00000000
00001000
00000100
00000010
00000000
,
00000001
00000100
00001001
00001100
,
00000010
00001000
00010000
00000000
00001000
00010000
01000000
00000000
,
00100000
01000000
10010000
00100000
,
00010000
00000000
01000000
00000000
00100000
10000000
01000000
10000000
,
00000000
00010000
00100000
01000000
00000000
00010000
00001000
00010000
,
00000000
00000010
00001000
00000000
00000001
00000010
00000100
00000010
,
00000000
00000100
00001001
00000010
,
00000001
00000100
00000001
00000000
00000100
00000000
00001000
00000000
,
00010000
00000000
00010000
00000000
01000000
00000000
10000000
00010000
,
00000000
00100000
01000000
00000000
00100000
00000000
00100000
00000000
,
10010000
01000000
00011000
00100000
,
00001000
00010000
00000010
00000010
,
00001000
00000000
00000101
00000000
00001000
00000000
00000100
00000020
,
00000000
00000030
00000110
00000000
00000100
00000000
00001001
00000000
,
00000100
00001000
00010000
00000000
02200000
00000000
03300000
00000000
;
