#TITLE:TSUNAMI;
#SUBTITLE:;
#ARTIST:Finana Ryugu;
#TITLETRANSLIT:;
#SUBTITLETRANSLIT:;
#ARTISTTRANSLIT:;
#GENRE:にじさんじ;
#CREDIT:;
#BANNER:TSUNAMI.png;
#BACKGROUND:../bg.png;
#LYRICSPATH:;
#CDTITLE:../cdtitle.png;
#MUSIC:TSUNAMI.ogg;
#OFFSET:-0.047000;
#SAMPLESTART:60.969002;
#SAMPLELENGTH:15.000000;
#SELECTABLE:YES;
#BPMS:0.000000=130.000000
;
#STOPS:
;
#BGCHANGES:0.000=TSUNAMI.avi=1.000=0=0=0=StretchNoLoop====,
99999=-nosongbg-=1.000=0=0=0 // don't automatically add -songbackground-
;
#KEYSOUNDS:;
#ATTACKS:;

//---------------dance-single - ----------------
#NOTES:
     dance-single:
     :
     Hard:
     10:
     0.310759,0.420463,0.240890,0.364985,0.222641,298.000000,265.000000,33.000000,50.000000,0.000000,0.000000,0.310759,0.420463,0.240890,0.364985,0.222641,298.000000,265.000000,33.000000,50.000000,0.000000,0.000000:
0000
0000
0000
0000
,
0000
0000
0000
0000
,
0000
0000
0000
0000
,
0000
0000
0000
0000
,
0000
0000
0000
0000
,
0000
0000
0000
0000
,
0000
0000
0000
0000
,
0000
0000
0000
0000
,
0000
0000
0000
0000
,
0001
0000
1000
0100
0000
0000
0001
0000
1000
0100
0000
0000
,
0001
0000
0100
0001
0000
1000
0010
0000
0000
0100
0000
0100
,
0010
0000
1000
0100
0000
0000
0010
0000
0000
0010
0000
0000
,
0100
0000
1000
0100
0000
0000
1001
0000
0000
0000
0000
0000
,
0001
0000
0100
0001
0000
0000
1000
0000
0100
1000
0000
0000
,
0001
0000
1000
0100
0000
1000
0010
0000
0000
0000
0000
0000
,
1000
0000
1000
0001
0000
0000
0100
0000
0000
0001
0000
0010
,
0100
0010
0200
0300
,
1000
1100
0001
0101
,
0020
2030
3002
0203
,
0310
1010
0001
0101
,
0002
0023
0230
2300
,
3001
0011
1000
1010
,
0200
0320
2030
3100
,
0011
0000
1100
0000
,
2000
3020
0032
0103
,
1000
0000
0000
0110
0000
0000
1000
0000
0010
1000
0000
0000
,
0001
0000
0100
0010
0000
1000
0001
0000
0010
0100
0000
0010
,
0001
0101
0010
1010
,
0001
0000
0100
0001
0000
0001
1000
0000
0100
1000
0000
1000
,
0001
0000
0000
1001
0000
0000
0010
0000
0001
0100
0000
0000
,
0010
0000
0100
0010
0000
0100
0010
0000
0000
0100
0000
0000
,
0001
1010
0100
0011
,
0000
0100
0200
0300
,
1000
0000
0100
0000
0010
0000
0001
0000
0100
0000
0010
0000
,
1000
0000
0100
0000
1000
0000
2000
0000
0000
3001
0000
0000
,
1000
0000
0010
0000
0100
0000
0001
0000
0010
0000
0100
0000
,
1000
1001
0220
0330
,
0001
0000
0010
0000
0100
0000
0010
0000
0001
0000
0100
0000
,
0010
0000
1000
0000
0100
0000
2000
0000
0000
3001
0000
0000
,
0010
1010
0010
0011
,
0100
0000
0000
0000
,
2000
0000
0000
0000
,
3002
0000
0000
0000
,
0203
0000
0000
0000
,
0320
0000
0030
0000
,
0002
0000
0000
0000
,
2003
0000
0000
0000
,
3200
0000
0000
0000
,
0020
0000
0330
0000
,
0001
1100
0010
1100
,
0001
0110
1000
0002
,
1003
2000
3100
0200
,
0320
0000
0000
0031
0000
1000
0001
0000
0000
0101
0000
0000
,
0010
1010
0010
0011
,
0100
1100
0100
0020
,
0031
0000
0000
0002
0000
0000
1003
0000
0000
0100
0000
0010
,
0001
0000
0000
0000
,
2100
0100
0100
0100
,
3002
0000
0000
0203
0000
0000
0320
0000
0000
1030
0000
1000
,
0002
0100
1000
1000
,
0023
0000
0000
0031
0000
0001
1000
0000
0100
0010
0000
0001
,
2000
0001
0100
0100
,
3001
0000
0010
0001
0000
0010
0001
0000
0100
0010
0000
1000
,
0001
0020
0100
0031
,
1100
0000
0000
0000
,
0010
0101
0010
1100
,
0001
0000
0000
0100
0000
0010
1000
0000
0001
0100
0000
0100
,
0010
0000
1000
0002
0000
0000
0023
0000
0000
0230
0000
0000
,
0310
0000
0000
0100
0000
1000
0001
0000
0000
1001
0000
0000
,
0002
0203
0320
2030
,
3002
0000
0000
0013
0000
1000
0010
0000
0010
0001
0000
1000
,
0100
0000
0000
1010
0000
0001
0100
0000
0000
0011
0000
1000
,
0001
0000
0000
0000
;

//---------------dance-single - ----------------
#NOTES:
     dance-single:
     :
     Medium:
     7:
     0.237762,0.341626,0.145994,0.408783,0.018249,228.000000,208.000000,20.000000,56.000000,0.000000,0.000000,0.237762,0.341626,0.145994,0.408783,0.018249,228.000000,208.000000,20.000000,56.000000,0.000000,0.000000:
0000
0000
0000
0000
,
0000
0000
0000
0000
,
0000
0000
0000
0000
,
0000
0000
0000
0000
,
0000
0000
0000
0000
,
0000
0000
0000
0000
,
0000
0000
0000
0000
,
0000
0000
0000
0000
,
0000
0000
0000
0000
,
1000
1000
0100
0100
,
1000
0001
0100
0000
,
0010
0010
0100
0100
,
0010
0100
1001
0000
,
0001
0101
0002
0003
,
1000
1100
1000
0000
,
0001
1000
0001
0001
,
1000
0000
0000
0000
,
0020
0130
0200
0310
,
2000
3002
0203
0320
,
2030
3001
0002
1003
,
0020
0230
0302
2003
,
3002
0013
0020
0130
,
0020
0032
0203
0310
,
1010
0000
0101
0000
,
0200
2300
3020
0032
,
0103
0000
0000
0110
0000
0000
0001
0000
0010
0001
0000
0000
,
1000
0100
0010
0001
,
1000
1100
0001
0101
,
0010
0000
0100
0010
0000
0000
1000
0000
0000
0001
0000
0000
,
0010
0000
0000
0110
0000
0000
1000
0000
0100
1000
0000
0000
,
0010
0000
0100
0010
0000
0000
0100
0000
0000
0001
0000
0000
,
0100
1010
0100
0011
,
2000
0000
0000
3000
,
0001
0001
1000
1000
,
0001
1000
0002
0003
,
1000
1000
0001
0001
,
0010
0100
2002
3003
,
0010
0010
0100
0100
,
0010
0100
0020
0030
,
0100
1001
0010
0110
,
0001
0000
0000
0000
,
2000
0000
0000
0000
,
3200
0000
0000
0000
,
0320
0000
0000
0000
,
0032
0000
0003
0000
,
0002
0000
0000
0000
,
0203
0000
0000
0000
,
0320
0000
0000
0000
,
2030
0000
3000
0000
,
0001
0001
1000
1000
,
0001
1000
0001
2000
,
3100
0200
0310
0020
,
0032
0203
0020
0330
,
0100
0100
0010
0010
,
0100
0010
0100
0020
,
1030
2000
3001
0002
,
1003
0000
0000
0000
,
0200
0010
0010
0010
,
1000
1000
0001
1300
,
0020
0100
0100
0100
,
1000
1000
0001
1030
,
0002
0010
1000
1000
,
0010
0010
0100
0010
,
2003
0001
0100
3001
,
0110
0000
0000
0000
,
0002
0203
2300
3020
,
0031
1000
0010
0110
,
0001
0000
0100
0001
0000
0000
0010
0000
0000
0100
0000
0000
,
1000
0001
1001
0000
,
0002
0023
2030
3200
,
0301
1000
0100
0010
,
1100
0010
0101
0010
,
1001
0000
0000
0000
;

//---------------dance-single - ----------------
#NOTES:
     dance-single:
     :
     Challenge:
     12:
     0.398355,0.499299,0.284688,0.233590,0.467181,382.000000,343.000000,39.000000,32.000000,0.000000,0.000000,0.398355,0.499299,0.284688,0.233590,0.467181,382.000000,343.000000,39.000000,32.000000,0.000000,0.000000:
0000
0000
0000
0000
,
0000
0000
0000
0000
,
0000
0000
0000
0000
,
0000
0000
0000
0000
,
0000
0000
0000
0000
,
0000
0000
0000
0000
,
0000
0000
0000
0000
,
0000
0000
0000
0000
,
0000
0000
0000
0000
,
0001
0000
0100
0001
0000
0001
1000
0000
0100
1000
0000
1000
,
0001
0000
0100
1000
0000
0100
0001
0000
0000
0101
0000
0100
,
0010
0000
0010
1000
0000
1000
0001
0000
0100
0001
0000
0010
,
0100
0000
1000
0001
0000
0000
2002
0000
0000
3003
0000
0000
,
0001
0000
0010
0001
0000
0001
1000
0000
0010
1000
0000
0010
,
0100
0000
0010
0100
0000
0001
1000
0000
0000
1001
0000
0000
,
0001
0000
0100
0010
0000
0000
0110
0000
0000
1000
0000
0001
,
2000
0001
0200
3300
,
0001
0000
0000
0011
0000
0000
0001
0000
1000
0010
0000
0010
,
0100
0000
0001
1000
0000
0100
0001
0000
0001
0100
0000
0100
,
1000
0000
0000
1100
0000
0000
0001
0000
1000
0001
0000
0100
,
0010
0000
0010
1000
0000
0001
1000
0000
1000
0100
0000
0010
,
0100
0000
0000
0110
0000
0010
0001
0000
0001
1000
0000
0010
,
1000
0000
0001
0100
0000
0010
1000
0000
0100
0010
0000
0010
,
0011
0000
1100
0000
,
0100
0001
0100
0001
0010
0001
0010
1000
0010
2000
0000
0000
,
3100
0000
0000
0110
0000
0000
0001
0000
0010
0100
0000
1000
,
0001
0000
0100
0001
0000
0100
0010
0000
0100
0001
0000
1000
,
0100
0110
1000
1100
,
0001
0000
0010
0001
0000
1000
0100
0000
0010
0100
0000
1000
,
0010
0000
0000
0110
0000
0010
0001
0000
0001
0010
0000
0010
,
1000
0000
0100
0001
0000
0100
1000
0000
0000
0100
0000
0000
,
1000
0000
1000
0010
0000
0000
0001
0000
0001
0010
0000
0000
,
0000
0000
0100
0010
0000
0100
0020
0000
0000
0030
0000
0000
,
1000
0000
0100
0000
0001
0000
0100
0000
1000
0000
0010
0000
,
0001
0000
0010
0000
1000
0000
2020
0000
0000
3030
0000
0000
,
0001
0000
0100
0000
1000
0000
0100
0000
0001
0000
0010
0000
,
1000
1100
2002
3003
,
0001
0000
0010
0000
1000
0000
0010
0000
0001
0000
0100
0000
,
1000
0000
0100
0000
0001
0000
0202
0000
0000
0303
0000
0000
,
1000
0000
1000
0000
0010
0000
0001
0000
0001
0000
0100
0000
,
0220
0330
0000
0001
,
2000
0100
0000
0100
,
3002
0100
0000
0100
,
2003
0010
0000
0010
,
3020
0100
0030
0100
,
0002
0100
0000
0100
,
2003
0100
0000
0100
,
3020
0100
0000
0100
,
2030
0001
3000
0000
,
0001
0101
0001
0011
,
0001
0000
0100
0000
0010
0000
1000
0000
0000
1002
0000
0000
,
0103
2001
3100
0012
,
0203
0000
0000
0310
0000
0010
0100
0000
0001
1000
0000
0100
,
1000
1010
1000
1100
,
1000
0000
0010
0000
0100
0000
0001
0000
0000
0021
0000
0000
,
1030
0000
0000
0201
0000
0000
1300
0000
0000
0110
0000
1000
,
0001
0000
0000
0000
,
2001
0100
0001
0100
,
3001
0000
0100
0001
0000
1000
0100
0000
1000
0010
0000
0100
,
0020
0001
0100
0100
,
1030
0000
1000
0001
0000
0001
0100
0000
0010
1000
0000
0001
,
2000
0100
0001
0100
,
3001
0000
1000
0010
0000
0100
0001
0000
0100
0001
0000
0010
,
0100
2001
0100
3010
,
0110
0000
0000
0000
,
1001
0000
1000
0010
0000
0010
1000
0000
1000
0100
0000
0100
,
0010
0000
0000
0110
0000
0010
0001
0000
0001
1000
0000
0010
,
0100
0000
0001
1000
0000
0000
1100
0000
0000
0101
0000
0000
,
1100
0000
0000
0001
0000
0100
0001
0000
0100
0010
1000
0001
,
1001
0000
0001
0010
0000
0010
0001
0000
0001
1000
0000
1000
,
0010
0000
0000
0110
0000
0100
0001
0000
0001
1000
0100
0010
,
0001
0000
0000
0010
0100
1000
0001
0000
0000
0100
0010
1000
,
1001
0000
0000
0000
;

//---------------dance-single - ----------------
#NOTES:
     dance-single:
     :
     Easy:
     5:
     0.181450,0.262789,0.116795,0.138694,0.000000,174.000000,158.000000,16.000000,19.000000,0.000000,0.000000,0.181450,0.262789,0.116795,0.138694,0.000000,174.000000,158.000000,16.000000,19.000000,0.000000,0.000000:
0000
0000
0000
0000
,
0000
0000
0000
0000
,
0000
0000
0000
0000
,
0000
0000
0000
0000
,
0000
0000
0000
0000
,
0000
0000
0000
0000
,
0000
0000
0000
0000
,
0000
0000
0000
0000
,
0000
0000
0000
0000
,
1000
0000
1000
0000
,
1000
0100
1000
0000
,
0010
0000
0100
0000
,
0010
0000
0110
0000
,
0001
0000
0001
0000
,
0001
0100
0001
0000
,
0010
0000
0100
0000
,
0110
0000
0000
0000
,
0001
0000
0001
0000
,
1000
0100
0010
0001
,
1000
0000
1000
0000
,
0001
0100
0010
1000
,
0001
0000
0001
0000
,
1000
0010
0100
0001
,
0011
0000
1100
0000
,
0001
0100
1000
0010
,
0001
0000
0001
0000
,
0010
0100
1000
0001
,
1000
0000
1000
0000
,
0001
0100
1000
0100
,
0001
0000
0001
0000
,
1000
0001
1000
0000
,
0100
0011
0000
1010
,
0000
0100
0200
0300
,
0001
0001
1000
1000
,
0001
1000
0002
0003
,
0010
0010
0100
0100
,
0010
0000
2002
3003
,
0001
0001
1000
1000
,
0001
1000
0002
0003
,
0100
1001
0000
0110
,
0001
0000
0000
0000
,
2000
0000
0000
0000
,
0002
0000
3003
0000
,
0020
0000
0000
0000
,
0200
0000
0330
0000
,
2000
0000
0000
0000
,
0020
0000
3030
0000
,
0002
0000
0000
0000
,
0200
0000
0303
0000
,
1000
0000
1000
0000
,
1000
0001
2000
3000
,
0001
0000
0010
0000
,
0001
0100
0010
1000
,
0001
0000
0001
0000
,
0001
1000
0002
0003
,
0010
0000
0010
0000
,
0110
0000
0000
0000
,
0002
0000
0000
0000
,
1003
1000
0100
1000
,
0020
0030
0010
0000
,
0100
0001
1000
1100
,
0020
0000
0000
0000
,
0031
0001
1000
0001
,
0100
0020
0000
0000
,
1030
0000
0000
0000
,
0001
0001
1000
1000
,
0001
1000
0100
0110
,
0001
0001
1000
0001
,
1000
0000
1001
0000
,
1000
1000
0001
0001
,
1000
0001
0010
0100
,
1100
0000
0101
0000
,
1001
0000
0000
0000
;

//---------------dance-single - ----------------
#NOTES:
     dance-single:
     :
     Beginner:
     2:
     0.083425,0.157673,0.051098,0.102196,0.000000,80.000000,73.000000,7.000000,14.000000,0.000000,0.000000,0.083425,0.157673,0.051098,0.102196,0.000000,80.000000,73.000000,7.000000,14.000000,0.000000,0.000000:
0000
0000
0000
0000
,
0000
0000
0000
0000
,
0000
0000
0000
0000
,
0000
0000
0000
0000
,
0000
0000
0000
0000
,
0000
0000
0000
0000
,
0000
0000
0000
0000
,
0000
0000
0000
0000
,
0000
0000
0000
0000
,
0100
0000
0000
0000
,
0100
0000
0000
0000
,
0010
0000
0000
0000
,
0100
0000
0000
0000
,
1000
0000
0000
0000
,
1000
0000
0000
0000
,
0001
0000
0000
0000
,
1000
0000
0000
0000
,
0001
0000
0000
0000
,
1000
0000
1000
0000
,
1000
0000
0000
0000
,
0100
0000
0100
0000
,
0100
0000
0000
0000
,
0010
0000
0010
0000
,
0110
0000
0100
0000
,
2000
0000
3000
0000
,
0001
0000
0001
0000
,
1000
0000
0000
0000
,
0001
0000
1000
0000
,
0001
0000
0000
0000
,
1000
0000
1000
0000
,
0001
0000
0000
0000
,
0000
1001
0000
0110
,
0000
0000
0000
0000
,
0200
0000
0000
0000
,
0000
0000
0300
0000
,
0200
0000
0000
0000
,
0300
0000
1001
0000
,
0020
0000
0000
0000
,
0000
0000
0030
0000
,
0010
0000
0010
0000
,
0010
0000
0000
0000
,
0002
0000
0000
0000
,
0003
0000
0000
0000
,
2000
0000
0000
0000
,
3000
0000
0000
0000
,
0200
0000
0000
0000
,
0300
0000
0000
0000
,
0020
0000
0000
0000
,
0030
0000
0000
0000
,
0002
0000
0000
0000
,
0000
0000
0003
0000
,
0001
0000
0001
0000
,
0010
0000
0100
0000
,
2000
0000
0000
0000
,
0000
0000
3000
0000
,
1000
0000
0001
0000
,
1001
0000
0000
0000
,
0020
0000
0000
0000
,
0030
0000
0010
0000
,
0200
0000
0300
0000
,
1000
0000
1000
0000
,
0002
0000
0000
0000
,
0003
0000
0001
0000
,
2000
0000
0000
0000
,
3000
0000
0000
0000
,
0001
0000
0001
0000
,
1000
0000
0001
0000
,
1000
0000
1000
0000
,
1001
0000
0000
0000
,
0010
0000
0010
0000
,
0100
0000
0010
0000
,
0100
0000
0100
0000
,
1001
0000
0000
0000
;

//---------------dance-double - ----------------
#NOTES:
     dance-double:
     :
     Easy:
     5:
     0.179364,0.262789,0.109495,0.160593,0.000000,172.000000,157.000000,15.000000,22.000000,0.000000,0.000000,0.179364,0.262789,0.109495,0.160593,0.000000,172.000000,157.000000,15.000000,22.000000,0.000000,0.000000:
// measure 0
00000000
00000000
00000000
00000000
,  // measure 1
00000000
00000000
00000000
00000000
,  // measure 2
00000000
00000000
00000000
00000000
,  // measure 3
00000000
00000000
00000000
00000000
,  // measure 4
00000000
00000000
00000000
00000000
,  // measure 5
00000000
00000000
00000000
00000000
,  // measure 6
00000000
00000000
00000000
00000000
,  // measure 7
00000000
00000000
00000000
00000000
,  // measure 8
00000000
00000000
00000000
00000000
,  // measure 9
00010000
00000000
00010000
00000000
,  // measure 10
00010000
00001000
00010000
00000000
,  // measure 11
00000010
00000000
00000010
00000000
,  // measure 12
00001000
00000000
00011000
00000000
,  // measure 13
00001000
00000000
00001000
00000000
,  // measure 14
00001000
00010000
00001000
00000000
,  // measure 15
00100000
00000000
00100000
00000000
,  // measure 16
01000000
00000000
00000000
00000000
,  // measure 17
10000000
00000000
10000000
00000000
,  // measure 18
01000000
00100000
01000000
00100000
,  // measure 19
00010000
00000000
00010000
00000000
,  // measure 20
01000000
00001000
01000000
00001000
,  // measure 21
00010000
00000000
00010000
00000000
,  // measure 22
00000100
00001000
00000100
00001000
,  // measure 23
00001010
00000000
00000101
00000000
,  // measure 24
00000002
00000023
00002030
00003000
,  // measure 25
00010000
00000000
00010000
00000000
,  // measure 26
00001000
00010000
00000100
00001000
,  // measure 27
00000010
00000000
00000010
00000000
,  // measure 28
00010000
00010000
00001000
00100000
,  // measure 29
00010000
00000000
00010000
00000000
,  // measure 30
10000000
00010000
10000000
00000000
,  // measure 31
00100000
01010000
00000000
00011000
,  // measure 32
00000000
00001000
00020000
00030000
,  // measure 33
00000100
00000100
00010000
00010000
,  // measure 34
00000100
00010000
00002000
00003000
,  // measure 35
01000000
01000000
00001000
00001000
,  // measure 36
00010000
00000000
00022000
00033000
,  // measure 37
00000010
00000010
00010000
00010000
,  // measure 38
00000010
00010000
00002000
00003000
,  // measure 39
00100000
00110000
00000000
00011000
,  // measure 40
00001000
00000000
00000000
00000000
,  // measure 41
20000000
00000000
00000000
00000000
,  // measure 42
32000000
00000000
00000000
00000000
,  // measure 43
03020000
00000000
00000000
00000000
,  // measure 44
00032000
00000000
00003000
00000000
,  // measure 45
00020000
00000000
00000000
00000000
,  // measure 46
00030200
00000000
00000000
00000000
,  // measure 47
00002300
00000000
00000000
00000000
,  // measure 48
00003020
00000000
00000030
00000000
,  // measure 49
00001000
00000000
00001000
00000000
,  // measure 50
00000001
00001000
00000002
00000003
,  // measure 51
00001000
00000000
00000100
00000000
,  // measure 52
00010000
00010000
00001000
00010000
,  // measure 53
00001000
00000000
00001000
00000000
,  // measure 54
00001000
00010000
00002000
00003000
,  // measure 55
00100000
00000000
00010000
00000000
,  // measure 56
10010000
00000000
00000000
00000000
,  // measure 57
00020000
00000000
00000000
00000000
,  // measure 58
10030000
10000000
00100000
01000000
,  // measure 59
00020000
00030000
00010000
00000000
,  // measure 60
00100000
00100000
00001000
00011000
,  // measure 61
00000020
00000000
00000000
00000000
,  // measure 62
00001030
00001000
00000001
00000010
,  // measure 63
00000100
00020000
00000000
00000000
,  // measure 64
00031000
00000000
00000000
00000000
,  // measure 65
00010000
00010000
00001000
00001000
,  // measure 66
00010000
00000010
00001000
00000110
,  // measure 67
00000001
00000001
00001000
00000001
,  // measure 68
00001000
00000000
00001100
00000000
,  // measure 69
00010000
00010000
00001000
00001000
,  // measure 70
00010000
00000010
00001000
00000010
,  // measure 71
00011000
00000000
00110000
00000000
,  // measure 72
11000000
00000000
00000000
00000000
;

//---------------dance-double - ----------------
#NOTES:
     dance-double:
     :
     Medium:
     6:
     0.218991,0.315347,0.131395,0.408783,0.000000,210.000000,192.000000,18.000000,56.000000,0.000000,0.000000,0.218991,0.315347,0.131395,0.408783,0.000000,210.000000,192.000000,18.000000,56.000000,0.000000,0.000000:
// measure 0
00000000
00000000
00000000
00000000
,  // measure 1
00000000
00000000
00000000
00000000
,  // measure 2
00000000
00000000
00000000
00000000
,  // measure 3
00000000
00000000
00000000
00000000
,  // measure 4
00000000
00000000
00000000
00000000
,  // measure 5
00000000
00000000
00000000
00000000
,  // measure 6
00000000
00000000
00000000
00000000
,  // measure 7
00000000
00000000
00000000
00000000
,  // measure 8
00000000
00000000
00000000
00000000
,  // measure 9
00010000
00010000
00001000
00001000
,  // measure 10
00000010
00000001
00001000
00000000
,  // measure 11
00000010
00000100
00000010
00000100
,  // measure 12
00000001
00001000
00001001
00000000
,  // measure 13
00000001
00000001
00000002
00000003
,  // measure 14
00001000
00001000
00001000
00000000
,  // measure 15
00010000
00010000
00100000
01000000
,  // measure 16
00100000
00000000
00000000
00000000
,  // measure 17
00020000
00030000
00020000
00030000
,  // measure 18
20000000
32000000
03020000
00032000
,  // measure 19
00023000
00030000
00020000
00030000
,  // measure 20
00002000
00003200
00000302
00000023
,  // measure 21
00002030
00003000
00002000
00003000
,  // measure 22
00200000
00320000
20030000
30100000
,  // measure 23
00110000
00000000
11000000
00000000
,  // measure 24
20000000
30200000
00320000
00030000
,  // measure 25
00001000
00011000
00000100
00011000
,  // measure 26
00001000
00001000
00010000
00000100
,  // measure 27
00010000
00010000
00000010
00000010
,  // measure 28
00001000
00000100
00000010
00000001
,  // measure 29
00001000
00000000
00000001
00000110
,  // measure 30
00001000
00001000
00010000
00000000
,  // measure 31
00001000
00110000
00001000
01010000
,  // measure 32
00200000
00000000
00000000
00300000
,  // measure 33
00010000
00010000
00001000
00001000
,  // measure 34
00010000
00001000
00020000
00030000
,  // measure 35
00000100
00000100
00000010
00000010
,  // measure 36
00000100
00001000
00002002
00003003
,  // measure 37
00000001
00000001
00001000
00001000
,  // measure 38
00000001
00001000
00000002
00000003
,  // measure 39
00001000
00011000
00000000
01100000
,  // measure 40
10000000
00000000
00000000
00000000
,  // measure 41
00020000
00000000
00000000
00000000
,  // measure 42
20030000
00000000
00000000
00000000
,  // measure 43
32000000
00000000
00000000
00000000
,  // measure 44
03200000
00000000
00300000
00000000
,  // measure 45
00002000
00000000
00000000
00000000
,  // measure 46
00023000
00000000
00000000
00000000
,  // measure 47
00030020
00000000
00000000
00000000
,  // measure 48
00000230
00000000
00000300
00000000
,  // measure 49
00000001
00000001
00001000
00001000
,  // measure 50
00000001
00001000
00000001
00002000
,  // measure 51
00003100
00000200
00010300
00020000
,  // measure 52
00032000
02003000
00200000
03300000
,  // measure 53
10000000
10000000
00010000
00010000
,  // measure 54
10000000
00010000
10000000
00020000
,  // measure 55
00130000
00200000
00301000
00002000
,  // measure 56
00013000
00000000
00000000
00000000
,  // measure 57
00002000
00100000
00100000
00100000
,  // measure 58
00010000
00010000
00100000
00010000
,  // measure 59
00023000
00000100
00000100
00000100
,  // measure 60
00001000
00001000
00000100
00031000
,  // measure 61
00102000
00010000
00100000
00100000
,  // measure 62
00010000
00100000
00010000
01000000
,  // measure 63
00023000
00000200
00000300
00031000
,  // measure 64
00001010
00000000
00000000
00000000
,  // measure 65
00000002
00000023
00000230
00002300
,  // measure 66
00013000
00100000
01000000
11000000
,  // measure 67
00010000
00010000
10000000
00100000
,  // measure 68
01000000
00000000
10010000
00010000
,  // measure 69
20000000
32000000
03200000
00320000
,  // measure 70
00031000
00000100
00000010
00000010
,  // measure 71
00000011
00001000
00001010
00010000
,  // measure 72
00011000
00000000
00000000
00000000
;

//---------------dance-double - ----------------
#NOTES:
     dance-double:
     :
     Hard:
     10:
     0.291988,0.420463,0.124095,0.401483,0.229940,280.000000,263.000000,17.000000,55.000000,0.000000,0.000000,0.291988,0.420463,0.124095,0.401483,0.229940,280.000000,263.000000,17.000000,55.000000,0.000000,0.000000:
// measure 0
00000000
00000000
00000000
00000000
,  // measure 1
00000000
00000000
00000000
00000000
,  // measure 2
00000000
00000000
00000000
00000000
,  // measure 3
00000000
00000000
00000000
00000000
,  // measure 4
00000000
00000000
00000000
00000000
,  // measure 5
00000000
00000000
00000000
00000000
,  // measure 6
00000000
00000000
00000000
00000000
,  // measure 7
00000000
00000000
00000000
00000000
,  // measure 8
00000000
00000000
00000000
00000000
,  // measure 9
00001000
00000000
00010000
00001000
00000000
00000000
00001000
00000000
00010000
00001000
00000000
00000000
,  // measure 10
00001000
00000000
01000000
00100000
00000000
10000000
00010000
00000000
00000000
10000000
00000000
01000000
,  // measure 11
00100000
00000000
00010000
00100000
00000000
00000000
00001000
00000000
00000000
00001000
00000000
00000000
,  // measure 12
00010000
00000000
00000010
00001000
00000000
00000000
00001001
00000000
00000000
00000000
00000000
00000000
,  // measure 13
00000001
00000000
00000100
00000001
00000000
00000000
00001000
00000000
00000000
00001000
00000000
00000000
,  // measure 14
00000100
00000000
00000010
00000100
00000000
00001000
00000001
00000000
00000000
00000000
00000000
00000000
,  // measure 15
00001000
00000000
00000100
00001000
00000000
00000000
00000010
00000000
00000000
00001000
00000000
00000010
,  // measure 16
00010000
00001000
00020000
00030000
,  // measure 17
00002000
00000000
00000000
00013000
00000000
00000000
00001000
00000000
00100000
00010000
00000000
00000000
,  // measure 18
20000000
32000000
03020000
00032000
,  // measure 19
00023000
00000000
00000000
00030000
00000000
00000000
00010000
00000000
00000010
00001000
00000000
00000000
,  // measure 20
00000002
00000203
00002300
00023000
,  // measure 21
00032000
00000000
00000000
00003000
00000000
00000000
00100000
00000000
01000000
10000000
00000000
00000000
,  // measure 22
02000000
03200000
00320000
10030000
,  // measure 23
10100000
00000000
01001000
00000000
,  // measure 24
00020000
02030000
23000000
30100000
,  // measure 25
00010000
00000000
00000000
00011000
00000000
00000000
00001000
00000000
01000000
00001000
00000000
00000000
,  // measure 26
00010000
00000000
00000100
00010000
00000000
00001000
00010000
00000000
00001000
00000010
00000000
00000001
,  // measure 27
00001000
00000110
00000001
00000001
,  // measure 28
00001000
00000000
00000100
00001000
00000000
00000010
00001000
00000000
00010000
01000000
00000000
00010000
,  // measure 29
10000000
00000000
00000000
10010000
00000000
00000000
01000000
00000000
10000000
00010000
00000000
00000000
,  // measure 30
01000000
00000000
00100000
01000000
00000000
00100000
01000000
00000000
00000000
00001000
00000000
00000000
,  // measure 31
00010000
00101000
00001000
00010100
,  // measure 32
00000000
00010000
00002000
00003000
,  // measure 33
00010000
00000000
01000000
00000000
10000000
00000000
10000000
00000000
00100000
00000000
00010000
00000000
,  // measure 34
00001000
00000000
00000010
00000000
00000001
00000000
00000200
00000000
00000000
00000300
00000000
00000000
,  // measure 35
00000100
00000000
00000010
00000000
00001000
00000000
00000100
00000000
00000010
00000000
00000100
00000000
,  // measure 36
00010000
00001000
00022000
00033000
,  // measure 37
00001000
00000000
00000010
00000000
00000001
00000000
00000001
00000000
00000100
00000000
00001000
00000000
,  // measure 38
00010000
00000000
01000000
00000000
10000000
00000000
00200000
00000000
00000000
00300000
00000000
00000000
,  // measure 39
01000000
10100000
10000000
00110000
,  // measure 40
00002000
00003000
00000000
00000000
,  // measure 41
00020000
00000000
00000000
00000000
,  // measure 42
02030000
00000000
00000000
00000000
,  // measure 43
03200000
00000000
00000000
00000000
,  // measure 44
00302000
00000000
00003000
00000000
,  // measure 45
00020000
00000000
00000000
00000000
,  // measure 46
00030020
00000000
00000000
00000000
,  // measure 47
00000230
00000000
00000000
00000000
,  // measure 48
00000002
00000000
00000303
00000000
,  // measure 49
00000001
00000001
00001000
00001000
,  // measure 50
00000001
00001000
00000100
00000020
,  // measure 51
00000130
00000200
00010300
00020000
,  // measure 52
00032000
00000000
00000000
00103000
00000000
00010000
01000000
00000000
00000000
01100000
00000000
00000000
,  // measure 53
10000000
10000000
00010000
00010000
,  // measure 54
10000000
00010000
00100000
02000000
,  // measure 55
03100000
00000000
00000000
00200000
00000000
00000000
00301000
00000000
00000000
00010000
00000000
00001000
,  // measure 56
00010000
00000000
00000000
00000000
,  // measure 57
00021000
00001000
00000100
00000100
,  // measure 58
00001000
00000000
00000000
00000100
00000000
00000000
00001000
00000000
00000000
00030010
00000000
00010000
,  // measure 59
00002000
01000000
00010000
00010000
,  // measure 60
00203000
00000000
00000000
00310000
00000000
01000000
00100000
00000000
10000000
00100000
00000000
00010000
,  // measure 61
00002000
00010000
00100000
00100000
,  // measure 62
00013000
00000000
00000100
00001000
00000000
00000100
00001000
00000000
00000001
00000100
00000000
00000010
,  // measure 63
00001000
00000200
00000010
00001300
,  // measure 64
00001001
00000000
00000000
00000000
,  // measure 65
00000002
00000203
00000320
00002030
,  // measure 66
00003200
00000000
00000000
00010300
00000000
00010000
00001000
00000000
00001000
01000000
00000000
00001000
,  // measure 67
00010000
00000000
00001000
00100000
00000000
00000000
02000000
00000000
00000000
23000000
00000000
00000000
,  // measure 68
30010000
00000000
00000000
01000000
00000000
00100000
10000000
00000000
00000000
10010000
00000000
00000000
,  // measure 69
20000000
30200000
02300000
03020000
,  // measure 70
00230000
00000000
00000000
00301000
00000000
00001000
00010000
00000000
00010000
00000010
00000000
00000100
,  // measure 71
00000001
00000000
00000000
00000011
00000000
00001000
00000010
00000000
00000000
00001100
00000000
00010000
,  // measure 72
00001000
00000000
00000000
00000000
;

//---------------dance-double - ----------------
#NOTES:
     dance-double:
     :
     Challenge:
     12:
     0.394184,0.473020,0.270089,0.240890,0.467181,378.000000,341.000000,37.000000,33.000000,0.000000,0.000000,0.394184,0.473020,0.270089,0.240890,0.467181,378.000000,341.000000,37.000000,33.000000,0.000000,0.000000:
// measure 0
00000000
00000000
00000000
00000000
,  // measure 1
00000000
00000000
00000000
00000000
,  // measure 2
00000000
00000000
00000000
00000000
,  // measure 3
00000000
00000000
00000000
00000000
,  // measure 4
00000000
00000000
00000000
00000000
,  // measure 5
00000000
00000000
00000000
00000000
,  // measure 6
00000000
00000000
00000000
00000000
,  // measure 7
00000000
00000000
00000000
00000000
,  // measure 8
00000000
00000000
00000000
00000000
,  // measure 9
00000001
00000000
00000100
00000001
00000000
00000001
00001000
00000000
00000100
00001000
00000000
00001000
,  // measure 10
00000010
00000000
00000100
00001000
00000000
00010000
00001000
00000000
00000000
00011000
00000000
00001000
,  // measure 11
00100000
00000000
00100000
01000000
00000000
01000000
00100000
00000000
00010000
10000000
00000000
01000000
,  // measure 12
10000000
00000000
00010000
01000000
00000000
00000000
02200000
00000000
00000000
03300000
00000000
00000000
,  // measure 13
10000000
00000000
01000000
10000000
00000000
10000000
00010000
00000000
02000000
00000000
03000000
00100000
,  // measure 14
01000000
00000000
00010000
00100000
00000000
00100000
00001000
00000000
00000000
00011000
00000000
00000000
,  // measure 15
00010000
00000000
00000100
00010000
00000000
00000000
00011000
00000000
00000000
00000010
00000000
00001000
,  // measure 16
00000002
00001000
00000200
00000303
,  // measure 17
00000001
00000000
00000000
00001100
00000000
00000000
00001000
00000000
00001000
00000001
00000000
00000100
,  // measure 18
00000010
00000000
00001000
00000001
00000000
00000001
00000010
00000000
00000010
00001000
00000000
00001000
,  // measure 19
00010000
00000000
00000000
00011000
00000000
00000000
00001000
00000000
00100000
00010000
00000000
00010000
,  // measure 20
10000000
00000000
01000000
10000000
00000000
00010000
01000000
00000000
00100000
01000000
00000000
10000000
,  // measure 21
01000000
00000000
00000000
01010000
00000000
01000000
00010000
00000000
00010000
10000000
00000000
01000000
,  // measure 22
00100000
00000000
00100000
01000000
00000000
00100000
00001000
00000000
00010000
00000010
00000000
00001000
,  // measure 23
00001010
00000000
00000101
00000000
,  // measure 24
00000010
00001000
00000010
00001000
00010000
00001000
00010000
00100000
00010000
00200000
00000000
00000000
,  // measure 25
01300000
00000000
00000000
11000000
00000000
00000000
00010000
00000000
01000000
00100000
00000000
00100000
,  // measure 26
10000000
00000000
00010000
00100000
00000000
01000000
10000000
00000000
01000000
00010000
00000000
00010000
,  // measure 27
00001000
00000110
00001000
00001001
,  // measure 28
00000001
00000000
00000010
00000001
00000000
00001000
00000010
00000000
00000100
00001000
00000000
00010000
,  // measure 29
01000000
00000000
00000000
11000000
00000000
00100000
00010000
00000000
00010000
10000000
00000000
10000000
,  // measure 30
00100000
00000000
00100000
00010000
00000000
00010000
00001000
00000000
00000000
00000100
00000000
00000000
,  // measure 31
00000001
00000000
00000001
00000010
00000000
00000000
00001000
00000000
00001000
00000010
00000000
00000000
,  // measure 32
00000000
00000000
00000001
00001000
00000000
00000001
00002000
00000000
00000000
00003000
00000000
00000000
,  // measure 33
00000001
00000000
00000001
00000000
00000001
00000000
00001000
00000000
00001000
00000000
00001000
00000000
,  // measure 34
00010000
00000000
00010000
00000000
10000000
00000000
20020000
00000000
00000000
30030000
00000000
00000000
,  // measure 35
10000000
00000000
10000000
00000000
10000000
00000000
00010000
00000000
00010000
00000000
00001000
00000000
,  // measure 36
00000010
00000110
00002002
00003003
,  // measure 37
00000001
00000000
00000001
00000000
00000001
00000000
00001000
00000000
00001000
00000000
00001000
00000000
,  // measure 38
00010000
00000000
00010000
00000000
10000000
00000000
20020000
00000000
00000000
30030000
00000000
00000000
,  // measure 39
10000000
00000000
00010000
00000000
00001000
00000000
00000001
00000000
00001000
00000000
00010000
00000000
,  // measure 40
20020000
30030000
00000000
00000000
,  // measure 41
20000000
01000000
00000000
01000000
,  // measure 42
30020000
01000000
00000000
01000000
,  // measure 43
00230000
01000000
00000000
01000000
,  // measure 44
00302000
00010000
00003000
00010000
,  // measure 45
00000020
00000100
00000000
00000100
,  // measure 46
00020030
00001000
00000000
00001000
,  // measure 47
00030200
00000010
00000000
00000010
,  // measure 48
00002300
00000001
00003000
00000000
,  // measure 49
00001000
00010100
00001000
00010100
,  // measure 50
00001000
00000000
00010000
00000000
00000010
00000000
00001000
00000000
00000000
00001002
00000000
00000000
,  // measure 51
00000103
00002001
00003100
00020100
,  // measure 52
00032000
00000000
00000000
00003010
00000000
00001000
00010000
00000000
00010000
00100000
00000000
01000000
,  // measure 53
00010000
01001000
00010000
01001000
,  // measure 54
00010000
00000000
00001000
00000000
00100000
00000000
00010000
00000000
00000000
12000000
00000000
00000000
,  // measure 55
03100000
00000000
00000000
02010000
00000000
00000000
03100000
00000000
00000000
11000000
00000000
01000000
,  // measure 56
00010000
00000000
00000000
00000000
,  // measure 57
00021000
00000100
00001000
00001000
,  // measure 58
00030100
00000000
00010000
00000010
00000000
00001000
00000001
00000000
00000100
00000010
00000000
00000100
,  // measure 59
00002000
01000000
00010000
00010000
,  // measure 60
00103000
00000000
00010000
10000000
00000000
01000000
00100000
00000000
00010000
01000000
00000000
00100000
,  // measure 61
00020000
00100000
00001000
00001000
,  // measure 62
00130000
00000000
01000000
00010000
00000000
00100000
00010000
00000000
01000000
00001000
00000000
00010000
,  // measure 63
00000100
00000021
00001000
00000130
,  // measure 64
00001001
00000000
00000000
00000000
,  // measure 65
00000011
00000000
00000010
00001000
00000000
00001000
00010000
00000000
00010000
00100000
00000000
00100000
,  // measure 66
10000000
00000000
00000000
01100000
00000000
00001000
00010000
00000000
00010000
00001000
00000000
00100000
,  // measure 67
00010000
00000000
10000000
00100000
00000000
00000000
11000000
00000000
00000000
01010000
00000000
00000000
,  // measure 68
00011000
00000000
00000000
00001000
00000000
00010000
01000000
00000000
10000000
01000000
00100000
00010000
,  // measure 69
10000000
00000000
01000000
00010000
00000000
00010000
00001000
00000000
00001000
00000100
00000000
00000100
,  // measure 70
00000001
00000000
00000000
00000110
00000000
00010000
00001000
00000000
00001000
00010000
00000100
00001000
,  // measure 71
00000010
00000000
00000000
00000001
00000010
00000100
00001000
00000000
00000000
00010000
01000000
00100000
,  // measure 72
10000000
00000000
00000000
00000000
;
