#TITLE:THE BADDEST;
#SUBTITLE:ft. (G)I-DLE, Bea Miller, Wolftyla;
#ARTIST:K/DA;
#TITLETRANSLIT:;
#SUBTITLETRANSLIT:;
#ARTISTTRANSLIT:;
#GENRE:K/DA;
#CREDIT:;
#BANNER:THE BADDEST.png;
#BACKGROUND:../bg.png;
#LYRICSPATH:;
#CDTITLE:../cdtitle.png;
#MUSIC:THE BADDEST.ogg;
#OFFSET:0.599000;
#SAMPLESTART:13.001000;
#SAMPLELENGTH:15.000000;
#SELECTABLE:YES;
#BPMS:0.000000=150.000000
;
#STOPS:128.000000=1.200000,
287.000000=0.400000
;
#BGCHANGES: 2.250=THE BADDEST.avi=1.000=0=0=0=StretchNoLoop====,
99999=-nosongbg-=1.000=0=0=0 // don't automatically add -songbackground-
;
#KEYSOUNDS:;
#ATTACKS:;

//---------------dance-single - ----------------
#NOTES:
     dance-single:
     :
     Challenge:
     13:
     0.509250,0.675567,0.313752,0.420561,0.240320,534.000000,487.000000,47.000000,63.000000,8.000000,0.000000,0.509250,0.675567,0.313752,0.420561,0.240320,534.000000,487.000000,47.000000,63.000000,8.000000,0.000000:
0000
0000
0000
0000
,
0000
0000
0000
0000
,
0000
0000
0000
0000
,
0000
0000
0000
0000
,
0000
0000
0000
0000
,
0000
0000
0000
0000
,
0000
0000
0000
0000
,
0000
0000
0000
0000
,
0000
0010
0010
0010
0010
1000
0010
0001
,
2002
3003
1100
1010
,
1200
0000
0310
0000
0001
0100
0010
0010
,
0110
0000
1000
0001
0010
0001
0100
0100
,
0010
0000
1001
0000
0001
0010
1000
0010
,
0002
0000
0103
0010
2000
0000
3010
0100
,
0002
0000
0013
0100
2000
0000
3100
0010
,
0001
0000
0010
0100
0010
0010
0100
0000
,
2100
0000
3002
0000
0103
0010
1000
1000
,
2200
3300
0101
1100
,
0021
0000
1030
0000
0010
0010
0100
0000
,
1001
0000
0001
0010
0100
0100
0010
0100
,
2100
0000
3001
1000
0010
0010
0100
0010
,
2000
0000
3100
0100
0002
0000
0103
0100
,
2000
0000
3010
0010
0002
0000
0013
0010
,
1000
0000
0100
0100
0001
0100
0100
0000
,
2001
0000
3002
0000
0103
0100
0010
1000
,
0001
0001
1000
1000
,
0100
0100
0001
0001
,
1000
1000
0010
0010
,
0001
0000
0001
0000
0010
0000
0100
1000
,
0200
0000
0000
0310
0001
0000
0001
0000
0100
0000
0000
0000
0010
0000
1000
0000
,
0020
0000
0000
0130
0001
0000
0001
0000
0010
0000
0000
0000
0100
0000
1000
0000
,
0002
0000
0103
0010
2000
0000
3001
0010
,
MMMM
0000
0110
0000
0001
1000
0010
0010
,
0110
0000
1000
0100
0100
0001
0011
0000
,
0001
0100
0110
0010
0001
0010
1000
1000
,
1100
0000
0010
0010
0100
0010
0011
0000
,
0110
0001
0100
0000
0010
1000
0100
1000
,
1001
0000
0010
0001
0100
0001
1001
0000
,
1000
0100
0101
0000
0001
0100
1100
1000
,
0002
0000
0013
0100
0010
0010
1001
0000
,
0100
0100
1020
0000
0130
0001
1000
0010
,
0021
0000
0130
0100
0100
0000
1100
0000
,
0001
0100
1020
0000
1030
0100
0010
0100
,
2100
0000
3001
0001
0001
0000
0101
0100
,
0010
1000
1200
0000
0310
0001
1000
0100
,
0101
0000
0010
0010
0010
0000
1010
0000
,
0001
0010
1200
0000
1300
0010
0100
0010
,
2010
0000
0000
0000
3100
0000
0100
0000
0010
0000
0001
0000
0100
0000
0010
0100
,
0010
1000
0002
0000
0100
0000
0000
0000
,
0100
0000
0010
0000
,
0010
2003
0100
0000
,
0100
0000
0010
0000
,
0010
3001
0001
0100
,
0100
1000
1000
0010
,
0010
0000
0000
0000
0002
0000
0000
0203
0000
0000
2300
0000
3002
0000
0000
0023
,
0000
2030
3002
0000
0003
0000
0010
1000
,
0010
0001
2002
0000
3003
0000
1100
0000
,
1010
0000
1200
0000
0310
0000
0001
0100
,
0010
0010
0110
0000
1000
0001
0010
0001
,
0100
0100
0010
0000
1001
0000
0001
0010
,
1000
0010
0002
0000
0103
0010
2000
0000
,
3010
0100
0002
0000
0013
0100
2000
0000
,
3100
0010
0001
0000
0010
0100
0010
0010
,
0100
0000
2100
0000
3001
0010
0001
0001
,
0100
0001
2001
0000
0000
0000
0100
0000
,
0000
0000
0001
0000
0000
0000
3010
0100
,
0010
1000
0002
0000
0000
0000
0010
0000
,
0000
0000
0100
0000
0000
0000
1003
1000
,
0100
0010
0002
0000
0000
0000
0100
0000
,
0000
0000
1000
0000
0000
0000
0013
0100
,
0010
0001
2000
0000
0000
0000
0100
0000
,
0000
0000
3010
0100
0100
0100
MMMM
0000
,
1000
0100
0010
0100
1000
0010
0100
0001
1000
0010
0000
0000
,
0100
0001
1000
0010
0100
0010
1000
0100
0010
0001
0000
0000
,
1000
0100
1000
0001
0100
0001
1000
0010
0100
0001
0000
0000
,
1000
0010
1000
0001
0010
0001
1000
0100
0010
0001
0000
0000
,
0010
0100
0010
0001
1000
0001
0100
0010
1000
0010
0000
0010
,
0100
0001
1000
0001
0100
0010
1000
0100
1000
0001
0000
0000
,
1000
0100
0010
0001
0000
0000
1000
0100
0010
0001
0000
0000
,
0001
0100
0010
1000
0010
0100
0001
0010
0100
0010
0000
0000
,
2001
0100
0000
0100
,
0000
0010
0000
0010
,
3002
0100
0000
0100
,
0000
0010
0000
0010
,
1003
1000
0100
0100
,
0001
0001
0010
0010
,
2000
0000
0000
3200
0000
0000
0302
0000
2003
0000
0000
3020
0000
0000
0032
0000
,
2003
0000
3000
0001
0100
0010
2000
3000
,
2001
0000
0000
3001
0010
0100
1000
0100
0010
0001
0100
0010
,
1000
0000
0000
0010
0100
0001
1000
0000
0000
1000
0100
0010
,
0001
0000
0000
0010
0100
1000
0001
0000
0000
1000
0001
0100
,
0010
0000
0000
0100
0001
1000
0100
0000
0000
0001
0100
1000
,
0010
0000
0000
0000
;

//---------------dance-single - ----------------
#NOTES:
     dance-single:
     :
     Hard:
     12:
     0.485409,0.552737,0.340454,0.420561,0.020027,509.000000,458.000000,51.000000,63.000000,0.000000,0.000000,0.485409,0.552737,0.340454,0.420561,0.020027,509.000000,458.000000,51.000000,63.000000,0.000000,0.000000:
// measure 0
0000
0000
0000
0000
,  // measure 1
0000
0000
0000
0000
,  // measure 2
0000
0000
0000
0000
,  // measure 3
0000
0000
0000
0000
,  // measure 4
0000
0000
0000
0000
,  // measure 5
0000
0000
0000
0000
,  // measure 6
0000
0000
0000
0000
,  // measure 7
0000
0000
0000
0000
,  // measure 8
0000
0100
0010
0100
0010
0100
0010
0010
,  // measure 9
2002
3003
1100
0101
,  // measure 10
0022
0000
0033
0000
0001
0100
0010
1000
,  // measure 11
1001
0000
1000
0100
0010
0010
0001
0000
,  // measure 12
0201
0000
0310
0000
0100
0001
1000
0010
,  // measure 13
0200
0000
0301
0100
0002
0000
1003
0100
,  // measure 14
2000
0000
3001
0010
0002
0000
1003
0010
,  // measure 15
0110
0000
0010
1000
0100
0010
0100
0000
,  // measure 16
2200
0000
3300
0000
0001
0010
0100
1000
,  // measure 17
2002
3003
0011
0101
,  // measure 18
2002
0000
3003
0000
1000
0100
0001
0000
,  // measure 19
0110
0000
0001
1000
0100
0100
0010
0001
,  // measure 20
1002
0000
0103
0000
0010
1000
0001
0100
,  // measure 21
0020
0000
1030
0010
2000
0000
3001
0010
,  // measure 22
0002
0000
1003
0100
2000
0000
3001
0100
,  // measure 23
0110
0000
0100
0001
0010
0100
0010
0000
,  // measure 24
2001
0000
0100
0000
3010
0100
0001
1000
,  // measure 25
0001
0100
0001
0000
0100
1000
0100
0000
,  // measure 26
0010
1000
0010
0000
1000
0100
1000
0000
,  // measure 27
0001
0010
0100
0000
0001
0100
0010
0000
,  // measure 28
0001
0100
0010
0000
0001
0010
0100
0001
,  // measure 29
2000
0000
3000
1000
0100
0000
0010
0000
0001
0000
0000
0000
0001
0000
0010
0000
,  // measure 30
0002
0000
0003
0001
0100
0000
0010
0000
1000
0000
0000
0000
1000
0000
0100
0000
,  // measure 31
0002
0000
0103
1000
0020
0000
0031
1000
,  // measure 32
0002
0003
0000
0000
0000
0000
0000
0000
0000
0000
0000
0000
0000
0000
0000
0000
0110
0000
0000
0000
0000
0000
0000
0000
0000
0000
0000
0000
0000
0000
0000
0000
1000
0000
0000
0000
0000
0000
0000
0000
0100
0000
0000
0000
0000
0000
0000
0000
0001
0000
0000
0000
0000
0000
0000
0000
0100
0000
0000
0000
0000
0000
0000
0000
,  // measure 33
1001
0000
0001
0010
1000
0010
1001
0000
,  // measure 34
0001
0100
0010
0100
0001
0010
0100
0010
,  // measure 35
1001
0000
1000
0010
0100
0010
1001
0000
,  // measure 36
0010
0100
0110
0000
0001
0010
0001
0100
,  // measure 37
0101
0000
1000
0010
1000
0100
1100
0000
,  // measure 38
1000
1000
0010
0000
0001
0001
0010
1000
,  // measure 39
0020
0000
0130
0100
0001
1000
0010
0000
,  // measure 40
0011
0000
2100
0000
3001
0010
0100
0010
,  // measure 41
0012
0000
1003
0100
0010
0100
2100
0000
,  // measure 42
3001
1000
1020
0000
0130
0001
1000
0001
,  // measure 43
0021
0000
0130
0100
0010
0001
2001
0000
,  // measure 44
3001
0100
0020
0000
0031
0010
0100
0010
,  // measure 45
1001
0000
1000
0100
0010
1000
0020
0000
,  // measure 46
0130
0010
0012
0000
1003
0010
0100
0010
,  // measure 47
2010
0000
3001
0010
0001
1000
0010
0010
,  // measure 48
0100
0001
2000
0000
0100
0000
0000
0000
,  // measure 49
0100
0000
0010
0000
,  // measure 50
0010
3002
0100
0000
,  // measure 51
0100
0000
0010
0000
,  // measure 52
0010
1003
1000
0100
,  // measure 53
0100
0001
0001
0010
,  // measure 54
0010
0000
1000
0000
0100
0000
0000
0001
0000
0000
0100
0000
1000
0000
0000
0010
,  // measure 55
0000
0001
0020
0000
0030
0000
0100
0010
,  // measure 56
0100
0100
2002
0000
3003
0000
0011
0000
,  // measure 57
1010
0000
2200
0000
3300
0000
1000
0010
,  // measure 58
0100
0001
1001
0000
0001
0010
0100
0100
,  // measure 59
1000
0000
1020
0000
0130
0000
0010
1000
,  // measure 60
0001
0100
0020
0000
1030
0010
2000
0000
,  // measure 61
3001
0010
0002
0000
1003
0100
2000
0000
,  // measure 62
3001
0100
0110
0000
0100
0001
0010
0100
,  // measure 63
0010
0000
0012
0000
1003
0001
0100
0010
,  // measure 64
1000
0001
2000
0000
0000
0000
0100
0000
,  // measure 65
0000
0000
3020
0000
0000
0000
0130
0001
,  // measure 66
1000
0002
0000
0010
,  // measure 67
0000
0000
2003
0000
0000
0000
3100
0100
,  // measure 68
0010
0001
2000
0000
0000
0000
0010
0000
,  // measure 69
0000
0000
3200
0000
0000
0000
0310
0001
,  // measure 70
1000
0002
0000
0100
,  // measure 71
0000
0000
1003
0100
1000
0100
0010
0000
,  // measure 72
0001
0100
0001
0100
0010
0010
0001
0000
,  // measure 73
1000
0100
1000
0100
0010
0010
1000
0000
,  // measure 74
0001
1000
0010
1000
0100
0001
0100
0000
,  // measure 75
1000
0001
0010
0001
0100
1000
0100
0000
,  // measure 76
0001
0010
0100
0010
0001
0010
0100
0000
,  // measure 77
1000
0010
0100
0010
1000
0010
0100
0000
,  // measure 78
0001
0010
0011
0000
1000
0100
1100
0000
,  // measure 79
0010
0100
0010
0001
0100
0010
0210
0300
,  // measure 80
1002
0100
0000
0100
,  // measure 81
0000
0010
0000
0010
,  // measure 82
2003
0100
0000
0100
,  // measure 83
0000
0010
0000
0010
,  // measure 84
3001
0001
0100
0100
,  // measure 85
1000
0000
1000
0000
0010
0000
0010
0001
,  // measure 86
0100
0000
0000
1000
0000
0000
0100
0000
0001
0000
0000
0010
0000
0000
1000
0000
,  // measure 87
0020
0000
0031
0100
0010
1000
0002
0003
,  // measure 88
2001
0000
3001
0010
0100
0010
0001
1000
,  // measure 89
1001
0000
1000
0100
0110
0000
0001
1000
,  // measure 90
1010
0000
1000
0100
0001
0000
0001
1000
,  // measure 91
0001
0000
0001
0100
1000
0000
1000
0001
,  // measure 92
1001
0000
0000
0000
;

//---------------dance-single - ----------------
#NOTES:
     dance-single:
     :
     Medium:
     9:
     0.388137,0.460614,0.333778,0.393858,0.013351,407.000000,357.000000,50.000000,59.000000,0.000000,0.000000,0.388137,0.460614,0.333778,0.393858,0.013351,407.000000,357.000000,50.000000,59.000000,0.000000,0.000000:
0000
0000
0000
0000
,
0000
0000
0000
0000
,
0000
0000
0000
0000
,
0000
0000
0000
0000
,
0000
0000
0000
0000
,
0000
0000
0000
0000
,
0000
0000
0000
0000
,
0000
0000
0000
0000
,
0000
0000
0000
0000
0010
1000
0010
0000
,
0022
0033
1100
0101
,
2002
0000
3003
0000
0001
0100
0010
0000
,
1010
0000
0001
0010
0001
0000
0010
0000
,
2200
0000
3300
0000
0100
0010
0001
0000
,
2000
0000
3000
0100
0020
0000
0030
0001
,
2000
0000
3000
0001
0200
0000
0300
0010
,
1000
0000
0001
0010
0100
0000
1000
0000
,
0220
0000
0330
0000
0100
0001
0100
0000
,
2200
3300
0011
1010
,
2002
0000
3003
0000
1000
0010
0100
0000
,
0101
0000
1000
0100
1000
0000
0100
0000
,
0022
0000
0033
0000
0010
0100
1000
0000
,
0002
0000
0003
0010
0200
0000
0300
1000
,
0002
0000
0003
1000
0020
0000
0030
0100
,
0001
0000
1000
0100
0010
0000
0001
0000
,
0210
0000
0010
0000
0310
0100
0010
0000
,
2100
0100
0100
0100
,
3001
0001
0001
0001
,
1000
1000
1000
1000
,
0010
0010
0010
0010
,
0200
0300
0100
0001
0010
0000
0010
0000
,
0200
0300
0100
1000
0010
0000
0010
0000
,
2000
3000
1000
0100
0020
0030
0010
0001
,
1000
0000
0110
0000
0001
1000
0001
0000
,
1100
0000
0010
0100
0010
0000
0101
0000
,
0010
1000
0010
0000
0010
0000
0100
0001
,
1000
0000
0100
0010
0100
0000
0011
0000
,
0001
0100
0010
0000
1000
0100
1000
0000
,
0011
0000
0001
0100
0001
0000
1010
0000
,
1000
0100
1000
0000
0001
0010
0001
0000
,
0110
0000
0001
0001
0100
0000
0010
1000
,
0001
0000
1001
0000
0010
0100
0010
0000
,
1001
0000
0010
0010
0010
0000
0101
0000
,
1000
0000
1100
0000
0001
0001
0001
0000
,
0110
0000
0100
0100
0100
0000
0011
0000
,
0001
0100
0010
0000
1000
0100
1000
0000
,
1010
0000
0100
1000
0100
0000
1001
0000
,
0001
0010
1000
0000
0010
0001
1000
0000
,
0110
0000
0001
0100
0001
0000
0100
0010
,
1000
0002
0000
0100
,
0000
2003
0000
0100
,
0000
3020
0000
0100
,
0000
2030
0000
3100
,
1000
0010
0010
0001
,
0001
0010
1000
0002
,
1003
0000
0000
0000
0001
0000
0000
0010
0000
0000
0100
0000
1000
0000
0000
0010
,
0000
0100
0002
0000
0003
0000
0100
1000
,
0100
0202
0303
1010
,
0011
0000
2002
0000
3003
0000
0001
0010
,
0100
0000
1100
0000
0001
0100
0001
0000
,
0100
0000
2020
0000
3030
0000
0010
0100
,
0001
0000
2000
0000
3000
0010
0200
0000
,
0300
0001
2000
0000
3000
0001
0020
0000
,
0030
0100
1000
0000
0001
0100
0010
0000
,
1000
0000
0220
0000
0330
0000
0100
0001
,
1000
0002
0000
0100
,
0000
0000
0000
1003
,
0010
0200
0000
1000
,
0000
0000
0000
0310
,
1000
0002
0000
0010
,
0000
0000
0000
1003
,
0100
0020
0000
0100
,
0000
0032
2003
3001
,
0100
0010
0100
0000
0100
0000
1001
0000
,
0010
0001
0010
0000
0010
0000
1010
0000
,
1000
0100
1000
0000
0001
0000
1001
0000
,
0010
0100
0010
0000
0100
0000
1001
0000
,
1000
0100
1000
0000
0100
0000
0101
0000
,
0001
0010
0001
0000
0010
0000
1010
0000
,
1000
1100
0001
0101
,
0010
0100
0010
0000
0100
0000
0010
0000
,
2001
0000
0100
0000
,
3002
0000
0100
0000
,
0023
0000
0100
0000
,
0032
0000
0103
0001
,
0010
0010
1000
1000
,
0010
0001
2000
3001
,
1000
0000
0000
0010
0000
0000
0100
0000
0001
0000
0000
0010
0000
0000
0100
0000
,
2000
0000
3000
0000
0010
0100
0010
0000
,
2001
0000
3100
0010
0100
0000
1000
0000
,
0110
0000
1000
0100
1000
0000
0010
1000
,
0010
0000
0001
0010
0001
0000
0100
0001
,
0100
0000
1000
0100
1000
0000
0001
0100
,
0110
0000
0000
0000
;

//---------------dance-single - ----------------
#NOTES:
     dance-single:
     :
     Easy:
     6:
     0.299447,0.429907,0.413885,0.534045,0.000000,314.000000,252.000000,62.000000,80.000000,0.000000,0.000000,0.299447,0.429907,0.413885,0.534045,0.000000,314.000000,252.000000,62.000000,80.000000,0.000000,0.000000:
0000
0000
0000
0000
,
0000
0000
0000
0000
,
0000
0000
0000
0000
,
0000
0000
0000
0000
,
0000
0000
0000
0000
,
0000
0000
0000
0000
,
0000
0000
0000
0000
,
0000
0000
0000
0000
,
0000
0000
0020
0130
,
2002
3003
0010
0010
,
0202
0303
1000
1000
,
0011
0100
1000
0010
,
0220
0330
0001
1000
,
2200
3300
0200
0300
,
0002
0003
0020
0030
,
1000
0100
0010
0001
,
2002
3003
0200
0310
,
2002
3003
0100
0100
,
2020
3030
0001
0001
,
1100
0010
0001
0100
,
0220
0330
1000
0001
,
0022
0033
0020
0030
,
2000
3000
0200
0300
,
0001
0010
0100
1000
,
2002
3003
0220
0330
,
2001
0000
0100
0000
,
3002
0000
0010
0000
,
2003
0000
0100
0000
,
3002
0000
0100
0000
,
1003
0100
1001
0000
,
0001
0100
1001
0000
,
2000
3100
0002
0103
,
0010
2002
3003
0100
,
1001
0010
1000
0101
,
0000
1010
0010
0001
,
1010
0001
0010
1010
,
0000
0110
0000
1100
,
0000
0100
0001
0101
,
0000
1010
0000
0100
,
0011
0100
0010
0110
,
0001
2002
3003
0010
,
0201
0010
0310
1100
,
0001
0220
0330
0001
,
2010
0001
3001
1100
,
0010
2002
3003
0100
,
1020
0100
0130
0011
,
1000
0220
0330
1000
,
0102
1000
1003
0011
,
0100
0020
0000
0100
,
0000
0032
0000
0100
,
0000
2003
0000
0100
,
0000
3020
0000
0100
,
0000
1030
1000
0100
,
0100
0001
0001
0100
,
0100
1000
0010
0001
,
0100
2000
3000
0020
,
0130
2002
3003
0010
,
0010
2200
3300
0001
,
0001
1010
0100
0001
,
0010
0220
0330
1000
,
0001
0202
0303
0200
,
0300
2000
3000
0020
,
0030
0001
0100
0010
,
1000
2002
3003
0001
,
0001
2000
0000
0100
,
0000
0000
0000
0010
,
0000
3002
0000
0100
,
0000
0000
0000
0010
,
0000
2003
0000
0010
,
0000
0000
0000
0100
,
0000
3002
0000
0010
,
0000
0203
0000
0300
,
0001
0001
0001
0110
,
1000
1000
1000
1100
,
0001
0100
0001
1010
,
1000
0100
1000
0011
,
0100
0100
0010
1100
,
0001
0001
0100
1010
,
1000
1100
0001
0101
,
0010
0010
1000
0100
,
0020
0000
0100
0000
,
0032
0000
0100
0000
,
2003
0000
0100
0000
,
3020
0000
0100
0000
,
1030
1000
0100
0100
,
0001
0001
0100
0100
,
1000
0010
0001
0100
,
2000
3000
0020
0130
,
1001
0100
0100
0010
,
1100
0001
0110
0001
,
1010
1000
0101
1000
,
0110
1000
0011
0100
,
1001
0000
0000
0000
;

//---------------dance-single - ----------------
#NOTES:
     dance-single:
     :
     Beginner:
     3:
     0.139233,0.214953,0.060080,0.133511,0.000000,146.000000,137.000000,9.000000,20.000000,0.000000,0.000000,0.139233,0.214953,0.060080,0.133511,0.000000,146.000000,137.000000,9.000000,20.000000,0.000000,0.000000:
0000
0000
0000
0000
,
0000
0000
0000
0000
,
0000
0000
0000
0000
,
0000
0000
0000
0000
,
0000
0000
0000
0000
,
0000
0000
0000
0000
,
0000
0000
0000
0000
,
0000
0000
0000
0000
,
0000
0000
0000
0000
,
0110
0000
0100
0100
,
0100
0000
1000
0000
,
0001
0000
0100
0000
,
0010
0000
1000
0000
,
0002
0000
0003
0000
,
0020
0000
0030
0000
,
1000
0000
1000
0000
,
1000
0000
0001
0000
,
0110
0000
0010
0010
,
0010
0000
0001
0000
,
1000
0000
0010
0000
,
0100
0000
0001
0000
,
2000
0000
3000
0000
,
0200
0000
0300
0000
,
0001
0000
0001
0000
,
0001
0000
1000
0000
,
2002
0000
0000
0000
,
0000
0000
0000
0000
,
3003
0000
0000
0000
,
0000
0000
0000
0000
,
2000
0000
3000
0000
,
0200
0000
0300
0000
,
0001
0000
0010
0000
,
1000
1001
0000
0010
,
0000
0100
0100
0100
,
0000
0001
0000
1000
,
0000
0001
0001
0001
,
0000
1001
0000
0010
,
0000
0100
0000
0010
,
0000
0001
0000
0100
,
0000
0001
0000
1000
,
0000
1001
0000
0010
,
0000
0100
0100
0100
,
0000
1000
0000
0001
,
0000
1000
1000
1000
,
0000
1001
0000
0010
,
0000
0100
0000
0010
,
0000
1000
0000
0100
,
0000
1000
0000
0001
,
0000
2000
0000
0000
,
0000
0000
0000
3000
,
0000
0002
0000
0000
,
0000
0000
0000
0003
,
0000
1000
0000
1000
,
0000
0001
0000
0001
,
0000
0010
0000
1000
,
0000
0020
0000
0030
,
0000
0110
0000
0100
,
0100
0100
0000
1000
,
0000
0001
0000
0100
,
0000
0010
0000
1000
,
0000
0002
0000
0003
,
0000
0020
0000
0030
,
0000
1000
0000
1000
,
0000
1000
0000
0001
,
0000
2000
0000
0000
,
0000
0000
0000
3000
,
0000
0002
0000
0000
,
0000
0000
0000
0003
,
0000
0200
0000
0000
,
0000
0000
0000
0300
,
0000
0020
0000
0000
,
0000
0030
0000
0000
,
1000
0000
1000
0000
,
0001
0000
0001
0000
,
1000
0000
0100
0000
,
0001
0000
0010
0000
,
0001
0001
0001
0000
,
0100
0100
0100
0000
,
1000
0000
0001
0000
,
1000
1000
1000
0000
,
0002
0000
0000
0000
,
0000
0000
0003
0000
,
2000
0000
0000
0000
,
0000
0000
3000
0000
,
0001
0000
0001
0000
,
1000
0000
1000
0000
,
0100
0000
0001
0000
,
0200
0000
0300
0000
,
1000
0000
1000
0000
,
0001
0000
0001
0000
,
0010
0000
0100
0000
,
0010
0000
0100
0000
,
1001
0000
0000
0000
;

//---------------dance-double - ----------------
#NOTES:
     dance-double:
     :
     Challenge:
     13:
     0.499714,0.675567,0.300401,0.440587,0.230307,524.000000,479.000000,45.000000,66.000000,28.000000,0.000000,0.499714,0.675567,0.300401,0.440587,0.230307,524.000000,479.000000,45.000000,66.000000,28.000000,0.000000:
00000000
00000000
00000000
00000000
,
00000000
00000000
00000000
00000000
,
00000000
00000000
00000000
00000000
,
00000000
00000000
00000000
00000000
,
00000000
00000000
00000000
00000000
,
00000000
00000000
00000000
00000000
,
00000000
00000000
00000000
00000000
,
00000000
00000000
00000000
00000000
,
00000000
01000000
01000000
01000000
01000000
00010000
00001000
00000100
,
00000220
00000330
00001001
00000011
,
00002020
00000000
00003030
00000000
00010000
00001000
00010000
00100000
,
10000000
00000000
10000000
01000000
00100000
01000000
10000000
10000000
,
00010000
00000000
10010000
00000000
00010000
01000000
00100000
00010000
,
00002000
00000000
00013000
00100000
02000000
00000000
03001000
00010000
,
00002000
00000000
00003010
00000100
00002000
00000000
00003001
00001000
,
00000010
00000000
00000100
00000001
00000010
00001000
00010000
00000000
,
00210000
00000000
00302000
00000000
00013000
00010000
00100000
01000000
,
02200000
03300000
11000000
01010000
,
00012000
00000000
00003010
00000000
00001000
00000010
00000001
00000000
,
00001001
00000000
00000001
00000100
00000010
00001000
00000100
00000010
,
00000210
00000000
00001300
00000000
00000001
00000100
00001000
00010000
,
00002000
00000000
00103000
01000000
00020000
00000000
01030000
00010000
,
00002000
00000000
00013000
00001000
00000200
00000000
00001300
00000100
,
00000010
00000000
00001000
00000100
00000001
00000100
00001000
00000000
,
00002001
00000000
00003002
00000000
00000103
00000100
00000010
00010000
,
00001000
00001000
00100000
00100000
,
10000000
10000000
00010000
00010000
,
01000000
01000000
10000000
10000000
,
00100000
00000000
00100000
00000000
00010000
00000000
00001000
00010000
,
00002000
00000000
00000000
01003000
00001000
00000000
00010000
00000000
00001000
00000000
00000000
00000000
00010000
00000000
00001000
00000000
,
00020000
00000000
00000000
00030100
00010000
00000000
00001000
00000000
00010000
00000000
00000000
00000000
00000010
00000000
00001000
00000000
,
00000002
00000000
00000013
00000100
00000020
00000000
00001030
00010000
,
MMMMMMMM
00000000
01100000
00000000
00010000
10000000
00100000
01000000
,
01100000
00000000
10000000
01000000
00010000
00001000
00011000
00000000
,
00000100
00000010
00000110
00000100
00000001
00000010
00001000
00000010
,
00000011
00000000
00001000
00000010
00000001
00000010
00001010
00000000
,
00000110
00000001
00000010
00000000
00000100
00001000
00000100
00010000
,
00011000
00000000
00100000
00010000
00100000
00001000
00011000
00000000
,
01000000
00010000
10010000
00000000
10000000
01000000
01100000
01000000
,
20000000
00000000
30010000
01000000
00100000
10000000
10010000
00000000
,
00100000
01000000
02100000
00000000
13000000
00010000
00100000
00001000
,
00021000
00000000
00030010
00000010
00000010
00000000
00001010
00000000
,
00000100
00000010
00000210
00000000
00000301
00001000
00000100
00010000
,
00012000
00000000
01003000
01000000
01000000
00000000
01010000
01000000
,
00100000
10000000
12000000
00000000
03100000
00010000
01000000
00001000
,
00011000
00000000
00100000
00100000
00100000
00000000
00011000
00000000
,
00000100
00001000
00001020
00000000
00000130
00000001
00000010
00000100
,
00000120
00000000
00000000
00000000
00000031
00000000
00000001
00000000
00000100
00000000
00000010
00000000
00010000
00000000
00000100
00001000
,
00000100
00010000
00002000
00000000
00100000
00000000
00000000
00000000
,
00100000
00000000
00010000
00000000
,
00010000
02003000
00100000
00000000
,
00100000
00000000
10000000
00000000
,
10000000
03010000
00010000
10000000
,
10000000
01000000
01000000
00100000
,
00100000
00000000
00000000
00000000
00002000
00000000
00000000
00023000
00000000
00000000
02030000
00000000
23000000
00000000
00000000
30200000
,
00000000
00320000
00032000
00000000
00003000
00000000
00000010
00001000
,
00010000
00100000
02200000
00000000
03300000
00000000
10010000
00000000
,
11000000
00000000
02020000
00000000
03030000
00000000
00001000
00010000
,
00001000
00000100
00000001
00000000
00000001
00000010
00000100
00000010
,
00000001
00000001
00001000
00000000
00001001
00000000
00001000
00000010
,
00000100
00001000
00020000
00000000
00031000
00000100
00000020
00000000
,
00010030
00001000
00020000
00000000
01030000
00100000
00020000
00000000
,
10030000
00010000
01000000
00000000
00100000
10000000
01000000
00010000
,
00001000
00000000
00000102
00000000
00000013
00000100
00000010
00000010
,
00000100
00010000
00021000
00000000
00000000
00000000
00000100
00000000
,
00000000
00000000
0000MMMM
00000000
00000000
00000000
00030010
00000100
,
00001000
00010000
00002000
00000000
00000000
00000000
00100000
00000000
,
00000000
00000000
MMMM0000
00000000
00000000
00000000
01003000
00010000
,
00100000
00100000
00002000
00000000
00000000
00000000
01000000
00000000
,
00000000
00000000
MMMM0000
00000000
00000000
00000000
00103000
01000000
,
00010000
00001000
00020000
00000000
00000000
00000000
00000100
00000000
,
00000000
00000000
00031000
00000100
00000100
00000100
MMMMMMMM
00000000
,
00001000
00000100
00000010
00000100
00001000
00000010
00000100
00001000
00010000
00001000
00000000
00000000
,
00100000
01000000
00100000
00010000
01000000
00100000
00010000
00001000
00010000
00001000
00000000
00000000
,
00010000
01000000
10000000
00010000
00100000
10000000
00100000
00010000
10000000
00100000
00000000
00000000
,
00010000
00001000
00000010
00000001
00001000
00000100
00000001
00000100
00001000
00000001
00000000
00000000
,
00000010
00000100
00000010
00000001
00001000
00000100
00010000
00001000
00100000
00010000
00000000
00010000
,
01000000
00100000
01000000
00010000
10000000
00100000
00010000
00001000
00100000
00010000
00000000
00000000
,
10000000
01000000
00100000
00010000
00000000
00000000
00001000
00000100
00000010
00000001
00000000
00000000
,
00000001
00000000
00000100
00000000
00000010
00000000
00001000
00000000
00020000
00000000
00000000
00000000
01030000
00000000
00000000
00100000
00000000
00000000
10000000
00000000
00000000
00000000
00000000
00000000
,
00012000
00100000
00000000
00100000
,
00000000
00010000
00000000
00010000
,
02003000
00100000
00000000
00100000
,
00000000
10000000
00000000
10000000
,
03010000
00010000
10000000
10000000
,
01000000
01000000
00100000
00100000
,
00002000
00000000
00000000
00023000
00000000
00000000
02030000
00000000
23000000
00000000
00000000
30200000
00000000
00000000
00320000
00000000
,
00032000
00000000
00003000
00100000
00010000
00001000
00000200
00000300
,
00002001
00000000
00000000
00003001
00000100
00000010
00000100
00000001
00001000
00000010
00000100
00000001
,
00000010
00000000
00000000
00001000
00010000
01000000
10000000
00000000
00000000
10000000
01000000
00010000
,
00001000
00000000
00000000
00010000
00001000
00000100
00000001
00000000
00000000
00000001
00000010
00001000
,
00010000
00000000
00000000
00100000
10000000
01000000
00010000
00000000
00000000
00001000
00000100
00000001
,
00000010
00000000
00000000
00000000
;

//---------------dance-double - ----------------
#NOTES:
     dance-double:
     :
     Hard:
     12:
     0.469197,0.552737,0.293725,0.427236,0.020027,492.000000,448.000000,44.000000,64.000000,0.000000,0.000000,0.469197,0.552737,0.293725,0.427236,0.020027,492.000000,448.000000,44.000000,64.000000,0.000000,0.000000:
00000000
00000000
00000000
00000000
,
00000000
00000000
00000000
00000000
,
00000000
00000000
00000000
00000000
,
00000000
00000000
00000000
00000000
,
00000000
00000000
00000000
00000000
,
00000000
00000000
00000000
00000000
,
00000000
00000000
00000000
00000000
,
00000000
00000000
00000000
00000000
,
00000000
00010000
00001000
00010000
00001000
00010000
00001000
00001000
,
00022000
00033000
00110000
11000000
,
02200000
00000000
03300000
00000000
00010000
01000000
00100000
10000000
,
10010000
00000000
10000000
01000000
00010000
00010000
00001000
00000000
,
00021000
00000000
00030010
00000000
00001000
00000001
00000100
00000010
,
00002000
00000000
00003001
00000010
00000002
00000000
00000013
00001000
,
00000020
00000000
00001030
00010000
00002000
00000000
00013000
00100000
,
10000000
00000000
00010000
00100000
10000000
00100000
00010000
00000000
,
20020000
00000000
30030000
00000000
01000000
00100000
00010000
00001000
,
00002200
00003300
00000101
00001001
,
00000022
00000000
00000033
00000000
00000010
00001000
00010000
00000000
,
00011000
00000000
00001000
00100000
00010000
01000000
00100000
10000000
,
00020000
00000000
00130000
00000000
01000000
10000000
00010000
00100000
,
02000000
00000000
13000000
00100000
20000000
00000000
30100000
00010000
,
00200000
00000000
00310000
00001000
00020000
00000000
00031000
00000010
,
00000001
00000000
00001000
00000010
00000001
00000010
00001000
00000000
,
00002001
00000000
00003002
00000000
00000013
00000100
00010000
00001000
,
00010000
00010000
01000000
01000000
,
10000000
10000000
00100000
00100000
,
00010000
00010000
00001000
00001000
,
00000010
00000000
00000010
00000000
00000001
00000000
00001000
00000100
,
00020000
00000000
00030000
00010000
01000000
00000000
10000000
00000000
00010000
00000000
00000000
00000000
00010000
00000000
00100000
00000000
,
00002000
00000000
00003000
00001000
00000010
00000000
00000001
00000000
00001000
00000000
00000000
00000000
00000100
00000000
00001000
00000000
,
00000020
00000000
00000130
00001000
00020000
00000000
01030000
00010000
,
00002000
00003000
00000000
00000000
00000000
00000000
00000000
00000000
00000000
00000000
00000000
00000000
00000000
00000000
00000000
00000000
00011000
00000000
00000000
00000000
00000000
00000000
00000000
00000000
00000000
00000000
00000000
00000000
00000000
00000000
00000000
00000000
00100000
00000000
00000000
00000000
00000000
00000000
00000000
00000000
00010000
00000000
00000000
00000000
00000000
00000000
00000000
00000000
01000000
00000000
00000000
00000000
00000000
00000000
00000000
00000000
00100000
00000000
00000000
00000000
00000000
00000000
00000000
00000000
,
10100000
00000000
10000000
01000000
00100000
00010000
00011000
00000000
,
00100000
00010000
00001000
00000100
00000010
00000100
00001000
00000001
,
00001001
00000000
00001000
00000010
00000100
00000001
00000011
00000000
,
00000010
00000100
00000110
00000000
00010000
00001000
00100000
00001000
,
00011000
00000000
00100000
01000000
10000000
01000000
01100000
00000000
,
10000000
00010000
10010000
00000000
10000000
00100000
00010000
00001000
,
00021000
00000000
00031000
00000010
00000001
00001000
00000001
00000000
,
00000101
00000000
00002001
00000000
00003100
00000010
00000100
00010000
,
00012000
00000000
00103000
01000000
00100000
00001000
00012000
00000000
,
01003000
00100000
02100000
00000000
03001000
00010000
00000010
00001000
,
00001200
00000000
00010300
00001000
00100000
00010000
02010000
00000000
,
03100000
10000000
00020000
00000000
00130000
01000000
10000000
00010000
,
10010000
00000000
10000000
01000000
00010000
00001000
00021000
00000000
,
00031000
00000100
00000002
00000000
00000103
00000010
00001000
00000001
,
00002001
00000000
00003100
00000010
00001000
00010000
00001000
00001000
,
00010000
01000000
20000000
00000000
01000000
00000000
00000000
00000000
,
01000000
00000000
00100000
00000000
,
00100000
30020000
01000000
00000000
,
01000000
00000000
00100000
00000000
,
00100000
10030000
10000000
01000000
,
01000000
00010000
00010000
00001000
,
00010000
00000000
00001000
00000000
00000100
00000000
00000000
00000001
00000000
00000000
00000010
00000000
00001000
00000000
00000000
00010000
,
00000000
00100000
20000000
00000000
30000000
00000000
01000000
00010000
,
00001000
00001000
00022000
00000000
00033000
00000000
00110000
00000000
,
11000000
00000000
02200000
00000000
03300000
00000000
00010000
01000000
,
00100000
10000000
10010000
00000000
10000000
01000000
00010000
00010000
,
00001000
00000000
00021000
00000000
00030010
00000000
00001000
00000001
,
00000100
00000010
00002000
00000000
00003001
00000010
00000002
00000000
,
00000013
00001000
00000020
00000000
00001030
00010000
00002000
00000000
,
00013000
00100000
10000000
00000000
00010000
00100000
10000000
00100000
,
00010000
00000000
20020000
00000000
30030000
00010000
01000000
00100000
,
00010000
00001000
00020000
00000000
00000000
00000000
01000000
00000000
,
00000000
00000000
00032000
00000000
00000000
00000000
00003100
00000010
,
00010000
00002000
00000000
00000100
,
00000000
00000000
00023000
00000000
00000000
00000000
01030000
01000000
,
00100000
00001000
00020000
00000000
00000000
00000000
00100000
00000000
,
00000000
00000000
00032000
00000000
00000000
00000000
00003010
00000100
,
00010000
00002000
00000000
00000010
,
00000000
00000000
00013000
00100000
00010000
00100000
10000000
00000000
,
00010000
00100000
00010000
00100000
01000000
00100000
00001000
00000000
,
00010000
00000010
00010000
00000010
00000100
00000010
00001000
00000000
,
00000001
00000010
00001000
00000010
00000001
00001000
00000010
00000000
,
00000100
00001000
00010000
00001000
00000100
00000001
00001000
00000000
,
00000100
00000010
00001000
00000010
00000100
00000010
00001000
00000000
,
00010000
00100000
01000000
00100000
00010000
00100000
01000000
00000000
,
00100000
10000000
10100000
00000000
10000000
01000000
11000000
00000000
,
10000000
01000000
00010000
01000000
10000000
10000000
00010000
00000000
,
20010000
01000000
00000000
01000000
,
00000000
00100000
00000000
00100000
,
30020000
01000000
00000000
01000000
,
00000000
00100000
00000000
00100000
,
10030000
10000000
01000000
01000000
,
00010000
00000000
00010000
00000000
00001000
00000000
00010000
00001000
,
00000100
00000000
00000000
00000001
00000000
00000000
00000010
00000000
00001000
00000000
00000000
00010000
00000000
00000000
00100000
00000000
,
20000000
00000000
30000000
10000000
01000000
00010000
00002000
00003000
,
00021000
00000000
00031000
00010000
01000000
00010000
00001000
00000100
,
00000001
00000000
00000010
00001000
00000010
00000000
00001000
00010000
,
00001000
00000000
00010000
00100000
00010000
00000000
00100000
10000000
,
00100000
00000000
10000000
01000000
00010000
00000000
00001000
00000100
,
00000001
00000000
00000000
00000000
;

//---------------dance-double - ----------------
#NOTES:
     dance-double:
     :
     Medium:
     9:
     0.380507,0.460614,0.313752,0.367156,0.013351,399.000000,352.000000,47.000000,55.000000,0.000000,0.000000,0.380507,0.460614,0.313752,0.367156,0.013351,399.000000,352.000000,47.000000,55.000000,0.000000,0.000000:
00000000
00000000
00000000
00000000
,
00000000
00000000
00000000
00000000
,
00000000
00000000
00000000
00000000
,
00000000
00000000
00000000
00000000
,
00000000
00000000
00000000
00000000
,
00000000
00000000
00000000
00000000
,
00000000
00000000
00000000
00000000
,
00000000
00000000
00000000
00000000
,
00000000
00000000
00000000
00000000
00100000
00010000
00100000
00000000
,
00022000
00033000
01001000
00010100
,
00022000
00000000
00033000
00000000
00010000
01000000
10000000
00000000
,
10010000
00000000
10000000
00100000
00010000
00000000
00001000
00000000
,
00000220
00000000
00000330
00000000
00001000
00000100
00000010
00000000
,
00000002
00000000
00000003
00000100
00002000
00000000
00003000
00000100
,
00000002
00000000
00000003
00000010
00002000
00000000
00003000
00010000
,
00100000
00000000
10000000
01000000
00100000
00000000
00010000
00000000
,
20020000
00000000
30030000
00000000
01000000
00010000
01000000
00000000
,
00022000
00033000
00101000
00010010
,
00022000
00000000
00033000
00000000
00010000
00100000
10000000
00000000
,
10010000
00000000
10000000
01000000
00010000
00001000
00000010
00000000
,
00000220
00000000
00000330
00000000
00001000
00000010
00000100
00000000
,
00000002
00000000
00000003
00000010
00002000
00000000
00003000
00000010
,
00000002
00000000
00000003
00000100
00002000
00000000
00003000
00010000
,
01000000
00000000
10000000
00100000
01000000
00000000
00010000
00000000
,
20010000
00000000
01000000
00000000
30010000
00100000
00010000
00000000
,
01200000
01000000
01000000
01000000
,
00301000
00001000
00001000
00001000
,
00010000
00010000
00010000
00010000
,
00000010
00000010
00000010
00000010
,
00000200
00000300
00000100
00001000
00010000
00000000
00010000
00000000
,
02000000
03000000
01000000
00010000
00001000
00000000
00001000
00000000
,
00000020
00000000
00000130
00000010
00000002
00000000
00000103
00000010
,
00001000
00000000
00001001
00000000
00000010
00000100
00000010
00000000
,
00001001
00000000
00000100
00001000
00000100
00000000
00011000
00000000
,
00100000
00000000
00010000
01000000
00010000
00000000
00100000
00000000
,
10010000
00000000
01000000
00100000
01000000
00000000
10010000
00000000
,
00010000
01000000
00100000
00000000
01000000
00001000
00010000
00000000
,
00011000
00000000
00010000
00000100
00000010
00000000
00000110
00000000
,
00000100
00001000
00000001
00000000
00000100
00000010
00001000
00000000
,
00000110
00000000
00000001
00001000
00000001
00000000
00000010
00000100
,
00000010
00000000
00001100
00000000
00010000
00001000
00010000
00000000
,
01010000
00000000
00100000
00100000
00100000
00000000
11000000
00000000
,
00010000
00000000
11000000
00000000
00100000
00100000
00100000
00000000
,
00011000
00000000
00000100
00000100
00000100
00000000
00001010
00000000
,
00000001
00000000
00000011
00000000
00000100
00000100
00000100
00000000
,
00011000
00000000
00100000
00100000
00100000
00000000
01010000
00000000
,
00100000
10000000
00100000
00000000
10000000
01000000
10000000
00000000
,
10010000
00000000
00010000
00100000
00010000
00000000
01000000
00001000
,
00010000
00002000
00000000
00000100
,
00000000
00000000
00000000
00000100
,
00000000
00023000
00000000
01000000
,
00000000
00000000
00000000
01000000
,
00000000
00031000
00001000
00100000
,
00100000
01000000
01000000
00020000
,
00030000
00000000
00000000
00000000
00001000
00000000
00000000
00000100
00000000
00000000
00000001
00000000
00000010
00000000
00000000
00001000
,
00000000
00000010
00000002
00000000
00000003
00000000
00000100
00001000
,
00000100
00022000
00033000
00010010
,
00101000
00000000
00022000
00000000
00033000
00000000
00001000
00000010
,
00000001
00000000
00001001
00000000
00000001
00000100
00001000
00000000
,
00010000
00000000
02200000
00000000
03300000
00000000
00010000
00100000
,
01000000
00000000
20000000
00000000
30000000
00100000
00020000
00000000
,
00030000
00100000
20000000
00000000
30000000
01000000
00020000
00000000
,
00030000
00001000
00000100
00000000
00000001
00000010
00000100
00000000
,
00001000
00000000
00002002
00000000
00003003
00000000
00000010
00000001
,
00000100
00002000
00000000
00000100
,
00000000
00000000
00000000
00003100
,
00001000
00020000
00000000
01000000
,
00000000
00000000
00000000
01030000
,
00010000
00002000
00000000
00000010
,
00000000
00000000
00000000
00003010
,
00001000
00020000
00000000
00100000
,
00000000
00230000
02300000
03100000
,
10000000
01000000
10000000
00000000
00010000
00000000
00110000
00000000
,
00001000
00010000
00001000
00000000
00010000
00000000
00001010
00000000
,
00001000
00000001
00000100
00000000
00000001
00000010
00000100
00000000
,
00000010
00001000
00010000
00000000
00001000
00010000
00100000
00000000
,
01000000
00010000
01000000
00000000
00001000
00010000
00001000
00000000
,
00100000
01000000
00100000
00000000
00010000
10000000
00010000
00000000
,
10000000
11000000
00010000
01010000
,
00100000
01000000
00100000
00000000
00010000
00000000
00001000
00000000
,
00020000
00000000
01000000
00000000
,
00000000
00000000
01000000
00000000
,
00032000
00000000
00000100
00000000
,
00000000
00000000
00000100
00000000
,
00013000
00010000
00000010
00000010
,
00000100
00000100
00002000
00003000
,
00010000
00000000
00000000
01000000
00000000
00000000
10000000
00000000
00100000
00000000
00000000
00010000
00000000
00000000
00100000
00000000
,
20000000
00000000
30000000
00000000
01000000
00010000
01000000
00000000
,
20010000
00000000
30100000
01000000
00100000
00000000
10000000
00000000
,
11000000
00000000
01000000
00010000
01000000
00000000
00010000
00001000
,
00010000
00000000
00001000
00000100
00001000
00000000
00000100
00000001
,
00000100
00000000
00000001
00000010
00000001
00000000
00000010
00000100
,
00000110
00000000
00000000
00000000
;

//---------------dance-double - ----------------
#NOTES:
     dance-double:
     :
     Easy:
     6:
     0.282281,0.399199,0.340454,0.480641,0.000000,296.000000,245.000000,51.000000,72.000000,0.000000,0.000000,0.282281,0.399199,0.340454,0.480641,0.000000,296.000000,245.000000,51.000000,72.000000,0.000000,0.000000:
00000000
00000000
00000000
00000000
,
00000000
00000000
00000000
00000000
,
00000000
00000000
00000000
00000000
,
00000000
00000000
00000000
00000000
,
00000000
00000000
00000000
00000000
,
00000000
00000000
00000000
00000000
,
00000000
00000000
00000000
00000000
,
00000000
00000000
00000000
00000000
,
00000000
00000000
00002000
00013000
,
02200000
03300000
00010000
00010000
,
20020000
30030000
00100000
00100000
,
11000000
00010000
10000000
00100000
,
02200000
03300000
10000000
01000000
,
00020000
00030000
00002000
00003000
,
00000200
00000300
00000002
00000003
,
00000010
00000100
00001000
00000010
,
00002002
00003003
00020000
00031000
,
00000220
00000330
00001000
00001000
,
00002002
00003003
00000100
00000100
,
00000011
00001000
00000001
00000100
,
00000220
00000330
00000001
00000010
,
00002000
00003000
00020000
00030000
,
00200000
00300000
20000000
30000000
,
01000000
00100000
00010000
01000000
,
00200000
01300000
02000000
03100000
,
20010000
00000000
01000000
00000000
,
30020000
00000000
01000000
00000000
,
00032000
00000000
00000010
00000000
,
00003002
00000000
00000010
00000000
,
00001003
00000010
00000100
00000000
,
00000001
00000010
00000100
00000000
,
00020000
00030000
00002000
00003000
,
00010000
00022000
00033000
00000100
,
00001001
00000010
00000100
00001001
,
00000000
00000011
00000010
00001000
,
00011000
00010000
00100000
10100000
,
00000000
10010000
00000000
11000000
,
00000000
01000000
00010000
00011000
,
00000000
00001100
00000000
00000010
,
00001010
00000100
00000001
00001001
,
00000000
00000220
00000330
00000001
,
00001001
00000010
00000010
00001100
,
00000000
00002020
00003030
00010000
,
00011000
00100000
00100000
11000000
,
00000000
02200000
03300000
10000000
,
10010000
00100000
00100000
01010000
,
00000000
00220000
00330000
00001000
,
00011000
00000010
00000010
00000101
,
00001000
00000002
00000000
00000010
,
00000000
00002003
00000000
00000100
,
00000000
00003020
00000000
00000100
,
00000000
00020030
00000000
00030000
,
00000000
00001000
00001000
00100000
,
00100000
00010000
00010000
01000000
,
01000000
00100000
10000000
01000000
,
00010000
00002000
00003000
00020000
,
00031000
00000220
00000330
00001000
,
00001000
00002002
00003003
00000100
,
00000100
00000011
00001000
00000001
,
00000100
00000220
00000330
00000001
,
00000010
00002000
00003000
00020000
,
00030000
00200000
00300000
20000000
,
30000000
01000000
00100000
00010000
,
01000000
20020000
30030000
10000000
,
00010000
20000000
00000000
01000000
,
00000000
00000000
00000000
00100000
,
00000000
30020000
00000000
01000000
,
00000000
00000000
00000000
00100000
,
00000000
00032000
00000000
00000100
,
00000000
00000000
00000000
00000010
,
00000000
00003002
00000000
00000100
,
00000000
00002003
00000000
00003000
,
00000002
00000100
00000003
00000110
,
00001000
00000100
00001000
00011000
,
00010000
00010000
01000000
11000000
,
10000000
10000000
00100000
00110000
,
01000000
01000000
01000000
00011000
,
00000010
00000010
00000010
00011000
,
00100000
00110000
00000010
00001010
,
00010000
00001000
00000010
00000110
,
00000002
00000000
00000010
00000000
,
00002003
00000000
00000100
00000000
,
00003020
00000000
00000100
00000000
,
00020030
00000000
00030000
00000000
,
00001000
00001000
00100000
00100000
,
00010000
00010000
01000000
01000000
,
00100000
10000000
01000000
00010000
,
00002000
00003000
00020000
00031000
,
00011000
00010000
01000000
10000000
,
10010000
00100000
00100000
00010000
,
00010000
00001000
00001000
00000100
,
00000100
00000010
00000010
00000100
,
00001001
00000000
00000000
00000000
;
