#TITLE:Sweet Requiem;
#SUBTITLE:;
#ARTIST:REDALiCE & aran;
#TITLETRANSLIT:;
#SUBTITLETRANSLIT:;
#ARTISTTRANSLIT:;
#GENRE:J-Music;
#CREDIT:;
#BANNER:Sweet Requiem.png;
#BACKGROUND:Sweet Requiem-bg.png;
#LYRICSPATH:;
#CDTITLE:../cdtitle.png;
#MUSIC:Sweet Requiem.ogg;
#OFFSET:-0.342000;
#SAMPLESTART:47.077999;
#SAMPLELENGTH:15.000000;
#SELECTABLE:YES;
#BPMS:0.000000=190.000000
,146.000000=95.000000
,158.000000=190.000000
,290.000000=95.000000
,294.000000=190.000000
;
#STOPS:34.000000=0.316000,
145.000000=0.316000,
164.500000=0.316000,
289.000000=0.947000,
316.500000=0.316000
;
#BGCHANGES:-99.000=../bg.avi=1.000=0=0=1=====,
99999=-nosongbg-=1.000=0=0=0 // don't automatically add -songbackground-
;
#KEYSOUNDS:;
#ATTACKS:;

//---------------dance-single - ----------------
#NOTES:
     dance-single:
     :
     Challenge:
     17:
     0.808782,1.090660,0.491951,0.467757,0.798413,702.000000,641.000000,61.000000,58.000000,0.000000,0.000000,0.808782,1.090660,0.491951,0.467757,0.798413,702.000000,641.000000,61.000000,58.000000,0.000000,0.000000:
// measure 0
0000
0000
0000
0000
,  // measure 1
0000
0000
0000
0000
,  // measure 2
0000
0000
0000
0000
,  // measure 3
0000
0000
0000
0000
,  // measure 4
0000
0000
0000
0000
,  // measure 5
0010
1000
0100
1000
2001
0000
3010
1000
,  // measure 6
0100
0010
0100
0000
1000
0000
0001
0100
0001
0000
1000
0000
0010
0100
0010
0000
,  // measure 7
1000
0100
1000
0100
1000
0000
0001
0010
0001
0010
0001
0000
1000
0100
0010
0001
,  // measure 8
0100
0000
0000
0000
0010
0000
0000
0000
1000
0000
0000
0000
0001
0000
0000
0000
0100
0000
0000
0000
0010
0000
0000
0000
0100
0000
0000
0000
0010
0000
0000
0000
2000
3000
0000
0000
0100
0000
0000
0000
0010
0000
0000
0000
0100
0000
0000
0000
0010
0000
0000
0000
0000
0000
0000
0000
0001
0000
0000
0000
0000
0000
0000
0000
,  // measure 9
0100
0001
1002
0000
0013
0001
0100
0010
,  // measure 10
1000
0000
0100
0000
1000
0000
0100
0000
0001
0000
0100
0000
1000
0001
1000
0001
,  // measure 11
1000
0010
0100
0100
0001
0001
1000
0010
,  // measure 12
0100
0001
0010
0010
0100
0010
0001
0001
,  // measure 13
1000
0000
1000
0000
0100
0000
0100
0000
0010
0000
0010
0000
0001
0100
0001
0000
,  // measure 14
1000
0000
0010
0100
0001
0000
1000
0000
0100
0010
0001
0000
1000
0010
1000
0010
,  // measure 15
1000
0000
0001
0100
0001
0100
0001
0000
0100
0010
1000
0100
0010
0001
0010
0001
,  // measure 16
1000
0100
1000
0100
0010
0001
0100
0010
1000
0100
0010
0001
2000
0000
0000
0000
,  // measure 17
0000
0000
0000
0002
,  // measure 18
0000
0000
3000
0200
,  // measure 19
0000
0000
0003
0020
,  // measure 20
0000
0000
0330
0022
,  // measure 21
0033
1000
0200
0000
0300
0000
0220
0000
,  // measure 22
0330
0000
0001
1000
0001
0000
0100
0000
0010
0000
1000
0100
1000
0000
1001
0000
,  // measure 23
0000
0000
0001
0100
0001
0000
0110
0000
0000
0000
0010
0100
0010
0000
1010
0000
,  // measure 24
1001
0000
0000
0000
0011
0000
0000
1001
0000
0000
0101
0000
0220
0000
0000
0000
,  // measure 25
0330
0000
1000
0100
2000
0000
0000
0000
3000
0000
0000
0000
2002
0000
0000
0000
,  // measure 26
3003
0000
0001
0010
0001
0000
0100
0000
0010
0000
1000
0000
0002
0000
0000
0000
,  // measure 27
0003
0020
2000
0000
3000
0000
0002
0000
,  // measure 28
0033
0000
0220
0000
0330
0000
1000
0100
,  // measure 29
1000
0000
0001
0100
0001
0000
0100
0000
0010
0000
1000
0001
1000
0000
0100
0000
,  // measure 30
0010
0000
0001
0010
0001
0000
1000
0000
0100
0000
1000
0000
0010
0100
0010
0100
,  // measure 31
0001
0000
0000
1000
0000
0000
0001
0000
0000
1000
0000
0000
0010
0000
0000
1000
0000
0000
0010
0000
0000
1000
0000
0000
0100
0000
0000
0010
0000
0000
0100
0000
0000
0010
0000
0000
0001
0000
0000
0000
0100
0000
0000
0000
0010
0000
0000
0000
,  // measure 32
1000
0010
0100
0001
0010
0100
0010
0000
0000
2001
0000
0000
,  // measure 33
0100
0100
3100
1002
,  // measure 34
0103
0000
0000
2001
0000
0000
3010
0000
0000
0100
0000
0001
,  // measure 35
0000
0010
0000
0100
0000
1000
0000
0010
0000
0100
0000
0100
,  // measure 36
0000
0000
0000
0000
0000
0000
0000
0000
0000
0000
0000
0000
0000
0000
0000
0000
0100
0000
0000
0000
0000
0000
0000
0000
0000
0000
0000
0000
0000
0000
0000
0000
0000
0000
0000
0000
0000
0000
0000
0000
0000
0000
0000
0000
0000
0000
0000
0000
0220
0000
0000
0330
0000
0000
0000
0000
0000
0000
0000
0000
0000
0000
0000
0000
0000
0000
0000
0000
0000
0000
0000
0000
0000
0000
0000
0000
0000
0000
0000
0000
0000
0000
0000
0000
0000
0000
0000
0000
0000
0000
0000
0000
0000
0000
0000
0000
2002
0000
0000
0000
0000
0000
0000
0000
0000
0000
0000
0000
0000
0000
0000
0000
0000
0000
0000
0000
0000
0000
0000
0000
3003
0000
0000
0000
0000
0000
0000
0000
0000
0000
0000
0000
0100
0000
0000
0000
0000
0000
0000
0000
0000
0000
0000
0000
2200
0000
0000
0000
0000
0000
0000
0000
0000
0000
0000
0000
0000
0000
0000
0000
0000
0000
0000
0000
0000
0000
0000
0000
3300
0000
0000
0000
0000
0000
0000
0000
0000
0000
0000
0000
0000
0000
0000
0000
0000
0000
0000
0000
0000
0000
0000
0000
,  // measure 37
0002
0000
0000
0000
0003
0000
0100
0001
0100
0000
0001
0000
1000
0000
0010
0000
0220
0000
0000
0000
0330
0000
1000
0000
0200
0000
0000
0000
0300
0000
0000
0000
,  // measure 38
0022
0000
0033
1000
0020
0000
0030
0000
0120
0000
0130
0001
2000
0000
3000
0000
,  // measure 39
0012
0000
0000
0000
0003
0000
0100
0001
0100
0000
0010
0000
1000
0000
0100
0000
0010
0000
0000
0000
0001
0000
0000
0000
1000
0000
0000
0000
0001
0000
0100
0000
,  // measure 40
0001
0100
0001
0000
0100
0000
0010
0000
1010
0000
1000
0000
1100
0000
0100
0000
,  // measure 41
0110
0000
0001
0010
0001
0000
0100
0000
0010
0000
1000
0100
1000
0000
0100
0000
,  // measure 42
0010
0000
0001
0000
1000
0000
0010
0000
0100
0000
0010
1000
0010
0000
1000
0000
,  // measure 43
0100
0000
1000
0000
0001
0000
0010
0000
1000
0000
1000
0000
0010
0000
0001
0010
,  // measure 44
0000
0010
0100
0000
1000
0000
0100
0010
0001
0000
1000
0000
0001
0000
0100
0010
,  // measure 45
0000
0100
0010
0000
1000
0000
0010
0000
1000
0000
0001
0100
0001
0000
0100
0000
,  // measure 46
0010
0000
1000
0000
0100
0000
0010
0000
0100
0000
0010
0001
0010
0000
0100
0000
,  // measure 47
1000
0000
0001
0000
1000
0100
1000
0000
0001
0010
0001
0000
0100
0001
0100
0000
,  // measure 48
0010
0100
0010
0000
1000
0100
0010
0001
1000
0100
0010
0001
1000
0000
0000
1100
,  // measure 49
0000
0101
2002
0000
0000
0000
0000
0000
,  // measure 50
0000
0000
0000
0000
,  // measure 51
0003
0020
0000
0000
,  // measure 52
3000
0002
0000
0000
,  // measure 53
0030
2000
0000
0000
,  // measure 54
0003
0200
0000
0000
,  // measure 55
3000
0002
0000
0000
,  // measure 56
0303
2002
0000
0000
,  // measure 57
3003
0000
0000
0000
1010
0000
0000
0000
1100
0000
0000
0000
0011
0000
0000
0110
,  // measure 58
0000
0000
0011
0000
0000
0000
0001
0000
0100
0000
0000
0000
1010
0000
0000
0110
,  // measure 59
0000
0000
1010
0000
1000
0000
0000
0000
0100
0000
0000
0000
1010
0000
0000
1001
,  // measure 60
0000
0000
0011
0000
0000
0000
0100
1000
0001
0000
0000
0000
0011
0000
0000
0110
,  // measure 61
0000
0000
0011
0000
0100
0000
1000
0100
1000
0000
0001
0000
0101
0000
0000
0110
,  // measure 62
0000
0000
1010
0000
0000
0000
0001
0100
0001
0000
1000
0000
1001
0000
0000
1100
,  // measure 63
0000
0000
0011
0000
1000
0000
0001
0000
0100
0000
0010
0000
1010
0000
0000
0011
,  // measure 64
0000
0000
0000
0110
0000
0000
0100
0000
0100
0000
0001
0000
0100
0000
0100
0000
1000
0000
0001
0000
0100
0000
0010
0000
,  // measure 65
1000
0000
0000
1000
0100
0010
0001
0010
0100
1000
0100
0010
,  // measure 66
0001
0000
0000
0001
0100
0010
1000
0010
0100
0001
0100
0010
,  // measure 67
1000
0000
0000
1000
0100
0010
0001
1000
0100
0010
0001
0100
,  // measure 68
0010
0000
0000
1000
0010
0100
0001
1000
0010
0100
0001
0010
,  // measure 69
0100
0000
0000
1000
0100
0010
0001
0010
0100
0001
0100
0010
,  // measure 70
0001
0010
0100
1000
0100
0010
0001
0100
0010
0100
1000
0100
,  // measure 71
0001
0100
0010
1000
0100
0001
1000
0010
0001
1000
0010
0001
,  // measure 72
1000
0000
0000
0000
0000
0000
0000
0000
0000
0000
0000
0000
0000
0000
0000
0000
0100
0000
0000
0000
0000
0000
0000
0000
0000
0000
0000
0000
0000
0000
0000
0000
0001
0000
0000
0000
0000
0000
0000
0000
0000
0000
0000
0000
0000
0000
0000
0000
0020
0000
0000
0030
0000
0000
0000
0000
0000
0000
0000
0000
0000
0000
0000
0000
0000
0000
0000
0000
0000
0000
0000
0000
0000
0000
0000
0000
0000
0000
0000
0000
0000
0000
0000
0000
0000
0000
0000
0000
0000
0000
0000
0000
0000
0000
0000
0000
0220
0000
0000
0000
0000
0000
0000
0000
0000
0000
0000
0000
0000
0000
0000
0000
0000
0000
0000
0000
0000
0000
0000
0000
0330
0000
0000
0000
0000
0000
0000
0000
0000
0000
0000
0000
0001
0000
0000
0000
0000
0000
0000
0000
0000
0000
0000
0000
0202
0000
0000
0000
0000
0000
0000
0000
0000
0000
0000
0000
0000
0000
0000
0000
0000
0000
0000
0000
0000
0000
0000
0000
0303
0000
0000
0000
0000
0000
0000
0000
0000
0000
0000
0000
0000
0000
0000
0000
0000
0000
0000
0000
0000
0000
0000
0000
,  // measure 73
2200
0000
0000
0000
3300
0000
0001
1000
0001
0000
0100
0000
0010
0000
1000
0000
0001
0000
0000
0000
0010
0000
0000
0000
1000
0000
0000
0000
0010
0000
0001
0000
,  // measure 74
0010
0000
0100
0000
0010
0000
0001
0000
1000
0000
0100
0010
0100
0000
0010
0000
,  // measure 75
0001
0000
1000
0100
0000
0010
0001
0000
1000
0000
0100
0000
1000
0000
0010
1000
,  // measure 76
0010
0000
0100
0000
0001
0000
1000
0000
0010
0000
0100
0000
0001
0000
0010
0100
,  // measure 77
0010
0100
1000
0001
1000
0100
0001
1000
,  // measure 78
0010
0000
0001
0000
0010
0100
0010
0000
0001
0000
1000
0000
0100
0000
0010
0000
,  // measure 79
0001
0000
0100
0000
1001
0000
0001
0000
0100
0000
0010
1000
0010
0000
0100
0000
,  // measure 80
1000
0000
0100
0000
0010
0000
1000
0000
0100
0000
0010
0100
0010
0000
1000
0000
,  // measure 81
0010
0000
0001
0000
1000
0100
1000
0100
1000
0000
0001
0000
0100
0000
0001
0100
,  // measure 82
0000
0010
1000
0000
0100
0000
0010
0000
0100
0000
1000
0100
1000
0000
0100
0010
,  // measure 83
0000
0100
0010
0000
0001
0000
0010
0000
0001
0000
1000
0100
1000
0000
0001
0000
,  // measure 84
0100
0000
0010
0000
1000
0000
1000
0000
0100
0000
0100
0010
0100
0000
0010
0100
,  // measure 85
0010
0000
0001
0000
0010
0100
0010
0100
1000
0001
1000
0001
0100
0001
0100
0001
,  // measure 86
0100
0010
0100
0010
1000
0100
0010
0001
0100
0010
1000
0100
0010
0000
0000
0101
,  // measure 87
0000
1100
1001
0000
0000
0000
0000
0000
;

//---------------dance-single - ----------------
#NOTES:
     dance-single:
     :
     Hard:
     15:
     0.705092,0.844382,0.258073,0.395174,0.544372,612.000000,580.000000,32.000000,49.000000,0.000000,0.000000,0.705092,0.844382,0.258073,0.395174,0.544372,612.000000,580.000000,32.000000,49.000000,0.000000,0.000000:
// measure 0
0000
0000
0000
0000
,  // measure 1
0000
0000
0000
0000
,  // measure 2
0000
0000
0000
0000
,  // measure 3
0000
0000
0000
0000
,  // measure 4
0000
0000
0000
0000
,  // measure 5
1000
0100
0010
0100
2001
0000
3100
1000
,  // measure 6
0001
0001
0010
1000
1000
0010
0001
0001
,  // measure 7
1000
0100
1000
0000
0001
0000
1000
0100
1000
0000
0010
0000
0100
0001
0100
0000
,  // measure 8
0010
0000
0000
0000
0100
0000
0000
0000
0010
0000
0000
0000
0000
0000
0000
0000
1000
0000
0000
0000
0000
0000
0000
0000
0100
0000
0000
0000
0000
0000
0000
0000
0020
0030
0000
0000
0000
0000
0000
0000
0100
0000
0000
0000
0000
0000
0000
0000
1000
0000
0000
0000
0000
0000
0000
0000
0001
0000
0000
0000
0000
0000
0000
0000
,  // measure 9
0100
0010
2010
0000
3001
0010
0001
1000
,  // measure 10
0100
0000
0010
0000
0001
0000
0001
0000
1000
0000
0100
0000
1000
0010
1000
0010
,  // measure 11
1000
0001
0100
0010
1000
0001
0100
0010
,  // measure 12
0100
0010
1000
0001
0010
0100
1000
1000
,  // measure 13
0100
0100
0010
0010
0001
0001
1000
1000
,  // measure 14
0100
0000
0001
0000
0001
0000
0100
0000
1000
0000
0001
0000
1000
0100
1000
0000
,  // measure 15
0001
0000
0100
0001
0100
0000
0010
0000
1000
0100
1000
0000
0002
0000
0023
0000
,  // measure 16
0230
2300
3200
0320
0032
2003
3020
0000
,  // measure 17
0000
0000
0000
0230
,  // measure 18
0000
0000
0000
0302
,  // measure 19
0000
0000
0000
0023
,  // measure 20
0000
0000
0030
0220
,  // measure 21
0330
1000
0002
0000
0003
0000
0202
0000
,  // measure 22
0303
0000
0001
0100
0001
0000
0100
0000
0010
0000
1000
0000
1100
0000
0100
0000
,  // measure 23
0000
0001
0101
0100
0000
1000
0100
0010
,  // measure 24
0010
0000
0000
0000
0011
0000
0000
1100
0000
0000
0101
0000
0020
0000
0000
0000
,  // measure 25
0030
0000
1000
0100
2000
0000
0000
0000
3000
0000
0000
0000
0020
0000
0000
0000
,  // measure 26
0030
0000
0100
0001
0100
0000
0010
0000
1000
0000
0100
0000
2000
0000
0000
0000
,  // measure 27
3001
0000
0000
0000
0100
0000
0000
0100
0000
0000
0100
0000
0010
0000
1000
0000
,  // measure 28
0001
0000
0000
0000
0010
0000
0000
0010
0000
0000
0010
0000
0100
0000
1000
0000
,  // measure 29
0100
1000
0001
1000
0100
1000
0010
0100
,  // measure 30
0010
0000
0100
0000
1000
0000
0100
0000
0010
0000
0100
0000
0001
0100
0001
0000
,  // measure 31
0100
0000
0000
0000
0000
0000
0010
0000
0000
0000
0000
0000
1000
0000
0000
0100
0000
0000
1000
0000
0000
0000
0000
0000
0100
0000
0000
0000
0000
0000
0010
0000
0000
0000
0000
0000
0100
0000
0000
0000
0100
0000
0000
0000
0100
0000
0000
0000
,  // measure 32
0010
0010
0010
0001
0001
0001
0100
0000
0000
0110
0000
0000
,  // measure 33
0010
0010
0010
1000
,  // measure 34
1000
0000
0000
0100
0000
0000
0100
0000
0000
0001
0000
0100
,  // measure 35
0000
1000
0000
0010
0000
0001
0000
1000
0000
0100
0000
0001
,  // measure 36
0000
0000
0000
0000
0000
0000
0000
0000
0000
0000
0000
0000
0000
0000
0000
0000
0010
0000
0000
0000
0000
0000
0000
0000
0000
0000
0000
0000
0000
0000
0000
0000
0000
0000
0000
0000
0000
0000
0000
0000
0000
0000
0000
0000
0000
0000
0000
0000
0200
0000
0000
0300
0000
0000
0000
0000
0000
0000
0000
0000
0000
0000
0000
0000
0000
0000
0000
0000
0000
0000
0000
0000
0000
0000
0000
0000
0000
0000
0000
0000
0000
0000
0000
0000
0000
0000
0000
0000
0000
0000
0000
0000
0000
0000
0000
0000
0220
0000
0000
0000
0000
0000
0000
0000
0000
0000
0000
0000
0000
0000
0000
0000
0000
0000
0000
0000
0000
0000
0000
0000
0330
0000
0000
0000
0000
0000
0000
0000
0000
0000
0000
0000
0001
0000
0000
0000
0000
0000
0000
0000
0000
0000
0000
0000
2000
0000
0000
0000
0000
0000
0000
0000
0000
0000
0000
0000
0000
0000
0000
0000
0000
0000
0000
0000
0000
0000
0000
0000
3000
0000
0000
0000
0000
0000
0000
0000
0000
0000
0000
0000
0000
0000
0000
0000
0000
0000
0000
0000
0000
0000
0000
0000
,  // measure 37
0020
0000
0000
0000
0030
0000
0100
0001
0100
0000
0010
0000
1000
0000
0100
0000
0020
0000
0000
0000
0030
0000
0001
0000
2000
0000
0000
0000
3000
0000
0000
0000
,  // measure 38
0202
0000
0303
0010
0002
0000
0003
0000
0110
0000
0110
1000
0002
0000
0003
0000
,  // measure 39
0020
0000
0000
0000
0030
0000
0100
1000
0100
0000
0010
0000
0001
0000
0100
0000
0010
0000
0000
0000
1000
0000
0000
0000
0100
0000
0000
0000
0010
0000
0001
0000
,  // measure 40
0010
0001
0010
0000
0100
0000
1000
0000
0001
0000
0001
0000
0100
0000
0100
0000
,  // measure 41
0010
0000
0010
0100
0010
0000
1000
0000
0001
0000
0100
0001
0100
0000
0010
0000
,  // measure 42
1000
0000
0001
0000
0010
0000
0100
0000
0010
0000
0100
1000
0100
0000
0010
0000
,  // measure 43
0001
0000
1000
0000
0001
0000
0100
0000
0010
0000
1000
0000
0100
0000
0010
0001
,  // measure 44
0000
0010
0001
0000
1000
0000
0100
0000
0010
0000
0001
0000
0100
0000
0010
0100
,  // measure 45
0000
0010
0100
0000
0001
0000
1000
0000
0001
0000
1000
0000
0100
0000
1000
0000
,  // measure 46
0100
1000
0001
0001
0010
0001
0100
0100
,  // measure 47
0010
0000
1000
0000
0001
0010
0001
0000
0010
0000
0100
0000
1000
0100
1000
0000
,  // measure 48
0100
0000
0010
0000
0001
0100
0010
1000
0001
0100
0010
1000
0001
0000
0000
1000
,  // measure 49
0000
0001
0220
0000
0000
0000
0000
0000
,  // measure 50
0000
0000
0000
0000
,  // measure 51
0330
0002
0000
0000
,  // measure 52
0000
0203
0000
0000
,  // measure 53
0000
0320
0000
0000
,  // measure 54
0000
2030
0000
0000
,  // measure 55
0000
3200
0000
0000
,  // measure 56
0000
0310
0000
0000
,  // measure 57
0000
0000
0000
0000
0001
0000
0000
0000
0001
0000
0000
0000
1100
0000
0000
0001
,  // measure 58
0000
0000
0101
0000
0000
0000
0100
0000
0010
0000
0000
0000
1010
0000
0000
0100
,  // measure 59
0000
0000
0011
0000
1000
0000
0000
0000
1000
0000
0000
0000
0101
0000
0000
1000
,  // measure 60
0000
0000
1100
0000
0000
0000
0100
0000
0010
0000
0000
0000
0011
0000
0000
0100
,  // measure 61
0000
0000
1010
0000
1000
0000
0100
0000
1000
0000
1000
0000
1001
0000
0000
0010
,  // measure 62
0000
0000
0101
0000
0000
0000
0010
0000
0100
0000
0001
0000
0101
0000
0000
1000
,  // measure 63
0000
0000
1100
0000
1000
0000
0100
0000
0010
0000
0001
0000
1001
0000
0000
0100
,  // measure 64
0000
0000
0000
1010
0000
0000
1000
0000
0001
0000
0100
0000
0010
0000
1000
0000
0001
0000
0010
0000
0100
0000
0010
0000
,  // measure 65
0001
0000
0000
1000
0100
1000
0100
0010
0100
1000
0100
0010
,  // measure 66
0001
0000
0000
0100
0010
0100
0010
1000
0010
0100
0001
1000
,  // measure 67
0001
0000
0000
0010
0100
0010
0100
1000
0100
0010
0001
1000
,  // measure 68
0001
0000
0000
1000
0010
1000
0010
0100
0010
1000
0010
0100
,  // measure 69
0001
0000
0000
1000
0100
0010
0001
0000
0001
1000
0001
0100
,  // measure 70
0010
0000
0010
1000
0001
0010
0001
0000
0001
0010
0001
1000
,  // measure 71
0100
0000
0100
0010
0100
0010
0001
0100
0001
0100
0010
0100
,  // measure 72
0010
0000
0000
0000
0000
0000
0000
0000
0000
0000
0000
0000
0000
0000
0000
0000
1000
0000
0000
0000
0000
0000
0000
0000
0000
0000
0000
0000
0000
0000
0000
0000
0001
0000
0000
0000
0000
0000
0000
0000
0000
0000
0000
0000
0000
0000
0000
0000
0020
0000
0000
0030
0000
0000
0000
0000
0000
0000
0000
0000
0000
0000
0000
0000
0000
0000
0000
0000
0000
0000
0000
0000
0000
0000
0000
0000
0000
0000
0000
0000
0000
0000
0000
0000
0000
0000
0000
0000
0000
0000
0000
0000
0000
0000
0000
0000
0220
0000
0000
0000
0000
0000
0000
0000
0000
0000
0000
0000
0000
0000
0000
0000
0000
0000
0000
0000
0000
0000
0000
0000
0330
0000
0000
0000
0000
0000
0000
0000
0000
0000
0000
0000
1000
0000
0000
0000
0000
0000
0000
0000
0000
0000
0000
0000
0002
0000
0000
0000
0000
0000
0000
0000
0000
0000
0000
0000
0000
0000
0000
0000
0000
0000
0000
0000
0000
0000
0000
0000
0003
0000
0000
0000
0000
0000
0000
0000
0000
0000
0000
0000
0000
0000
0000
0000
0000
0000
0000
0000
0000
0000
0000
0000
,  // measure 73
0202
0000
0000
0000
0303
0000
0100
0010
0100
0000
0010
0000
1000
0000
0001
0000
0010
0000
0000
0000
0100
0000
0000
0000
1000
0000
0000
0000
0100
0000
0000
0000
,  // measure 74
0010
0001
1000
0010
0100
0001
1000
0001
,  // measure 75
0010
0000
0100
0010
0000
0100
0010
0000
0001
0000
1000
0000
0100
0000
1000
0000
,  // measure 76
0001
0000
1000
0000
0010
0000
0100
0000
0001
0000
0010
0000
1000
0000
0010
0100
,  // measure 77
0010
0001
1000
0100
0010
0001
0100
0001
,  // measure 78
0100
1000
0100
0001
1000
0010
0100
0001
,  // measure 79
0010
0100
1000
0001
1000
0100
0010
0001
,  // measure 80
0010
0001
0100
0001
0100
0001
1000
0010
,  // measure 81
0100
0000
0001
0000
0010
0100
0010
0100
0010
0000
0001
0000
0100
0000
0010
1000
,  // measure 82
0000
0010
1000
0000
0100
0000
1000
0000
0001
0000
0010
0000
0100
0000
1000
0001
,  // measure 83
0000
1000
0001
0000
1000
0000
0100
0000
0010
0000
0000
0000
0001
0000
0100
0000
,  // measure 84
0010
0000
0100
0001
0100
0001
1000
1000
,  // measure 85
0100
0000
0100
0000
0010
0001
0010
0000
0100
0000
1000
0000
0001
0100
0001
0000
,  // measure 86
0100
0000
0010
0000
1000
0100
0010
0001
0010
0100
1000
0001
1000
0000
0000
0001
,  // measure 87
0000
0100
0110
0000
0000
0000
0000
0000
;

//---------------dance-single - ----------------
#NOTES:
     dance-single:
     :
     Medium:
     13:
     0.604858,0.738834,0.266138,0.354850,0.282267,525.000000,492.000000,33.000000,44.000000,0.000000,0.000000,0.604858,0.738834,0.266138,0.354850,0.282267,525.000000,492.000000,33.000000,44.000000,0.000000,0.000000:
// measure 0
0000
0000
0000
0000
,  // measure 1
0000
0000
0000
0000
,  // measure 2
0000
0000
0000
0000
,  // measure 3
0000
0000
0000
0000
,  // measure 4
0000
0000
0000
0000
,  // measure 5
0010
1000
0001
0000
1010
0000
0001
0010
,  // measure 6
0001
0100
0001
1000
0100
1000
0010
0100
,  // measure 7
0001
0010
0001
1000
0010
1000
0100
0010
,  // measure 8
0001
0000
0000
0000
0000
0000
0000
0000
0100
0000
0000
0000
0000
0000
0000
0000
0010
0000
0000
0000
0000
0000
0000
0000
1000
0000
0000
0000
0000
0000
0000
0000
0002
0003
0000
0000
0000
0000
0000
0000
0000
0000
0000
0000
0000
0000
0000
0000
0100
0000
0000
0000
0000
0000
0000
0000
0001
0000
0000
0000
0000
0000
0000
0000
,  // measure 9
1000
0000
0101
0000
1000
0100
0010
0001
,  // measure 10
1000
0000
0011
0000
0001
0100
0010
0100
,  // measure 11
0010
1000
0100
0000
0100
0010
0001
0010
,  // measure 12
0001
1000
0100
0010
0001
0000
1000
0100
,  // measure 13
1000
0000
0100
0001
0100
0000
1000
0100
,  // measure 14
1000
0001
0100
0001
0010
0100
1000
0010
,  // measure 15
1000
0001
0010
0001
0100
0010
1000
0100
,  // measure 16
0010
0001
1000
0100
0010
0001
2000
0000
,  // measure 17
0000
0000
0000
3002
,  // measure 18
0000
0000
0000
0203
,  // measure 19
0000
0000
0000
0320
,  // measure 20
0000
0000
0030
2002
,  // measure 21
3003
0001
0020
0000
0030
0000
2002
0000
,  // measure 22
3003
1000
0100
0001
0100
1000
0001
0001
,  // measure 23
0000
0100
1000
1000
0000
1000
0100
0001
,  // measure 24
0010
0000
0000
0000
0110
0000
0000
0100
0000
0000
1000
0000
0002
0000
0000
0000
,  // measure 25
0003
0010
0200
0000
0300
0000
2000
0000
,  // measure 26
3000
0100
0010
0001
0100
0010
2000
0000
,  // measure 27
3000
0001
0020
0000
0030
0000
0200
0000
,  // measure 28
0300
0000
0220
0000
0330
0000
0001
0100
,  // measure 29
0001
0100
0010
1000
0010
1000
0100
1000
,  // measure 30
0100
1000
0001
0010
0001
0010
0001
0100
,  // measure 31
0010
0000
0000
0100
0000
0000
0001
0000
0000
1000
0000
0000
0010
0000
0000
0100
0000
0000
0001
0000
0100
0000
0001
0000
,  // measure 32
0100
0010
0100
0010
1000
0100
0010
0000
0000
0110
0000
0000
,  // measure 33
0100
0100
0100
1000
,  // measure 34
1000
0000
0000
0001
0000
0000
0001
0000
0000
0010
0000
0100
,  // measure 35
0000
1000
0000
0100
0000
0010
0000
0001
0000
0100
0000
0010
,  // measure 36
0000
0000
0000
0000
0000
0000
0000
0000
0000
0000
0000
0000
0000
0000
0000
0000
1000
0000
0000
0000
0000
0000
0000
0000
0000
0000
0000
0000
0000
0000
0000
0000
0000
0000
0000
0000
0000
0000
0000
0000
0000
0000
0000
0000
0000
0000
0000
0000
0002
0000
0000
0003
0000
0000
0000
0000
0000
0000
0000
0000
0000
0000
0000
0000
0000
0000
0000
0000
0000
0000
0000
0000
0000
0000
0000
0000
0000
0000
0000
0000
0000
0000
0000
0000
0000
0000
0000
0000
0000
0000
0000
0000
0000
0000
0000
0000
2002
0000
0000
0000
0000
0000
0000
0000
0000
0000
0000
0000
0000
0000
0000
0000
0000
0000
0000
0000
0000
0000
0000
0000
3003
0000
0000
0000
0000
0000
0000
0000
0000
0000
0000
0000
0001
0000
0000
0000
0000
0000
0000
0000
0000
0000
0000
0000
0200
0000
0000
0000
0000
0000
0000
0000
0000
0000
0000
0000
0000
0000
0000
0000
0000
0000
0000
0000
0000
0000
0000
0000
0300
0000
0000
0000
0000
0000
0000
0000
0000
0000
0000
0000
0000
0000
0000
0000
0000
0000
0000
0000
0000
0000
0000
0000
,  // measure 37
0020
0000
0030
1000
0100
0010
0001
0100
0002
0000
0003
0100
0020
0000
0030
0000
,  // measure 38
2020
0000
3030
0001
0020
0000
0030
0000
0220
0000
0330
1000
0002
0000
0003
0000
,  // measure 39
0020
0000
0030
0001
0100
0010
1000
0001
1000
0000
0100
0000
0010
0000
0001
0000
,  // measure 40
1000
0001
0100
0001
1000
1000
0010
0010
,  // measure 41
0001
0010
1000
0100
1000
0100
0010
0001
,  // measure 42
1000
0001
0100
0010
0100
0010
1000
0010
,  // measure 43
0100
0000
0001
0000
1000
0000
0100
0000
0010
0000
0100
0000
1000
0000
0000
1000
,  // measure 44
0000
0000
1000
0000
0001
0000
0010
0000
0100
0000
1000
0000
0010
0000
0000
0010
,  // measure 45
0000
0010
0100
0001
1000
0000
0100
0010
,  // measure 46
0001
0000
0010
0001
1000
0000
0010
0100
,  // measure 47
0001
0000
0100
0010
1000
0001
0100
0010
,  // measure 48
1000
0000
0001
0000
0010
0000
0100
0000
0010
0000
0100
0000
0010
0000
0000
0010
,  // measure 49
0000
1100
0002
0000
0000
0000
0000
0000
,  // measure 50
0000
0000
0000
0000
,  // measure 51
0000
0203
0000
0000
,  // measure 52
0000
2300
0000
0000
,  // measure 53
0000
3020
0000
0000
,  // measure 54
0000
0032
0000
0000
,  // measure 55
0000
0203
0000
0000
,  // measure 56
0000
0310
0000
0000
,  // measure 57
0000
0000
0000
0000
0100
0000
0000
0000
0100
0000
0000
0000
1010
0000
0000
1100
,  // measure 58
0000
0000
1010
0000
0000
0000
0001
0000
0010
0000
0000
0000
0101
0000
0000
1100
,  // measure 59
0000
0000
0101
0000
0010
0000
0000
0000
0010
0000
0000
0000
1100
0000
0000
1010
,  // measure 60
0000
0000
1100
0000
0000
0000
0001
0000
0100
0000
0000
0000
0011
0000
0000
1010
,  // measure 61
0000
0000
0011
0000
0001
0000
0001
0000
0100
0000
0000
0000
1010
0000
0000
0001
,  // measure 62
0000
0000
1100
0000
0000
0000
0100
0000
0010
0000
0001
0000
0011
0000
0000
1000
,  // measure 63
0000
0000
0101
0000
0001
0000
0100
0000
0010
0000
1000
0000
1001
0000
0000
0010
,  // measure 64
0000
0000
0000
1001
0000
0000
0001
0000
0100
0000
0001
0000
1000
0000
0010
0000
1000
0000
0001
0000
0010
0000
0100
0000
,  // measure 65
0010
0000
0000
0001
0000
0001
0010
0000
0010
0001
0000
0001
,  // measure 66
0100
0000
0000
0010
0000
0010
1000
0000
1000
0001
0000
0001
,  // measure 67
0100
0000
0000
0010
0000
0010
1000
0000
1000
0001
0000
0001
,  // measure 68
1000
0000
0000
0100
0000
0100
0010
0000
0010
0001
0000
0001
,  // measure 69
1000
0000
0000
0001
0000
1000
0010
0000
0000
0100
0000
0010
,  // measure 70
1000
0000
0000
0001
0000
1000
0100
0000
0000
0010
0000
0100
,  // measure 71
1000
0000
0000
0001
0000
0010
1000
0000
0010
0001
0000
0100
,  // measure 72
0010
0000
0000
0000
0000
0000
0000
0000
0000
0000
0000
0000
0000
0000
0000
0000
0000
0000
0000
0000
0000
0000
0000
0000
0000
0000
0000
0000
0000
0000
0000
0000
1000
0000
0000
0000
0000
0000
0000
0000
0000
0000
0000
0000
0000
0000
0000
0000
0002
0000
0000
0003
0000
0000
0000
0000
0000
0000
0000
0000
0000
0000
0000
0000
0000
0000
0000
0000
0000
0000
0000
0000
0000
0000
0000
0000
0000
0000
0000
0000
0000
0000
0000
0000
0000
0000
0000
0000
0000
0000
0000
0000
0000
0000
0000
0000
2002
0000
0000
0000
0000
0000
0000
0000
0000
0000
0000
0000
0000
0000
0000
0000
0000
0000
0000
0000
0000
0000
0000
0000
3003
0000
0000
0000
0000
0000
0000
0000
0000
0000
0000
0000
0001
0000
0000
0000
0000
0000
0000
0000
0000
0000
0000
0000
0020
0000
0000
0000
0000
0000
0000
0000
0000
0000
0000
0000
0000
0000
0000
0000
0000
0000
0000
0000
0000
0000
0000
0000
0030
0000
0000
0000
0000
0000
0000
0000
0000
0000
0000
0000
0000
0000
0000
0000
0000
0000
0000
0000
0000
0000
0000
0000
,  // measure 73
0220
0000
0330
1000
0001
0100
0010
1000
0001
0000
0010
0000
0001
0000
0010
0000
,  // measure 74
0100
0010
0001
0100
0010
1000
0100
0001
,  // measure 75
0100
0000
1000
0100
0000
1000
0100
0000
1000
0000
0001
0000
0100
0000
0010
0000
,  // measure 76
1000
0001
1000
0010
0100
0001
0100
0001
,  // measure 77
0010
1000
0010
0001
1000
0100
1000
0100
,  // measure 78
0001
0100
1000
0001
1000
0010
0100
0001
,  // measure 79
1000
0100
0010
0001
0010
0001
0100
0001
,  // measure 80
0100
0001
1000
0010
1000
0010
0100
0001
,  // measure 81
0010
0000
0100
0000
0010
0000
0010
0000
0010
0000
0001
0000
1000
0000
0100
1000
,  // measure 82
0000
0100
1000
0000
0001
0000
0010
0000
0100
0000
1000
0000
0001
0000
0100
0010
,  // measure 83
0000
0100
0010
0000
1000
0000
0001
0000
0010
0000
0000
0000
0001
0000
0100
0000
,  // measure 84
0010
0000
1000
1000
0100
0000
0001
0100
,  // measure 85
0100
0000
1000
0100
1000
0100
0010
0001
,  // measure 86
0010
0000
0001
0000
1000
0000
0100
0000
0010
0000
0001
0000
0100
0000
0000
0010
,  // measure 87
0000
1000
1001
0000
0000
0000
0000
0000
;

//---------------dance-single - ----------------
#NOTES:
     dance-single:
     :
     Easy:
     9:
     0.359459,0.492556,0.233879,0.516146,0.000000,312.000000,283.000000,29.000000,64.000000,0.000000,0.000000,0.359459,0.492556,0.233879,0.516146,0.000000,312.000000,283.000000,29.000000,64.000000,0.000000,0.000000:
// measure 0
0000
0000
0000
0000
,  // measure 1
0000
0000
0000
0000
,  // measure 2
0000
0000
0000
0000
,  // measure 3
0000
0000
0000
0000
,  // measure 4
0000
0000
0000
0000
,  // measure 5
0100
0100
2001
3100
,  // measure 6
0010
0000
0001
0100
0000
1000
0100
0000
,  // measure 7
0010
0000
1000
0100
0000
0001
0100
0000
,  // measure 8
0010
0100
0110
0100
,  // measure 9
0100
1002
0103
0010
,  // measure 10
0010
0000
1002
0000
0013
0000
0100
0010
,  // measure 11
0100
1000
1000
0001
,  // measure 12
0010
1000
0010
0001
,  // measure 13
0001
1000
0100
0010
,  // measure 14
0001
0100
0000
1000
0100
0000
0010
0000
,  // measure 15
1000
0100
0000
0001
0100
0000
2000
0000
,  // measure 16
3200
0302
0023
2030
,  // measure 17
0000
0000
0000
3200
,  // measure 18
0000
0000
0000
0320
,  // measure 19
0000
0000
0000
0032
,  // measure 20
0000
0000
0003
1001
,  // measure 21
0000
0100
0000
1001
,  // measure 22
0000
0010
1000
1100
,  // measure 23
0000
0101
0000
0000
,  // measure 24
0100
0110
0100
1002
,  // measure 25
0000
2003
0000
3020
,  // measure 26
0000
0130
0001
2000
,  // measure 27
0000
3200
0000
2300
,  // measure 28
0000
3020
0000
0130
,  // measure 29
0100
0001
0001
0010
,  // measure 30
0100
0010
0100
1000
,  // measure 31
0100
0001
0100
1000
,  // measure 32
1000
1000
1001
0200
,  // measure 33
0010
0010
0310
0200
,  // measure 34
1300
0200
0301
0020
,  // measure 35
0230
0320
0230
2300
,  // measure 36
3002
0000
0103
0000
0220
0330
2000
0000
,  // measure 37
3200
0000
0310
0100
2000
0000
3020
0000
,  // measure 38
0032
0000
0203
0300
1100
1000
0020
0000
,  // measure 39
0230
0000
0310
1000
0100
0000
0010
0000
,  // measure 40
0001
0100
0110
1001
,  // measure 41
0110
1001
0010
1000
,  // measure 42
1000
0100
1000
0010
,  // measure 43
1000
0100
0100
0010
,  // measure 44
0100
1000
1000
0001
,  // measure 45
0100
0010
0010
1000
,  // measure 46
1000
0001
0100
0010
,  // measure 47
1000
0100
0100
0010
,  // measure 48
0010
0001
0100
0010
,  // measure 49
0010
0220
0000
0000
,  // measure 50
0000
0000
0000
0000
,  // measure 51
0000
0330
0000
0000
,  // measure 52
0000
0000
0000
0000
,  // measure 53
0000
0200
0000
0000
,  // measure 54
0000
0302
0000
0000
,  // measure 55
0000
2003
0000
0000
,  // measure 56
0000
3001
0000
0000
,  // measure 57
0000
0010
0010
1001
,  // measure 58
0010
0000
0100
1001
,  // measure 59
0100
0001
0001
0110
,  // measure 60
0001
0000
1000
0110
,  // measure 61
1000
0010
0010
0100
,  // measure 62
0110
0000
0100
0010
,  // measure 63
0110
1000
1000
0100
,  // measure 64
1001
0002
0023
0032
,  // measure 65
0103
0010
0010
0020
,  // measure 66
0031
0010
0010
0020
,  // measure 67
1030
0100
0100
0200
,  // measure 68
0301
0100
0100
0200
,  // measure 69
1300
0002
0013
0020
,  // measure 70
0130
0200
1300
2000
,  // measure 71
3001
2000
3200
0320
,  // measure 72
0032
1003
1001
0100
,  // measure 73
0110
0000
0010
1000
0001
0000
0100
0000
,  // measure 74
0001
0100
0010
1000
,  // measure 75
0001
0011
0100
0010
,  // measure 76
0100
1000
0100
0010
,  // measure 77
0001
0100
0010
0100
,  // measure 78
0010
1000
0001
0010
,  // measure 79
0100
0010
0100
0001
,  // measure 80
0100
1000
0100
0010
,  // measure 81
0001
0100
0100
1000
,  // measure 82
0100
0001
0001
0010
,  // measure 83
0001
1000
1000
0001
,  // measure 84
0001
0100
0010
1000
,  // measure 85
0100
0020
0230
0320
,  // measure 86
0032
0203
0320
2030
,  // measure 87
3000
1001
0000
0000
;

//---------------dance-single - ----------------
#NOTES:
     dance-single:
     :
     Beginner:
     5:
     0.190098,0.316643,0.120972,0.129036,0.000000,165.000000,150.000000,15.000000,16.000000,0.000000,0.000000,0.190098,0.316643,0.120972,0.129036,0.000000,165.000000,150.000000,15.000000,16.000000,0.000000,0.000000:
// measure 0
0000
0000
0000
0000
,  // measure 1
0000
0000
0000
0000
,  // measure 2
0000
0000
0000
0000
,  // measure 3
0000
0000
0000
0000
,  // measure 4
0000
0000
0000
0000
,  // measure 5
0010
0000
0010
0000
,  // measure 6
1000
0000
0010
0000
,  // measure 7
0001
0000
0100
0000
,  // measure 8
0020
0000
0030
0100
,  // measure 9
0000
0100
0000
0001
,  // measure 10
0000
0001
0000
0010
,  // measure 11
0010
0100
0000
1000
,  // measure 12
1000
1000
0000
0001
,  // measure 13
0000
0001
0000
0010
,  // measure 14
0010
0100
0000
0010
,  // measure 15
0001
1000
0000
0020
,  // measure 16
0000
0000
0030
0110
,  // measure 17
0000
0000
0000
0000
,  // measure 18
0000
0000
0000
0000
,  // measure 19
0000
0000
0000
0000
,  // measure 20
0000
0000
0000
1001
,  // measure 21
0000
0000
0000
0110
,  // measure 22
0000
0000
0000
1001
,  // measure 23
0000
1001
0000
0000
,  // measure 24
0010
0010
0000
0020
,  // measure 25
0000
0030
0000
0002
,  // measure 26
0000
0003
0000
0200
,  // measure 27
0000
0300
0000
2000
,  // measure 28
0000
3000
0000
0010
,  // measure 29
0000
1000
0000
0100
,  // measure 30
0000
0001
0000
0100
,  // measure 31
0000
0100
0000
0100
,  // measure 32
0010
0100
0000
1000
,  // measure 33
0000
0000
0000
1000
,  // measure 34
0000
0001
0000
0100
,  // measure 35
0000
0100
0000
0100
,  // measure 36
0000
1001
0200
0000
,  // measure 37
0300
0000
0002
0003
,  // measure 38
0020
0030
0200
0300
,  // measure 39
2000
3000
0020
0000
,  // measure 40
0030
0000
0100
0100
,  // measure 41
0100
0010
0000
1000
,  // measure 42
0000
0001
0000
0010
,  // measure 43
0000
0100
0000
0100
,  // measure 44
0000
1000
0000
1000
,  // measure 45
0000
0001
0010
0001
,  // measure 46
0000
0100
0000
0010
,  // measure 47
0000
1000
0000
0100
,  // measure 48
0000
0010
0010
0010
,  // measure 49
0000
2002
0000
0000
,  // measure 50
0000
0000
0000
0000
,  // measure 51
0000
3003
0000
0000
,  // measure 52
0000
0000
0000
0000
,  // measure 53
0000
0200
0000
0000
,  // measure 54
0000
0000
0000
0300
,  // measure 55
0000
0020
0000
0000
,  // measure 56
0000
0030
0000
0000
,  // measure 57
0000
0001
0000
1001
,  // measure 58
0000
0000
0100
0100
,  // measure 59
0000
0010
0000
0110
,  // measure 60
0000
0000
1000
1000
,  // measure 61
0000
0100
0000
0110
,  // measure 62
0000
0000
0001
0001
,  // measure 63
0000
1000
0000
1001
,  // measure 64
0000
0010
0100
0010
,  // measure 65
0000
1000
0000
1000
,  // measure 66
0000
0100
0000
0100
,  // measure 67
0000
0001
0000
0001
,  // measure 68
0000
0010
0000
0010
,  // measure 69
0000
1000
0000
0100
,  // measure 70
0000
0001
0000
0010
,  // measure 71
0000
1000
0000
0100
,  // measure 72
0000
0010
0110
0000
,  // measure 73
1001
0110
0001
0000
,  // measure 74
0001
0000
0010
0000
,  // measure 75
0010
0000
1000
0000
,  // measure 76
0001
0000
0100
0000
,  // measure 77
0010
0000
0100
0000
,  // measure 78
1000
0000
0010
1000
,  // measure 79
0010
0100
0000
0001
,  // measure 80
0000
1000
0000
0100
,  // measure 81
0000
0010
0000
0010
,  // measure 82
0000
0001
0000
0001
,  // measure 83
0000
1000
0100
1000
,  // measure 84
0000
0010
0000
0100
,  // measure 85
0000
0001
0000
0010
,  // measure 86
0000
0100
0100
0100
,  // measure 87
0000
1001
0000
0000
;
