#TITLE:Sugar Free;
#SUBTITLE:;
#ARTIST:T-ARA;
#TITLETRANSLIT:;
#SUBTITLETRANSLIT:;
#ARTISTTRANSLIT:;
#GENRE:K-Pop;
#CREDIT:;
#BANNER:Sugar Free.png;
#BACKGROUND:Sugar Free-bg.png;
#LYRICSPATH:;
#CDTITLE:../cdtitle.png;
#MUSIC:Sugar Free.ogg;
#OFFSET:1.336000;
#SAMPLESTART:105.538002;
#SAMPLELENGTH:15.000000;
#LASTBEATHINT:0.716800;
#SELECTABLE:YES;
#BPMS:0.000000=128.000000
;
#STOPS:
;
#BGCHANGES:2.625=Sugar Free.avi=1.000=0=0=0=StretchNoLoop====,
99999=-nosongbg-=1.000=0=0=0 // don't automatically add -songbackground-
;
#KEYSOUNDS:;
#ATTACKS:;

//---------------dance-single - ----------------
#NOTES:
     dance-single:
     :
     Beginner:
     3:
     0.120050,0.184170,0.000000,0.054976,0.000000,107.000000,107.000000,0.000000,7.000000,0.000000,0.000000,0.120050,0.184170,0.000000,0.054976,0.000000,107.000000,107.000000,0.000000,7.000000,0.000000,0.000000:
0000
0000
0000
0000
,
0000
0000
0000
0000
,
0000
0000
0000
0000
,
0000
0000
0000
0000
,
0000
0000
0000
0000
,
0100
0000
0000
0000
,
0100
0000
0000
0000
,
0010
0000
0000
0000
,
0010
0000
0000
0000
,
1000
0000
1000
0000
,
1000
1000
1000
0000
,
0001
0000
0001
0000
,
0002
0000
0000
0000
,
0003
0000
0000
0000
,
1000
0000
1000
0000
,
1000
1000
1000
0000
,
0001
0000
0001
0000
,
0001
0001
0001
0000
,
0010
0000
0010
0000
,
0010
0010
0010
0000
,
0100
0000
0100
0000
,
0100
0100
0100
0000
,
1000
0000
0000
0000
,
1000
0000
0000
0000
,
0010
0000
0000
0000
,
0001
0000
0000
0000
,
1000
0000
0000
0000
,
1000
0000
0000
0000
,
0100
0000
0000
0000
,
0001
0000
0000
0000
,
1000
0000
0001
0000
,
1000
0000
0001
0000
,
0001
0000
1000
0000
,
0001
0000
1000
0000
,
0100
0000
0010
0000
,
0100
0000
0010
0000
,
0001
0000
1000
0000
,
0010
0000
0100
0000
,
0020
0000
0030
0000
,
1000
1000
1000
0000
,
1000
1000
1000
0000
,
0001
0001
0001
0000
,
0001
0001
0001
0000
,
1000
0000
0010
0000
,
0100
0000
0001
0000
,
2000
0000
3000
0000
,
0001
0000
0010
0000
,
2000
0000
0000
0000
,
3000
0000
0000
0000
,
0010
0000
0000
0000
,
0010
0000
0000
0000
,
0100
0000
0000
0000
,
0100
0000
0000
0000
,
1000
0000
1000
0000
,
1000
1000
1000
0000
,
0002
0000
0000
0000
,
0003
0000
0000
0000
,
1000
1000
1000
0000
,
1000
1000
1000
0000
,
0001
0001
0001
0000
,
0001
0001
0001
0000
,
1000
0000
0100
0000
,
0010
0000
0001
0000
,
2000
0000
3000
0000
,
0001
0000
0100
0000
,
2000
0000
0000
0000
,
0000
0000
0000
0000
,
3000
0000
0000
0000
;

//---------------dance-single - ----------------
#NOTES:
     dance-single:
     :
     Challenge:
     15:
     0.682153,0.868230,0.329857,0.196343,0.604737,608.000000,566.000000,42.000000,25.000000,0.000000,0.000000,0.682153,0.868230,0.329857,0.196343,0.604737,608.000000,566.000000,42.000000,25.000000,0.000000,0.000000:
// measure 0
0000
0000
0000
0000
,  // measure 1
0000
0000
0000
0000
,  // measure 2
0000
0000
0000
0000
,  // measure 3
0000
0000
0000
0000
,  // measure 4
0000
0000
0000
0000
,  // measure 5
1001
0000
1000
0100
0001
0100
1000
0000
1000
0010
0000
0010
,  // measure 6
0001
0000
0001
0010
1000
0001
0010
0000
0010
0100
1000
0001
,  // measure 7
1000
0000
1000
0010
0001
0010
1000
0000
1000
0001
0000
0001
,  // measure 8
0010
0000
0000
0000
0010
0000
1000
0000
0010
0000
0001
0000
1000
0100
1000
0000
0001
0000
1000
0000
0010
0000
0100
0000
,  // measure 9
0010
0000
1000
0000
0100
0000
0010
0000
0000
1000
0000
0000
0010
0000
0001
0000
0100
0000
0010
0000
0000
0001
0000
0000
,  // measure 10
0010
0000
1000
0000
0100
0000
0010
0000
0001
0000
0100
0000
0010
0000
1000
0000
0100
0000
0010
0000
0000
1000
0000
0000
,  // measure 11
0010
0000
0100
0000
1000
0000
0010
0000
0000
0100
0000
0000
0010
0000
0100
0000
0001
0000
0010
0000
0000
0100
0000
0000
,  // measure 12
1000
0100
0010
0001
1000
0100
0010
0001
1000
0100
0010
0001
1000
0100
0010
0001
,  // measure 13
0200
0000
0300
1010
,  // measure 14
0011
0001
0010
1000
0010
0001
0010
1000
,  // measure 15
0010
0001
1000
0100
1000
0010
0210
0000
,  // measure 16
0301
0100
1000
0100
0001
0100
1000
0100
,  // measure 17
0001
0100
0001
0000
0010
0000
0100
0000
1000
0001
1000
0000
2001
0000
0000
0000
,  // measure 18
3100
1000
0100
0001
0100
1000
0100
0001
,  // measure 19
0100
0000
0010
0001
0010
1000
0010
0000
0001
0000
0100
0000
0120
0000
0000
0000
,  // measure 20
1030
0010
0001
0010
1000
0010
0001
0010
,  // measure 21
1000
0010
1000
0000
0100
0001
0100
0000
1000
0001
1000
0001
0020
0000
0000
0000
,  // measure 22
0130
1000
0010
1000
0100
0001
0100
1000
,  // measure 23
0010
0100
0010
1000
0001
0010
0100
0010
,  // measure 24
0001
0100
0010
1000
0002
0100
0103
0001
,  // measure 25
0010
0100
1000
0100
0010
0001
1001
0000
,  // measure 26
0100
0001
0010
0001
0100
1000
0100
0001
,  // measure 27
0010
0100
0010
0001
1000
0010
0100
0010
,  // measure 28
1000
0100
0020
0001
0031
2000
0100
3100
,  // measure 29
1000
0010
0100
0001
0100
0010
1000
0001
,  // measure 30
2002
3003
0101
0001
0011
0001
0101
0001
,  // measure 31
2002
3003
1100
1000
1010
1000
1100
1000
,  // measure 32
2002
3003
0101
0001
0011
0001
0101
0001
,  // measure 33
1001
0000
0001
0000
0010
0000
0100
1000
0001
0000
1000
0000
0010
0000
0100
0000
,  // measure 34
0101
0000
0001
0000
0010
0000
1000
0010
1000
0000
0010
0000
0001
0000
1000
0000
,  // measure 35
1010
0000
1000
0000
0100
0000
0001
0100
0001
0000
0100
0000
1000
0000
0001
0000
,  // measure 36
0100
0010
1000
0100
0010
0000
0001
0000
0100
0010
0000
0100
0001
1000
0010
0000
,  // measure 37
1000
0100
0010
0001
1000
0100
0010
0001
1000
0010
0100
0001
1000
0010
0100
0001
,  // measure 38
0020
0100
0100
0130
,  // measure 39
0011
0000
0001
1000
0010
0000
0001
0000
0010
0000
1000
0000
1001
0000
0001
0000
,  // measure 40
0101
0000
0100
0010
1000
0000
0100
0000
0001
0000
0100
0000
1100
0000
1000
0000
,  // measure 41
1010
0000
1000
0001
0010
0000
1000
0000
0010
0000
0001
0000
1001
0000
1000
0000
,  // measure 42
1100
0000
0100
0010
0001
0000
0100
0000
1000
0000
0100
0000
0101
0000
0001
0000
,  // measure 43
0011
0000
0001
1000
0000
0010
0100
0010
0100
0000
1000
0000
0100
0000
0010
0000
,  // measure 44
1000
0000
0001
0010
0000
0100
0001
0100
0001
0000
0100
0000
0010
0000
0001
0000
,  // measure 45
1000
0000
0010
0000
0100
0000
0010
1000
0000
1000
0100
0000
0010
0000
0001
1000
,  // measure 46
0001
0000
0001
0000
1000
0000
1000
0000
0010
0100
0001
0100
0010
1000
0100
0010
,  // measure 47
0002
0010
2003
0100
,  // measure 48
3002
0010
0203
0310
,  // measure 49
1001
0000
0001
0100
1000
0100
0001
0000
0001
0010
0000
0010
,  // measure 50
1000
0000
1000
0010
0001
1000
0010
0000
0010
0100
0001
1000
,  // measure 51
0001
0000
0001
0010
1000
0010
0001
0000
0001
1000
0000
1000
,  // measure 52
0010
0000
0000
0000
0010
0000
0001
0000
0010
0000
1000
0000
0001
0100
0001
0000
1000
0000
0001
0000
0010
0000
0100
0000
,  // measure 53
1000
0100
1000
0100
1000
0100
1000
0100
1000
0100
1000
0100
1000
0100
1000
0100
,  // measure 54
0010
0001
0010
0001
0010
0001
0010
0001
0010
0001
0010
0001
0010
0001
0010
0001
,  // measure 55
1000
0100
0010
0001
1000
0100
1000
0001
0100
0010
1000
0010
0100
0001
1000
0010
,  // measure 56
2000
0100
0000
0000
3100
0000
0000
0000
0002
0100
0003
0000
0101
0000
0000
0000
,  // measure 57
1100
0000
1000
0001
0100
0000
1000
0000
0100
0000
0001
0000
1001
0000
1000
0000
,  // measure 58
1010
0000
0010
0100
0001
0000
0010
0000
1000
0000
0010
0000
0011
0000
0001
0000
,  // measure 59
0101
0000
0001
1000
0100
0000
0001
0000
0100
0000
1000
0000
1001
0000
0001
0000
,  // measure 60
0011
0000
0010
0100
1000
0000
0010
0000
0001
0000
0010
0000
1010
0000
1000
0000
,  // measure 61
1100
0000
1000
0001
0000
0100
0010
0100
0010
0000
0001
0000
0010
0000
0100
0000
,  // measure 62
0001
0000
1000
0100
0000
0010
1000
0010
1000
0000
0010
0000
0100
0000
1000
0000
,  // measure 63
0001
0000
0100
0000
0010
0000
0100
0001
0000
0001
0010
0000
0100
0000
1000
0001
,  // measure 64
1000
0000
1000
0000
0001
0000
0001
0000
0100
0010
1000
0010
0100
0001
0010
0100
,  // measure 65
2000
0100
3002
0010
,  // measure 66
2003
0100
3020
0100
,  // measure 67
0030
0000
0000
0000
;

//---------------dance-single - ----------------
#NOTES:
     dance-single:
     :
     Medium:
     9:
     0.394931,0.420960,0.212051,0.070684,0.000000,352.000000,325.000000,27.000000,9.000000,0.000000,0.000000,0.394931,0.420960,0.212051,0.070684,0.000000,352.000000,325.000000,27.000000,9.000000,0.000000,0.000000:
0000
0000
0000
0000
,
0000
0000
0000
0000
,
0000
0000
0000
0000
,
0000
0000
0000
0000
,
0000
0000
0000
0000
,
0001
0010
0011
0011
,
1000
0010
0100
0001
,
1000
0100
1100
1100
,
0001
0100
0010
1000
,
0001
0010
0001
0000
1000
0100
1000
0000
,
0001
0100
0010
0100
0001
0100
0010
0000
,
1000
0010
1000
0000
0001
0100
0001
0000
,
1000
0100
0010
0001
1000
0100
0010
0001
,
0200
0000
0000
0300
,
0001
0010
0100
0010
0001
0010
1000
0010
,
0001
1000
0010
0100
0010
1000
0002
0000
,
1003
0100
0010
0100
1000
0100
0001
0100
,
1000
1000
0001
1000
0010
0100
0002
0000
,
1003
0100
0010
0100
1000
0100
0001
0100
,
1000
0001
0100
0010
0100
0001
2000
0000
,
3001
0010
0100
0010
0001
0010
1000
0010
,
0001
0001
1000
0001
0100
0010
2000
0000
,
3001
0010
1000
0010
,
0001
0010
1000
0010
,
0001
0100
0010
0000
1000
0100
0010
0000
,
0100
1000
0001
0000
0100
0000
1010
0000
,
1000
0100
0001
0100
,
1000
0100
0001
0100
,
1000
0010
0100
0000
0001
0010
0100
0000
,
0010
0001
1000
0000
0010
0000
0100
0000
,
1010
0000
0101
0000
0001
0010
0100
0000
,
0011
0000
1100
0000
1000
0010
0100
0000
,
0101
0000
0011
0000
0001
1000
0010
0000
,
1000
0100
1000
0001
0010
0001
0100
0000
,
0101
0000
1010
0000
1000
0100
0010
0000
,
1100
0000
0011
0000
0001
0100
0010
0000
,
1000
0100
1000
0000
0001
0010
0001
0000
,
1000
0010
0100
0001
1000
0010
0100
0001
,
0020
0000
0000
0030
,
0001
0100
1000
0100
0001
0000
0101
0000
,
1000
0100
0001
0100
1000
0000
1100
0000
,
0001
0010
1000
0010
0001
0000
0011
0000
,
1000
0010
0001
0010
1000
0000
1010
0000
,
0001
0000
0010
0000
1000
0100
0001
0000
,
1000
0000
0010
0000
0001
0100
1000
0000
,
0001
0100
0010
0000
1000
0100
0010
0000
,
0001
1000
0100
0010
0100
1000
0001
0100
,
0020
0000
0000
0000
,
0000
0000
0000
0030
,
1000
0100
1100
1100
,
0001
0100
0010
1000
,
0001
0010
0011
0011
,
1000
0010
0100
0001
,
1000
0100
1000
0000
0001
0010
0001
0000
,
1000
0010
0100
0010
1000
0010
0100
0000
,
0001
0010
0100
1000
0001
0010
0100
1000
,
0020
0000
0000
0030
,
1000
0100
0001
0100
1000
0000
1100
0000
,
0001
0100
1000
0100
0001
0000
0101
0000
,
1000
0010
0001
0010
1000
0000
1010
0000
,
0001
0010
1000
0010
0001
0000
0011
0000
,
1000
0000
0010
0000
0001
0100
1000
0000
,
0001
0000
0010
0000
1000
0100
0001
0000
,
1000
0100
0010
0000
0001
0100
0010
0000
,
1000
0001
0100
0010
0100
0001
1000
0100
,
0020
0000
0000
0000
,
0000
0000
0000
0000
,
0030
0000
0000
0000
;

//---------------dance-single - ----------------
#NOTES:
     dance-single:
     :
     Easy:
     6:
     0.289466,0.368340,0.259173,0.125660,0.000000,258.000000,225.000000,33.000000,16.000000,0.000000,0.000000,0.289466,0.368340,0.259173,0.125660,0.000000,258.000000,225.000000,33.000000,16.000000,0.000000,0.000000:
0000
0000
0000
0000
,
0000
0000
0000
0000
,
0000
0000
0000
0000
,
0000
0000
0000
0000
,
0000
0000
0000
0000
,
1000
0001
1000
1000
,
0001
0100
0010
1000
,
0001
1000
0001
0001
,
1000
0100
0010
0001
,
1000
1100
0001
0011
,
1000
0001
1000
1100
,
1000
1010
0001
0101
,
1000
0100
0001
0010
,
2002
0000
0000
3003
,
0001
1000
0010
0010
,
1000
0100
0001
0100
,
1000
0001
0010
0010
,
0001
0100
1000
0110
,
1000
0001
0100
0100
,
0001
0010
1000
0010
,
0001
1000
0100
0100
,
1000
0010
0001
0110
,
0001
1000
0001
1000
,
0001
0100
1000
0100
,
0001
0001
1000
1000
,
0100
0010
0001
1001
,
1000
0001
1000
0001
,
1000
0010
0001
0010
,
1000
1000
0001
0001
,
0010
0100
1000
0001
,
2000
0100
0010
0100
,
3002
0100
0010
0100
,
2003
0100
0010
0010
,
3001
0100
1000
0010
,
0002
0100
0010
0100
,
2003
0100
0010
0100
,
3002
0100
0013
0100
,
1000
0001
1000
0001
,
2002
0000
0000
3003
,
1000
0010
0001
1010
,
0001
0010
1000
0011
,
1000
0100
0001
1100
,
0001
0100
1000
0101
,
1000
1100
0001
0011
,
1000
1010
0001
0101
,
1000
0100
0001
0010
,
0100
0100
0100
0100
,
2002
0000
0000
0000
,
0000
0000
0000
3003
,
0001
1000
0001
0001
,
1000
0010
0100
0001
,
1000
0001
1000
1000
,
0001
0010
0100
1000
,
0010
0101
0010
1100
,
0100
0011
0100
1010
,
0001
0001
1000
1000
,
2002
0000
0000
3003
,
1000
0010
0001
1010
,
0001
0010
1000
0011
,
1000
0100
0001
1100
,
0001
0100
1000
0101
,
1000
1100
0001
0011
,
1000
1010
0001
0101
,
1000
0100
0001
0010
,
0100
0100
0100
0100
,
2002
0000
0000
0000
,
0000
0000
0000
0000
,
3003
0000
0000
0000
;

//---------------dance-single - ----------------
#NOTES:
     dance-single:
     :
     Hard:
     13:
     0.569957,0.605130,0.219904,0.219904,0.412321,508.000000,480.000000,28.000000,28.000000,0.000000,0.000000,0.569957,0.605130,0.219904,0.219904,0.412321,508.000000,480.000000,28.000000,28.000000,0.000000,0.000000:
0000
0000
0000
0000
,
0000
0000
0000
0000
,
0000
0000
0000
0000
,
0000
0000
0000
0000
,
0000
0000
0000
0000
,
1001
0000
1000
0100
1000
0100
0010
0000
0010
0001
0000
0001
,
0100
0000
0100
1000
0100
0010
1000
0000
1000
0100
0010
0001
,
1000
0000
1000
0010
1000
0010
0100
0000
0100
0001
0000
0001
,
0010
0000
0000
0000
0010
0000
1000
0000
0010
0000
0100
0000
1000
0100
1000
0000
0001
0000
0100
0000
0010
0000
1000
0000
,
0001
0000
0010
0000
0200
0000
2000
0000
0000
3300
0000
0000
1000
0000
0100
0000
0020
0000
0002
0000
0000
0033
0000
0000
,
0001
0000
0010
0000
0100
0000
1000
0000
0100
0000
0010
0000
0001
0000
0010
0000
0200
0000
2000
0000
0000
3300
0000
0000
,
1000
0000
0010
0000
0200
0000
0002
0000
0000
0303
0000
0000
0001
0000
0100
0000
0020
0000
2000
0000
0000
3030
0000
0000
,
2000
0100
0000
0000
0010
0000
0000
0000
3002
0100
0000
0000
0010
0000
0000
0000
,
2003
0100
0000
0000
3010
0000
0000
0000
0002
0100
0003
0000
0011
0000
0000
0000
,
1010
0010
0001
0010
1000
0010
0001
0010
,
1000
0100
0010
0100
1000
0010
0120
0000
,
1030
0100
0001
0100
1000
0100
0001
0100
,
1000
0100
1000
0000
0001
0000
1000
0000
0010
0100
0010
0000
2010
0000
0000
0000
,
3001
0010
1000
0010
0001
0010
1000
0010
,
0001
0000
0100
0010
0000
1000
0100
0000
0010
0000
0100
0000
0120
0000
0000
0000
,
0031
0100
1000
0100
0001
0100
1000
0100
,
0001
0100
0001
0000
1000
0100
1000
0000
0001
0100
0010
0000
1010
0000
0000
0000
,
1000
0100
0010
0100
1000
0100
0001
0100
,
1000
0001
1000
0010
0100
0010
1000
0001
,
1000
0100
0001
0200
0300
0100
1000
0001
,
1000
0010
0100
0001
0010
0100
0011
0000
,
0001
0010
0100
0010
0001
0010
1000
0010
,
0001
1000
0001
0100
0010
0100
0001
1000
,
0002
0003
0010
2000
3000
0010
0001
2000
,
3000
0001
0100
0010
1000
0100
0010
0100
,
1100
0000
0011
0001
1000
0010
0100
0001
,
0101
0000
1010
0001
0010
0100
1000
0001
,
0011
0000
1100
1000
0001
0100
0010
0000
,
0100
0000
0001
0000
0010
0000
0100
0010
0000
0100
0010
0000
0001
0000
1000
0000
,
1010
0010
0100
0010
1000
0100
0010
0001
,
0010
0100
1000
0010
0100
0010
1000
0001
,
1000
0000
0100
0000
0010
0000
0100
0000
1000
0001
0000
0010
0000
0010
0100
0000
,
1000
0100
0000
0000
0001
0100
0000
0000
1000
0100
0000
0000
0001
0100
0000
0000
,
2100
0010
0010
3010
,
0110
0000
0000
0010
1000
0000
0100
0000
0001
0000
0000
0000
1100
0000
1000
0000
,
0010
0000
0000
0010
0001
0000
0010
0000
1000
0000
0000
0000
1100
0000
0100
0000
,
0010
0000
0000
0010
0001
0000
0100
0000
1000
0000
0000
0000
0101
0000
0001
0000
,
0010
0000
0000
0010
1000
0000
0010
0000
0001
0000
0000
0000
0101
0000
0100
0000
,
0010
0000
0000
0010
1000
0000
0100
0000
0001
0000
1000
0000
0001
0000
0100
0000
,
0010
0000
0000
0010
0001
0000
0100
0000
1000
0000
0001
0000
1000
0000
0100
0000
,
0010
0000
1000
0000
0001
0000
0010
0100
0000
0100
0010
0000
0001
0000
0001
0000
,
1000
1000
0100
0001
0100
1000
0010
0001
,
0020
0001
1000
0001
,
0230
1000
0001
0310
,
1001
0000
0001
0010
0001
0010
0100
0000
0100
1000
0000
1000
,
0010
0000
0010
0001
0010
0100
0001
0000
0001
0010
0100
1000
,
0001
0000
0001
0100
0001
0100
0010
0000
0010
1000
0000
1000
,
0100
0000
0000
0000
0100
0000
0001
0000
0100
0000
0010
0000
0001
0010
0001
0000
1000
0000
0010
0000
0100
0000
0001
0000
,
1000
0100
1000
0100
0010
0001
0010
0001
,
1000
0010
1000
0010
0100
0001
0100
0001
,
1000
0100
0000
0100
0001
0000
0001
0010
0000
0010
1000
0000
0001
1000
0001
0000
,
2000
0100
0000
0000
3010
0000
0000
0000
0002
0100
0003
0000
0011
0000
0000
0000
,
0110
0000
0000
0010
0001
0000
0100
0000
1000
0000
0000
0000
0101
0000
0001
0000
,
0010
0000
0000
0010
1000
0000
0010
0000
0001
0000
0000
0000
0101
0000
0100
0000
,
0010
0000
0000
0010
1000
0000
0100
0000
0001
0000
0000
0000
1100
0000
1000
0000
,
0010
0000
0000
0010
0001
0000
0010
0000
1000
0000
0000
0000
1100
0000
0100
0000
,
0010
0000
0000
0010
0001
0000
0100
0000
1000
0000
0001
0000
1000
0000
0100
0000
,
0010
0000
0000
0010
1000
0000
0100
0000
0001
0000
1000
0000
0001
0000
0100
0000
,
0010
0000
0001
0000
1000
0000
0010
0100
0000
0100
0010
0000
1000
0000
1000
0000
,
0001
0001
0100
1000
0100
0001
0010
1000
,
0020
1000
0001
1000
,
0230
0001
1000
0010
,
0300
0000
0000
0000
;
