#VERSION:0.83;
#TITLE:砂糖陰謀論;
#SUBTITLE:;
#ARTIST:MAX;
#TITLETRANSLIT:Sugar Conspiracy Theory;
#SUBTITLETRANSLIT:;
#ARTISTTRANSLIT:;
#GENRE:Crossover;
#ORIGIN:;
#CREDIT:;
#BANNER:Sugar Conspiracy Theory.png;
#BACKGROUND:Sugar Conspiracy Theory-bg.png;
#PREVIEWVID:;
#JACKET:Sugar Conspiracy Theory-jacket.png;
#CDIMAGE:;
#DISCIMAGE:;
#LYRICSPATH:;
#CDTITLE:../cdtitle.png;
#MUSIC:Sugar Conspiracy Theory.ogg;
#OFFSET:-0.152000;
#SAMPLESTART:40.540001;
#SAMPLELENGTH:15.000000;
#SELECTABLE:YES;
#BPMS:0.000=170.000;
#STOPS:;
#DELAYS:;
#WARPS:;
#TIMESIGNATURES:0.000=4=4;
#TICKCOUNTS:0.000=4;
#COMBOS:0.000=1;
#SPEEDS:0.000=1.000=0.000=0;
#SCROLLS:0.000=1.000;
#FAKES:;
#LABELS:0.000=Song Start;
#BGCHANGES:-0.333=Sugar Conspiracy Theory.avi=1.000=0=0=0=StretchNoLoop====,
99999=-nosongbg-=1.000=0=0=0 // don't automatically add -songbackground-
;
#KEYSOUNDS:;
#ATTACKS:
;

//---------------dance-single - ----------------
#NOTEDATA:;
#CHARTNAME:;
#STEPSTYPE:dance-single;
#DESCRIPTION:;
#CHARTSTYLE:;
#DIFFICULTY:Beginner;
#METER:4;
#RADARVALUES:0.193622,0.279345,0.149719,0.063040,0.000000,172.000000,153.000000,19.000000,8.000000,0.000000,0.000000,0.000000,0.000000,0.000000,0.193622,0.279345,0.149719,0.063040,0.000000,172.000000,153.000000,19.000000,8.000000,0.000000,0.000000,0.000000,0.000000,0.000000;
#CREDIT:led_light;
#NOTES:
0000
0000
0000
0000
,
0000
0000
0000
0000
,
0000
0000
0000
0000
,
0000
0000
0000
0000
,
0000
0000
0000
0000
,
1000
0000
0001
0000
,
1000
0000
0001
0000
,
0010
0010
0010
0000
,
0010
0010
0010
0000
,
0001
0000
1000
0000
,
0001
0000
1000
0000
,
0010
0010
0010
0000
,
0010
0010
0010
0000
,
1001
0000
0000
0000
,
0000
0000
0000
0000
,
0010
0000
0100
0000
,
0010
0000
0100
0000
,
1001
0000
0000
0000
,
0010
0000
0010
0000
,
0100
0000
0010
0000
,
0100
0100
0100
0000
,
0110
0000
1000
0000
,
0010
0000
0100
0000
,
0001
0000
0010
0000
,
0100
0000
1000
0000
,
0001
0001
0001
0000
,
1000
1000
1000
0000
,
0001
0000
0001
0000
,
1001
0000
0000
0000
,
0010
0000
0010
0000
,
0010
0010
0010
0000
,
0100
0000
0100
0000
,
0100
0100
0100
0000
,
0001
0000
1000
0000
,
0010
0000
0100
0000
,
0001
0000
1000
0000
,
1001
0000
0000
0000
,
0010
0000
0010
0000
,
0010
0010
0010
0000
,
0100
0000
0100
0000
,
0200
0000
0300
0000
,
1000
0000
0001
0000
,
0010
0000
0100
0000
,
1000
0000
0001
0000
,
1001
0000
0000
0000
,
1001
0000
0000
0000
,
0110
0000
0000
0000
,
1001
0000
0000
0000
,
0110
0000
0110
0000
,
1001
0000
0000
0000
,
0110
0000
0000
0000
,
1001
0000
0000
0000
,
0010
0010
0010
0010
,
0010
0000
1000
0000
,
0010
0000
0100
0000
,
0001
0000
0010
0000
,
0100
0000
1000
0000
,
0001
0001
0001
0000
,
1000
1000
1000
0000
,
0001
0000
0001
0000
,
1001
0000
0000
0000
,
0020
0000
0000
0000
,
0030
0000
0000
0000
,
0200
0000
0000
0000
,
0300
0000
0000
0000
,
2000
0000
0000
0000
,
3000
0000
0000
0000
,
0002
0000
0000
0000
,
0003
0000
0000
0000
,
0010
0000
0010
0000
,
0010
0010
0010
0000
,
0100
0000
0100
0000
,
0200
0000
0300
0000
,
1000
0000
0001
0000
,
0010
0000
0100
0000
,
1000
0000
0001
0000
,
1001
0000
0000
0000
,
0110
0000
0000
0000
,
1001
0000
0000
0000
,
1000
0000
0001
0000
,
1000
0000
0001
0000
,
0010
0010
0010
0000
,
0010
0010
0010
0000
,
0001
0000
1000
0000
,
0001
0000
1000
0000
,
0010
0010
0010
0000
,
0010
0010
0010
0000
,
2002
0000
0000
0000
,
0000
0000
0000
0000
0000
3003
0000
0000
;

//---------------dance-single - ----------------
#NOTEDATA:;
#CHARTNAME:;
#STEPSTYPE:dance-single;
#DESCRIPTION:;
#CHARTSTYLE:;
#DIFFICULTY:Easy;
#METER:8;
#RADARVALUES:0.425519,0.628526,0.748597,0.236399,0.000000,378.000000,283.000000,95.000000,30.000000,0.000000,0.000000,0.000000,0.000000,0.000000,0.425519,0.628526,0.748597,0.236399,0.000000,378.000000,283.000000,95.000000,30.000000,0.000000,0.000000,0.000000,0.000000,0.000000;
#CREDIT:led_light;
#NOTES:
0000
0000
0000
0000
,
1100
0000
0101
0000
,
1100
0000
0101
0101
,
1100
0000
0101
0000
,
1100
0000
0101
0101
,
0100
0100
0010
0010
,
1000
1000
0001
0001
,
0011
0011
0011
0011
,
1100
1100
1001
1001
,
0010
0010
0100
0100
,
0001
0001
1000
1000
,
1100
1100
1100
1100
,
0011
0011
1001
1001
,
0220
0000
0000
0000
,
0000
0000
0330
0000
,
0001
0001
0010
0010
,
0100
1000
0001
0010
,
0220
0000
0000
0330
,
1000
1000
0010
0010
,
0100
0100
0001
0001
,
1001
0110
1001
0110
,
1000
1000
0010
0010
,
0100
0100
0001
0001
,
1000
1000
0100
0100
,
1100
1100
1001
1001
,
0100
0100
0010
0010
,
1000
1000
0001
0001
,
0010
0100
1000
0001
,
2002
0000
3003
0000
,
1000
1010
0001
0011
,
1000
0010
0100
0001
,
1000
1100
0001
0101
,
0001
0010
0100
1000
,
0001
0011
0100
0100
,
1000
1010
0100
0100
,
0001
0010
1000
0010
,
2002
0000
3003
0000
,
0001
0011
1000
1010
,
0001
0010
0100
1000
,
0001
0101
1000
1100
,
1000
0010
0100
0001
,
1000
1100
0010
0010
,
0001
0101
0010
0010
,
1000
1000
0001
0001
,
2002
0000
3003
0000
,
1001
0100
0100
0100
,
1001
0010
0010
0010
,
1001
0100
0100
0100
,
1001
0000
0110
0000
,
1001
0001
0010
0100
,
1001
1000
0010
0100
,
1001
0001
0010
0100
,
1001
0110
1001
0110
,
1000
1000
0100
0100
,
0010
0010
0001
0001
,
1000
1000
0010
0010
,
1010
1010
1001
1001
,
0010
0010
0100
0100
,
1000
1000
0001
0001
,
0100
0010
1000
0001
,
2002
0000
3003
0000
,
2000
0000
3000
0000
,
0020
0000
0030
0000
,
0200
0000
0300
0000
,
0002
0000
0003
0000
,
0020
0000
0030
0000
,
0200
0000
0300
0000
,
2000
3000
0002
0003
,
2002
0000
3003
0000
,
1000
1100
0001
0101
,
1000
0100
0010
0001
,
1000
1010
0001
0011
,
0001
0100
0010
1000
,
0001
0011
0100
0100
,
1000
1010
0100
0100
,
0001
0001
1000
1000
,
2002
0000
0000
3003
,
0220
0000
0000
0330
,
2002
0000
0000
3003
,
0100
0100
0010
0010
,
1000
1000
0001
0001
,
0011
0011
0011
0011
,
1100
1100
1001
1001
,
0010
0010
0100
0100
,
0001
0001
1000
1000
,
1100
1100
1100
1100
,
0011
1010
1100
0101
,
2002
0000
0000
0000
,
0000
0000
0000
0000
0000
3003
0000
0000
;

//---------------dance-single - ----------------
#NOTEDATA:;
#CHARTNAME:;
#STEPSTYPE:dance-single;
#DESCRIPTION:;
#CHARTSTYLE:;
#DIFFICULTY:Medium;
#METER:11;
#RADARVALUES:0.477301,0.558690,0.559478,0.401879,0.007880,424.000000,353.000000,71.000000,51.000000,0.000000,0.000000,0.000000,0.000000,0.000000,0.477301,0.558690,0.559478,0.401879,0.007880,424.000000,353.000000,71.000000,51.000000,0.000000,0.000000,0.000000,0.000000,0.000000;
#CREDIT:led_light;
#NOTES:
0000
0000
0000
0000
,
1001
0000
0110
0000
,
1001
0000
0110
0110
,
1001
0000
0110
0000
,
1000
0100
0010
0000
0001
0100
0010
0000
,
1000
0000
1010
0000
0001
0010
0100
1000
,
0000
1000
0100
0010
0001
1000
0001
0000
,
1000
0000
1010
0000
0100
0001
0100
0000
,
0001
0000
0011
0000
0100
1000
0100
0000
,
1000
0000
1100
0000
0001
0100
0010
1000
,
0000
1000
0010
0100
0001
1000
0001
0000
,
1000
0000
1100
0000
0010
0001
0010
0000
,
0001
0100
0010
0000
1000
0100
0010
0000
,
2002
0000
0000
0000
,
0000
0000
3003
0000
,
1000
0100
0001
0000
0001
0100
1000
0000
,
0001
0100
1000
0000
1000
0100
0001
0000
,
2002
0000
0000
3003
,
1000
0000
0000
0000
0100
0000
0000
0010
0000
0000
0001
0000
1000
0000
0000
0000
,
0001
0000
0000
0000
0100
0000
0000
0010
0000
0000
1000
0000
0001
0000
0000
0000
,
0011
1100
1010
0101
,
0001
0000
0010
0000
0100
1000
0001
0000
,
2000
3010
0002
0013
,
1000
0001
0010
0000
0200
0000
1300
0000
,
0001
1000
0010
0000
0200
0000
0301
0000
,
1000
0100
0010
0000
0001
0000
0110
0000
,
0001
0100
0010
0000
1000
0000
0110
0000
,
0001
0100
0001
0000
1000
0100
1000
0000
,
2002
0000
3003
0000
,
0100
1001
0010
1001
,
1100
0101
1100
0101
,
1000
1010
0001
0011
,
0200
0010
0010
0310
,
0002
0100
2003
0100
,
3002
0010
2003
0010
,
3001
0101
1000
1100
,
2002
0000
3003
0000
,
0010
1001
0100
1001
,
1010
0011
1010
0011
,
1000
1100
0001
0101
,
0020
0100
0100
0130
,
0002
0010
2003
0010
,
3002
0100
2003
0100
,
3001
0010
0001
0000
1000
0010
1000
0000
,
2002
0000
0000
3003
,
1100
0000
0001
0000
0100
0010
0100
0000
,
0101
0000
1000
0000
0100
0010
0100
0000
,
1100
0000
0001
0000
0100
0010
0100
0000
,
0110
0000
1001
0000
,
1000
0100
1000
0000
0001
0010
0001
0000
,
1000
0010
1000
0000
0001
0100
0001
0000
,
1000
0100
1000
0000
0001
0010
0001
0000
,
1001
0110
1001
0110
,
0001
0000
0010
0000
0100
1000
0001
0000
,
2000
3010
0002
0013
,
1000
0001
0010
0000
0200
0000
1300
0000
,
0001
1000
0010
0000
0200
0000
0301
0000
,
1000
0100
0010
0000
0001
0000
0110
0000
,
0001
0100
0010
0000
1000
0000
0110
0000
,
0001
0100
0001
0000
1000
0100
1000
0000
,
2002
0000
3003
0000
,
0002
0000
0013
0000
,
2000
0000
3010
0000
,
0002
0000
0103
0000
,
2000
0000
3100
0000
,
0002
0000
0103
0000
,
2000
0000
3010
0000
,
0001
0010
0100
1000
,
2002
0000
3003
0000
,
0010
1001
0100
1001
,
0011
1010
0011
1010
,
0001
0101
1000
1100
,
0020
0100
0100
0130
,
2000
0010
3002
0010
,
2003
0100
3002
0100
,
1003
0010
1000
0000
0001
0010
0001
0000
,
2002
0000
0000
3003
,
0220
0000
0000
0330
,
2002
0000
0000
3003
,
1000
0000
1010
0000
0001
0010
0100
1000
,
0000
1000
0100
0010
0001
1000
0001
0000
,
1000
0000
1010
0000
0100
0001
0100
0000
,
0001
0000
0011
0000
0100
1000
0100
0000
,
1000
0000
1100
0000
0001
0100
0010
1000
,
0000
1000
0010
0100
0001
1000
0001
0000
,
1000
0000
1100
0000
0010
0001
0010
0000
,
0001
0100
0010
0000
1000
0100
0010
0000
,
2002
0000
0000
0000
,
0000
0000
0000
0000
0000
3003
0000
0000
;

//---------------dance-single - ----------------
#NOTEDATA:;
#CHARTNAME:;
#STEPSTYPE:dance-single;
#DESCRIPTION:;
#CHARTSTYLE:;
#DIFFICULTY:Hard;
#METER:13;
#RADARVALUES:0.612386,0.628526,0.346719,0.370359,0.007880,544.000000,500.000000,44.000000,47.000000,0.000000,0.000000,0.000000,0.000000,0.000000,0.612386,0.628526,0.346719,0.370359,0.007880,544.000000,500.000000,44.000000,47.000000,0.000000,0.000000,0.000000,0.000000,0.000000;
#CREDIT:led_light;
#NOTES:
0000
0000
0000
0000
,
1100
0000
0101
0000
,
1100
0000
0101
0101
,
1010
0000
0011
0000
,
1000
0010
0001
0010
1000
0001
0020
0000
,
0130
1000
0001
1000
0100
1000
0010
0001
,
0010
1000
0001
0010
0100
0010
0001
0100
,
0010
1000
0001
0010
0001
1000
0001
0010
,
0100
1000
0010
0001
0010
1000
0002
0000
,
0103
0001
1000
0001
0100
0001
0010
1000
,
0010
0001
1000
0010
0100
0010
1000
0100
,
0010
0001
1000
0010
1000
0001
1000
0010
,
0100
0001
0010
1000
0010
0001
1000
0000
,
2002
0000
0000
0000
,
0000
0000
3003
0000
,
0001
0001
0010
0001
1000
0010
0100
0001
,
1000
1000
0100
1000
0001
0100
0010
0000
,
2002
0000
0000
3003
,
0001
0000
1000
0000
0010
0000
0000
0001
0000
0000
0010
0000
1000
0000
0001
0000
,
1000
0000
0100
0000
0001
0000
0000
0100
0000
0000
1000
0000
0001
0000
1000
0000
,
1001
0110
1001
0110
,
0001
0100
0010
0100
0001
1000
0010
0100
,
0001
0010
0100
0010
0001
1000
0100
0010
,
0001
0100
0010
1000
0001
0010
0001
1000
,
0010
0100
0010
1000
0010
0000
0101
0001
,
0010
0100
1000
0100
0010
0001
1000
0010
,
0100
0001
0100
0010
0100
0001
0010
0100
,
1000
0100
0001
0100
1000
0001
0010
0000
,
2002
0000
3003
0000
,
0110
0000
0110
0001
1000
0000
0110
1000
,
0001
0010
0100
1000
0001
1000
0010
0100
,
0001
0000
0101
0000
1000
0000
1100
0020
,
0001
0000
0031
1000
0010
0100
0001
1000
,
0002
0000
1003
0100
0010
0100
1000
0001
,
1000
0000
1010
0000
0100
0000
0101
0001
,
2000
0000
3001
0010
0200
0000
1300
0001
,
2002
0000
3003
0000
,
0110
0000
0110
0001
1000
0000
0110
1000
,
0001
0100
0010
1000
0001
1000
0100
0010
,
0001
0000
0011
0000
1000
0000
1010
0200
,
0001
0000
0001
0000
0301
0000
1000
0100
,
0002
0000
0103
1000
0002
0000
1003
0010
,
0002
0000
0013
1000
0002
0000
0013
0100
,
1000
0010
0100
0010
1000
0100
0010
0001
,
2002
0000
0000
3003
,
1000
0100
0001
0100
1000
1000
0001
1000
,
0010
0001
0010
1000
0001
0001
1000
0001
,
0010
1000
0010
0001
1000
1000
0001
1000
,
1001
0000
0110
0000
,
0001
0100
1000
0100
0001
0001
0010
0100
,
1000
0100
0001
0100
1000
1000
0010
0100
,
0001
0100
1000
0100
0001
0001
0020
0000
,
0130
0100
0100
1001
,
1000
0010
0100
0010
1000
0001
0100
0010
,
1000
0100
0010
0100
1000
0001
0010
0100
,
1000
0010
0100
0001
1000
0100
1000
0001
,
0100
0010
0100
0001
0100
0000
1010
1000
,
0100
0010
0001
0010
0100
1000
0001
0100
,
0010
1000
0010
0100
0010
1000
0100
0010
,
0001
0010
1000
0010
0001
1000
0100
0000
,
2002
0000
3003
0000
,
0002
0010
0000
0013
,
2000
0100
0000
3100
,
0002
0100
0000
0103
,
2000
0010
0000
3010
,
0002
0010
0000
0013
,
2000
0100
0000
3100
,
0002
0100
0000
0103
,
1000
0001
1000
0001
2002
0000
3003
0000
,
0110
0000
0110
1000
0001
0000
0110
0001
,
1000
0100
0010
0001
1000
0001
0100
0010
,
1000
0000
1010
0000
0001
0000
0011
0200
,
1000
0000
1000
0000
1300
0000
0001
0100
,
2000
0000
3100
0001
2000
0000
3001
0010
,
2000
0000
3010
0001
2000
0000
3010
0100
,
0001
0010
0100
0010
0001
0100
0010
1000
,
2002
0000
0000
3003
,
0220
0000
0000
0330
,
2002
0000
0000
3003
,
0100
0001
1000
0001
0100
0001
0010
1000
,
0010
0001
1000
0010
0100
0010
1000
0100
,
0010
0001
1000
0010
1000
0001
1000
0010
,
0100
0001
0010
1000
0010
0001
2000
0000
,
3100
1000
0001
1000
0100
1000
0010
0001
,
0010
1000
0001
0010
0100
0010
0001
0100
,
0010
1000
0001
0010
0001
1000
0001
0010
,
0100
1000
0010
0001
0010
1000
0001
0000
,
2002
0000
0000
0000
,
0000
0000
0000
0000
0000
3003
0000
0000
;

//---------------dance-single - ----------------
#NOTEDATA:;
#CHARTNAME:;
#STEPSTYPE:dance-single;
#DESCRIPTION:;
#CHARTSTYLE:;
#DIFFICULTY:Challenge;
#METER:15;
#RADARVALUES:0.753100,0.838035,0.362479,0.362479,0.248219,669.000000,623.000000,46.000000,46.000000,0.000000,0.000000,0.000000,0.000000,0.000000,0.753100,0.838035,0.362479,0.362479,0.248219,669.000000,623.000000,46.000000,46.000000,0.000000,0.000000,0.000000,0.000000,0.000000;
#CREDIT:led_light;
#NOTES:
// measure 0
0000
0000
0000
0000
,  // measure 1
1001
0010
0000
0000
1001
0100
0000
0000
,  // measure 2
1001
0010
0000
0000
0110
1000
0110
0001
,  // measure 3
1001
0010
0000
0000
1001
0100
0000
0000
,  // measure 4
1001
0000
0010
0000
0100
0000
1000
0001
1000
0001
1000
0000
0200
0000
0310
0000
,  // measure 5
1001
0001
0010
1000
0010
0010
0001
1000
,  // measure 6
0010
0001
0010
1000
0001
0001
0010
0100
,  // measure 7
1000
0000
0100
0000
0010
0000
0001
1000
0000
1000
0010
0000
0100
0000
0001
0000
,  // measure 8
1000
0100
1000
0000
0001
0000
1000
0010
0000
0010
0100
0000
0110
0000
0000
0000
,  // measure 9
1001
1000
0100
0001
0100
0100
1000
0001
,  // measure 10
0100
1000
0100
0001
1000
1000
0100
0010
,  // measure 11
0001
0000
0010
0000
0100
0000
1000
0001
0000
0001
0100
0000
0010
0000
1000
0000
,  // measure 12
0001
0010
0001
1000
0100
0000
1000
0001
1000
0010
0100
0001
1000
0000
0001
0000
,  // measure 13
2002
0000
0000
0000
,  // measure 14
0000
0000
3003
0000
,  // measure 15
0001
0000
1000
0000
0010
0000
1000
0100
0000
1000
0100
0000
0010
0000
0001
0000
,  // measure 16
1000
0000
0001
0000
0010
0000
0001
0100
0000
0001
0100
0000
0010
0000
0000
0000
,  // measure 17
2002
0000
0000
3003
,  // measure 18
0001
0000
0010
0000
0100
0000
1000
0100
0000
0000
1100
0000
1000
0000
0001
0000
,  // measure 19
1000
0000
0010
0000
0100
0000
0001
0100
0000
0000
0101
0000
0001
0000
1000
0000
,  // measure 20
1001
0000
0000
0000
0110
0000
0000
0000
1001
0000
0001
0000
0010
0100
0010
0100
,  // measure 21
0010
0001
1000
0010
1000
0001
0010
0100
,  // measure 22
1000
0001
0010
0001
1000
0010
0100
0001
,  // measure 23
1000
0100
0001
0100
1000
0001
0010
1000
,  // measure 24
0010
0000
0001
0000
1000
0000
0010
0000
0001
0000
0010
0100
0010
0000
1010
0000
,  // measure 25
0001
0010
0100
1000
0001
1000
0010
0001
,  // measure 26
0010
1000
0001
0010
1000
0010
0001
1000
,  // measure 27
0010
0100
0001
0010
1000
0001
0100
1000
,  // measure 28
2002
0000
0000
0000
3003
1000
0100
0010
,  // measure 29
0011
0001
0100
0010
1010
1000
0100
0010
,  // measure 30
0001
1000
0010
0100
0001
1000
0100
1000
,  // measure 31
0001
0010
0100
0010
0001
0100
0010
1000
,  // measure 32
0001
0010
1000
0010
0001
1000
0100
1000
,  // measure 33
0010
0100
0001
0010
0100
1000
0001
2000
,  // measure 34
0010
3020
0100
0230
0001
0302
1000
1003
,  // measure 35
0100
0010
0001
0010
0100
1000
0001
1000
,  // measure 36
2020
0000
0000
0000
0000
0000
0000
0000
3030
0000
0100
0001
0100
0000
0010
0000
,  // measure 37
1010
1000
0100
0010
0011
0001
0100
0010
,  // measure 38
1000
0001
0010
0100
1000
0001
0100
0001
,  // measure 39
1000
0010
0100
0010
1000
0100
0010
0002
,  // measure 40
1000
2003
0010
3020
0100
0230
0001
0301
,  // measure 41
0010
0100
1000
0001
1000
0010
0001
0010
,  // measure 42
1000
0001
0100
0010
1000
0100
1000
0001
,  // measure 43
1000
0000
1000
0000
0010
0000
0010
0000
0100
0001
0100
0001
1000
0100
0010
0001
,  // measure 44
2000
0000
0000
3000
,  // measure 45
1001
0000
0001
0000
1000
0000
0010
0100
0000
0001
0100
0000
0010
0000
1000
0000
,  // measure 46
1001
0000
1000
0000
0001
0000
0010
0100
0000
1000
0100
0000
0010
0000
0001
0000
,  // measure 47
1001
0000
0001
0000
1000
0000
0010
0100
0000
0001
0100
0000
0010
0000
1000
0000
,  // measure 48
1001
0000
0110
0000
,  // measure 49
1001
0000
1000
0000
0100
0000
0010
0001
0000
0010
0001
0000
0010
0000
0100
0000
,  // measure 50
1001
0000
0001
0000
0100
0000
0010
1000
0000
0010
0100
0010
0100
0000
0001
0000
,  // measure 51
1001
0000
1000
0000
0100
0000
0010
0000
0001
1000
0001
1000
0001
0000
0000
0000
,  // measure 52
1001
0000
0000
0000
0110
0000
0000
0000
1001
0000
1000
0000
0100
0010
0100
0010
,  // measure 53
0100
1000
0001
0100
0001
1000
0100
0010
,  // measure 54
0001
1000
0100
1000
0001
0100
0010
1000
,  // measure 55
0001
0010
1000
0010
0001
1000
0100
0001
,  // measure 56
0100
0000
1000
0000
0001
0000
0100
0000
1000
0000
0100
0010
0100
0000
0101
0000
,  // measure 57
1000
0100
0010
0001
1000
0001
0100
1000
,  // measure 58
0100
0001
1000
0100
0001
0100
1000
0001
,  // measure 59
0100
0010
1000
0100
0001
1000
0010
0001
,  // measure 60
2002
0000
0000
3003
,  // measure 61
2000
0100
3002
0100
,  // measure 62
2003
0000
0100
0000
3001
0100
0010
1000
,  // measure 63
0002
0100
2003
0100
,  // measure 64
3002
0000
0100
0000
1003
0100
0010
0001
,  // measure 65
2000
0010
3002
0010
,  // measure 66
2003
3200
0320
0032
,  // measure 67
2003
0000
3010
0002
0000
0013
1000
0001
,  // measure 68
1000
0100
1000
0100
0010
0001
0010
0001
2000
0000
0000
0000
3000
0000
0000
0000
,  // measure 69
1100
1000
0010
0100
0101
0001
0010
0100
,  // measure 70
1000
0001
0100
0010
1000
0001
0010
0001
,  // measure 71
1000
0100
0010
0100
1000
0010
0100
0002
,  // measure 72
1000
2003
0100
3200
0010
0320
0001
0031
,  // measure 73
0100
0010
1000
0001
1000
0100
0001
0100
,  // measure 74
1000
0001
0010
0100
1000
0010
1000
0001
,  // measure 75
1000
0000
1000
0000
0100
0000
0100
0000
0010
0001
0010
0001
1000
0000
0010
0100
,  // measure 76
0020
0000
0000
0030
,  // measure 77
2002
0000
0000
3003
,  // measure 78
0220
0000
0000
0330
,  // measure 79
1001
1000
0010
0001
0010
0010
1000
0001
,  // measure 80
0010
1000
0010
0001
1000
1000
0010
0100
,  // measure 81
0001
0000
0100
0000
0010
0000
1000
0001
0000
0001
0010
0000
0100
0000
1000
0000
,  // measure 82
0001
0100
0001
0000
1000
0000
0001
0010
0000
0010
0100
0000
0110
0000
0000
0000
,  // measure 83
1001
0001
0100
1000
0100
0100
0001
1000
,  // measure 84
0100
0001
0100
1000
0001
0001
0100
0010
,  // measure 85
1000
0000
0010
0000
0100
0000
0001
1000
0000
1000
0100
0000
0010
0000
0001
0000
,  // measure 86
1000
0010
1000
0001
0100
0000
0001
1000
0001
0010
0100
1000
0001
0000
1000
0000
,  // measure 87
2002
0000
0000
0000
,  // measure 88
0000
0000
0000
0000
0000
3003
0000
0000
;

//---------------dance-double - ----------------
#NOTEDATA:;
#CHARTNAME:;
#STEPSTYPE:dance-double;
#DESCRIPTION:;
#CHARTSTYLE:;
#DIFFICULTY:Easy;
#METER:8;
#RADARVALUES:0.413136,0.628526,0.685558,0.244279,0.000000,367.000000,280.000000,87.000000,31.000000,0.000000,0.000000,0.000000,0.000000,0.000000,0.413136,0.628526,0.685558,0.244279,0.000000,367.000000,280.000000,87.000000,31.000000,0.000000,0.000000,0.000000,0.000000,0.000000;
#CREDIT:led_light;
#NOTES:
00000000
00000000
00000000
00000000
,
00101000
00000000
00010010
00000000
,
00101000
00000000
00010010
00010010
,
01001000
00000000
00010100
00000000
,
01001000
00000000
00010100
00010100
,
00010000
00010000
00001000
00001000
,
01000000
01000000
00100000
00100000
,
10100000
10100000
00110000
00110000
,
00011000
00011000
00001010
00001010
,
00000100
00000100
00000001
00000001
,
00000010
00000010
00001000
00001000
,
00011000
00011000
01010000
01010000
,
10100000
10100000
10010000
10010000
,
02200000
00000000
00000000
00000000
,
00000000
00000000
03300000
00000000
,
10000000
10000000
00100000
00100000
,
00010000
00001000
00000010
00000001
,
00000220
00000000
00000000
00000330
,
00000001
00000001
00000100
00000100
,
00001000
00001000
00010000
00010000
,
00011000
00011000
00011000
00011000
,
00010000
00010000
01000000
01000000
,
10000000
10000000
00100000
00100000
,
00010000
00001000
00000010
00000001
,
00001000
00000010
00000002
00000003
,
00001000
00001000
00000100
00000100
,
00000001
00000001
00000010
00000010
,
00001000
00010000
00100000
10000000
,
20020000
00000000
30030000
00000000
,
10000000
01100000
00010000
01100000
,
10000000
01000000
00010000
00001000
,
00000100
00001001
00000010
00001001
,
00000001
00000010
00001000
00010000
,
01000000
10010000
00100000
00100000
,
00010000
01100000
10000000
10000000
,
00100000
00010000
00001000
00000010
,
00000220
00000000
00000330
00000000
,
00000001
00000110
00001000
00000110
,
00000001
00000100
00001000
00010000
,
01000000
10010000
00100000
10010000
,
10000000
00100000
00010000
00001000
,
00000100
00001001
00000010
00000010
,
00001000
00000110
00000001
00000001
,
00000010
00001000
00010000
00001000
,
00022000
00000000
00000000
00033000
,
00011000
00100000
00100000
00100000
,
00011000
00000100
00000100
00000100
,
00011000
00100000
00100000
00100000
,
00011000
00000000
00011000
00000000
,
00011000
00010000
01000000
10000000
,
10010000
10000000
00100000
00010000
,
00011000
00001000
00000010
00000001
,
00001001
00001001
00000110
00000110
,
00001000
00001000
00000010
00000010
,
00000001
00000001
00000100
00000100
,
00001000
00010000
01000000
10000000
,
00010000
01000000
20000000
30000000
,
00010000
00010000
00100000
00100000
,
10000000
10000000
01000000
01000000
,
00010000
00001000
00000100
00000001
,
00002002
00000000
00003003
00000000
,
00000002
00000000
00000003
00000000
,
00000020
00000000
00000030
00000000
,
00000200
00000000
00000300
00000000
,
00002000
00000000
00003000
00000000
,
00020000
00000000
00030000
00000000
,
00200000
00000000
00300000
00000000
,
02000000
00000000
03000000
00000000
,
20020000
00000000
30030000
00000000
,
10000000
01100000
00010000
01100000
,
10000000
00100000
00010000
00001000
,
00000010
00001001
00000100
00001001
,
00000001
00000100
00001000
00010000
,
00100000
10010000
01000000
01000000
,
00010000
01100000
10000000
10000000
,
01000000
00010000
00001000
00010000
,
00022000
00000000
00000000
00033000
,
00202000
00000000
00000000
00303000
,
00020020
00000000
00000000
00030030
,
00010000
00010000
00001000
00001000
,
00100000
00100000
01000000
01000000
,
11000000
11000000
01010000
01010000
,
00011000
00011000
00001100
00001100
,
00000010
00000010
00000001
00000001
,
00000100
00000100
00001000
00001000
,
00011000
00011000
00110000
00110000
,
01100000
11000000
10100000
00110000
,
00022000
00000000
00000000
00000000
,
00000000
00000000
00000000
00000000
00000000
00033000
00000000
00000000
;

//---------------dance-double - ----------------
#NOTEDATA:;
#CHARTNAME:;
#STEPSTYPE:dance-double;
#DESCRIPTION:;
#CHARTSTYLE:;
#DIFFICULTY:Medium;
#METER:11;
#RADARVALUES:0.475050,0.558690,0.559478,0.409759,0.007880,422.000000,351.000000,71.000000,52.000000,0.000000,0.000000,0.000000,0.000000,0.000000,0.475050,0.558690,0.559478,0.409759,0.007880,422.000000,351.000000,71.000000,52.000000,0.000000,0.000000,0.000000,0.000000,0.000000;
#CREDIT:led_light;
#NOTES:
00000000
00000000
00000000
00000000
,
10010000
00000000
00011000
00000000
,
00001001
00000000
00011000
00011000
,
10010000
00000000
00011000
00000000
,
00000001
00001000
00000010
00000000
00001000
00000001
00000010
00000000
,
00000100
00000000
00001001
00000000
00000001
00000100
00001000
00010000
,
00000000
00010000
00001000
00000100
00000001
00001000
00000100
00000000
,
00010000
00000000
00011000
00000000
00001000
01000000
00010000
00000000
,
10000000
00000000
11000000
00000000
00100000
00010000
10000000
00000000
,
01000000
00000000
10010000
00000000
10000000
00100000
00010000
00001000
,
00000000
00001000
00010000
00100000
10000000
00010000
00100000
00000000
,
00001000
00000000
00011000
00000000
00010000
00000010
00001000
00000000
,
00000001
00000100
00000010
00000000
00001000
00000010
00000100
00000000
,
00002002
00000000
00000000
00000000
,
00000000
00000000
00003003
00000000
,
00000001
00000010
00001000
00000000
00010000
00100000
10000000
00000000
,
10000000
00100000
00010000
00000000
00001000
00000010
00000001
00000000
,
00002002
00000000
00000000
00003003
,
00000001
00000000
00000000
00000000
00000100
00000000
00000000
00001000
00000000
00000000
00010000
00000000
00001000
00000000
00000000
00000000
,
00010000
00000000
00000000
00000000
01000000
00000000
00000000
10000000
00000000
00000000
00010000
00000000
10000000
00000000
00000000
00000000
,
11000000
00110000
01010000
10100000
,
10000000
00000000
01000000
00000000
00010000
00001000
00010000
00000000
,
00002000
00003100
00020000
01030000
,
00001000
00000100
00000001
00000000
00000200
00000000
00000310
00000000
,
00001000
00000100
00000001
00000000
00000200
00000000
00000310
00000000
,
00000001
00000100
00001000
00000000
00010000
00000000
00011000
00000000
,
00010000
01000000
10000000
00000000
00010000
00000000
10010000
00000000
,
00010000
01000000
00100000
00000000
10000000
01000000
00100000
00000000
,
20020000
00000000
30030000
00000000
,
00100000
00110000
01000000
11000000
,
10100000
00110000
00011000
00001010
,
00000001
00000011
00001000
00001010
,
00000200
00001000
00001000
00001300
,
00020000
01000000
00032000
00000100
,
00023000
00100000
00032000
00000010
,
00013000
01001000
00001000
00010100
,
00022000
00000000
00033000
00000000
,
00000010
00001010
00000100
00000101
,
00000011
00001010
00011000
00110000
,
10000000
10100000
00010000
00110000
,
02000000
00010000
00010000
03010000
,
00002000
00000100
00023000
01000000
,
00032000
00000010
00023000
00100000
,
00031000
00010000
00000100
00000000
00010000
00001000
01000000
00000000
,
00022000
00000000
00000000
00033000
,
00011000
00000000
00001000
00000000
00100000
00010000
01000000
00000000
,
01100000
00000000
10000000
00000000
01000000
00010000
00001000
00000000
,
00011000
00000000
00010000
00000000
00000010
00001000
00000100
00000000
,
00000110
00000000
00001001
00000000
,
00000001
00000100
00001000
00000000
00001000
00000100
00000001
00000000
,
00000100
00001000
00010000
00000000
00001000
00010000
01000000
00000000
,
10000000
01000000
00010000
00000000
00010000
01000000
10000000
00000000
,
10010000
01100000
10010000
01100000
,
10000000
00000000
00100000
00000000
00010000
00001000
00010000
00000000
,
00002000
00003010
00020000
00130000
,
00001000
00000010
00000001
00000000
00000020
00000000
00000130
00000000
,
00001000
00000010
00000001
00000000
00000020
00000000
00000130
00000000
,
00000001
00000010
00001000
00000000
00010000
00000000
00011000
00000000
,
00010000
00100000
10000000
00000000
00010000
00000000
10010000
00000000
,
00010000
00100000
01000000
00000000
10000000
00100000
01000000
00000000
,
20020000
00000000
30030000
00000000
,
20000000
00000000
31000000
00000000
,
02000000
00000000
03100000
00000000
,
00200000
00000000
00310000
00000000
,
00020000
00000000
00031000
00000000
,
00002000
00000000
00003100
00000000
,
00000200
00000000
00000310
00000000
,
00000020
00000000
00000031
00000000
,
00002002
00000000
00003003
00000000
,
00000100
00001100
00000010
00000011
,
00000101
00001100
00011000
01010000
,
10000000
11000000
00010000
01010000
,
00200000
00010000
00010000
00310000
,
00002000
00000010
00023000
00100000
,
00032000
00000100
00023000
01000000
,
00031000
00010000
00000010
00000000
00010000
00001000
00100000
00000000
,
00022000
00000000
00000000
00033000
,
00002002
00000000
00000000
00003003
,
00000220
00000000
00000000
00000330
,
00000010
00000000
00001001
00000000
00000001
00000010
00001000
00010000
,
00000000
00010000
00001000
00000010
00000001
00001000
00000010
00000000
,
00010000
00000000
00011000
00000000
00001000
00100000
00010000
00000000
,
10000000
00000000
10100000
00000000
01000000
00010000
10000000
00000000
,
00100000
00000000
10010000
00000000
10000000
01000000
00010000
00001000
,
00000000
00001000
00010000
01000000
10000000
00010000
01000000
00000000
,
00001000
00000000
00011000
00000000
00010000
00000100
00001000
00000000
,
00000001
00000010
00000100
00000000
00001000
00000100
00000010
00000000
,
00002002
00000000
00000000
00000000
,
00000000
00000000
00000000
00000000
00000000
00003003
00000000
00000000
;

//---------------dance-double - ----------------
#NOTEDATA:;
#CHARTNAME:;
#STEPSTYPE:dance-double;
#DESCRIPTION:;
#CHARTSTYLE:;
#DIFFICULTY:Hard;
#METER:13;
#RADARVALUES:0.611261,0.628526,0.346719,0.370359,0.007880,543.000000,499.000000,44.000000,47.000000,0.000000,0.000000,0.000000,0.000000,0.000000,0.611261,0.628526,0.346719,0.370359,0.007880,543.000000,499.000000,44.000000,47.000000,0.000000,0.000000,0.000000,0.000000,0.000000;
#CREDIT:led_light;
#NOTES:
00000000
00000000
00000000
00000000
,
00101000
00000000
00010010
00000000
,
00101000
00000000
00011000
00011000
,
01001000
00000000
00010100
00000000
,
00010000
00001000
00000010
00000001
00000100
00001000
00020000
00000000
,
00031000
00100000
00010000
00100000
01000000
00100000
00001000
00010000
,
00000010
00001000
00000010
00000100
00000010
00001000
00000001
00000010
,
00000100
00001000
00000001
00000010
00000001
00000100
00000010
00001000
,
00000100
00010000
01000000
10000000
00100000
00010000
00002000
00000000
,
00013000
00000100
00001000
00000100
00000010
00000100
00010000
00001000
,
01000000
00010000
01000000
00100000
01000000
00010000
10000000
01000000
,
00100000
00010000
10000000
01000000
10000000
00100000
01000000
00010000
,
00100000
00001000
00000010
00000001
00000100
00001000
00010000
00000000
,
00022000
00000000
00000000
00000000
,
00000000
00000000
00033000
00000000
,
00001000
00001000
00010000
00001000
00100000
00010000
01000000
00001000
,
00010000
00010000
00001000
00010000
00000100
00001000
00000010
00000000
,
00002002
00000000
00000000
00003003
,
00000001
00000000
00000010
00000000
00001000
00000000
00000000
00010000
00000000
00000000
00010000
00000000
00100000
00000000
00000000
00000000
,
10000000
00000000
00100000
00000000
00010000
00000000
00000000
00001000
00000000
00000000
00001000
00000000
00000010
00000000
00000001
00000000
,
00001001
00010100
01001000
10010000
,
10000000
01000000
00010000
01000000
10000000
00010000
00100000
00001000
,
00010000
00000010
00001000
00000100
00010000
00001000
01000000
00010000
,
10000000
01000000
00100000
01000000
10000000
00010000
00100000
01000000
,
00100000
00001000
00010000
00000010
00001000
00000000
00001001
00000001
,
00000010
00000100
00001000
00000100
00000010
00000001
00001000
00000010
,
00000100
00001000
00010000
00100000
00010000
00001000
00100000
00010000
,
10000000
00100000
00010000
00100000
01000000
00001000
00010000
00000000
,
00022000
00000000
00033000
00000000
,
00011000
00000000
00011000
00010000
00000010
00000000
00011000
00001000
,
00100000
00010000
00100000
01000000
10000000
00010000
10000000
00100000
,
00010000
00000000
00011000
00000000
00000100
00000000
00001100
00000020
,
00000001
00000000
00000031
00001000
00000010
00000100
00000001
00001000
,
00000002
00000000
00000013
00001000
00010000
00001000
00010000
00100000
,
10000000
00000000
11000000
00000000
00100000
00000000
00110000
00010000
,
20000000
00000000
30010000
10000000
00200000
00000000
00310000
00001000
,
00022000
00000000
00033000
00000000
,
00011000
00000000
00011000
00010000
00000100
00000000
00011000
00001000
,
01000000
00010000
01000000
00100000
10000000
00010000
10000000
01000000
,
00010000
00000000
00011000
00000000
00000010
00000000
00001010
00000200
,
00000001
00000000
00000001
00000000
00000301
00000000
00000100
00001000
,
00020000
00000000
00031000
00010000
02000000
00000000
13000000
00100000
,
00020000
00000000
00031000
00000010
00000002
00000000
00001003
00000001
,
00000100
00000010
00001000
00000100
00000010
00001000
00010000
00000100
,
00020200
00000000
00000000
00030300
,
00010000
01000000
10000000
01000000
00100000
00100000
00001000
00010000
,
00001000
00000100
00000001
00000100
00000010
00000010
00010000
00001000
,
00010000
01000000
10000000
01000000
00100000
00100000
00001000
00010000
,
00011000
00000000
00011000
00000000
,
00001000
00010000
00100000
01000000
00100000
00010000
00001000
00001000
,
00010000
00001000
00000010
00000100
00000010
00001000
00010000
00010000
,
00001000
00010000
00100000
01000000
00100000
00100000
00020000
00000000
,
00030010
00000010
00000010
00001001
,
00000001
00000010
00001000
00000010
00000001
00001000
00000100
00010000
,
00001000
01000000
00010000
00100000
00001000
00010000
00000010
00001000
,
00000001
00000010
00000100
00000010
00000001
00001000
00000100
00000010
,
00000100
00010000
00001000
01000000
00010000
00000000
10010000
10000000
,
01000000
00100000
00010000
00100000
01000000
10000000
00010000
01000000
,
00100000
00010000
00001000
00000100
00001000
00010000
00000100
00001000
,
00000001
00000100
00001000
00000100
00000010
00010000
00001000
00000000
,
00022000
00000000
00033000
00000000
,
00002000
00000010
00000000
00000010
,
00023000
00100000
00000000
00100000
,
00032000
00000100
00000000
00000100
,
00023000
01000000
00000000
01000000
,
00032000
00000100
00000000
00000100
,
00023000
00100000
00000000
00100000
,
00032000
00000010
00000000
00000010
,
00013000
00001000
00010000
00001000
00022000
00000000
00033000
00000000
,
00011000
00000000
00011000
00010000
00000010
00000000
00011000
00001000
,
00100000
00010000
00100000
01000000
10000000
00010000
10000000
00100000
,
00010000
00000000
00011000
00000000
00000100
00000000
00001100
00000020
,
00000001
00000000
00000001
00000000
00000031
00000000
00000010
00001000
,
00020000
00000000
00031000
00010000
00200000
00000000
10300000
01000000
,
00020000
00000000
00031000
00000100
00000002
00000000
00001003
00000001
,
00000010
00000100
00001000
00000010
00000100
00001000
00010000
00000010
,
00020020
00000000
00000000
00030030
,
00202000
00000000
00000000
00303000
,
00022000
00000000
00000000
00033000
,
00001000
01000000
00010000
01000000
00100000
01000000
00001000
00010000
,
00000100
00001000
00000100
00000010
00000100
00001000
00000001
00000100
,
00000010
00001000
00000001
00000100
00000001
00000010
00000100
00001000
,
00000010
00010000
00100000
10000000
01000000
00010000
00002000
00000000
,
00013000
00000010
00001000
00000010
00000100
00000010
00010000
00001000
,
00100000
00010000
00100000
01000000
00100000
00010000
10000000
00100000
,
01000000
00010000
10000000
00100000
10000000
01000000
00100000
00010000
,
01000000
00001000
00000100
00000001
00000010
00001000
00010000
00000000
,
00022000
00000000
00000000
00000000
,
00000000
00000000
00000000
00000000
00000000
00033000
00000000
00000000
;

//---------------dance-double - ----------------
#NOTEDATA:;
#CHARTNAME:;
#STEPSTYPE:dance-double;
#DESCRIPTION:;
#CHARTSTYLE:;
#DIFFICULTY:Challenge;
#METER:15;
#RADARVALUES:0.749723,0.838035,0.346719,0.267919,0.248219,666.000000,622.000000,44.000000,34.000000,0.000000,0.000000,0.000000,0.000000,0.000000,0.749723,0.838035,0.346719,0.267919,0.248219,666.000000,622.000000,44.000000,34.000000,0.000000,0.000000,0.000000,0.000000,0.000000;
#CREDIT:led_light;
#NOTES:
00000000
00000000
00000000
00000000
,
00011000
00100000
00000000
00000000
00011000
00000010
00000000
00000000
,
00011000
00100000
00000000
00000000
00001000
00010000
00001000
00010000
,
00011000
00000100
00000000
00000000
00011000
01000000
00000000
00000000
,
00011000
00000000
00000100
00000000
00001000
00000000
00000001
00001000
00000001
00000000
00000100
00000000
00000020
00000000
00000030
00000000
,
00001001
00000001
00000010
00001000
00000010
00000010
00000001
00001000
,
00000100
00010000
00001000
00010000
00100000
00100000
10000000
00010000
,
10000000
00000000
01000000
00000000
00010000
00000000
01000000
00100000
00000000
00100000
00010000
00000000
10000000
00000000
00100000
00000000
,
01000000
00010000
01000000
00000000
00001000
00000000
00010000
00001000
00000000
00001000
00100000
00000000
00110000
00000000
00000000
00000000
,
10010000
10000000
00100000
00010000
00100000
00100000
10000000
00010000
,
01000000
00001000
00010000
00001000
00000010
00000010
00000001
00001000
,
00000001
00000000
00000100
00000000
00001000
00000000
00000100
00000010
00000000
00000010
00001000
00000000
00000001
00000000
00000010
00000000
,
00000100
00001000
00000100
00010000
00001000
00000000
00010000
00001000
00010000
00000010
00001000
00000100
00000010
00000000
00000001
00000000
,
00002002
00000000
00000000
00000000
,
00000000
00000000
00003003
00000000
,
00000001
00000000
00000100
00000000
00000010
00000000
00010000
00001000
00000000
00010000
00001000
00000000
00100000
00000000
01000000
00000000
,
10000000
00000000
01000000
00000000
00100000
00000000
00001000
00010000
00000000
00001000
00010000
00000000
00000010
00000000
00000000
00000000
,
00002002
00000000
00000000
00003003
,
00000001
00000000
00000010
00000000
00001000
00000000
00010000
00001000
00000000
00000000
00011000
00000000
00010000
00000000
00100000
00000000
,
10000000
00000000
01000000
00000000
00010000
00000000
00001000
00010000
00000000
00000000
00011000
00000000
00001000
00000000
00000100
00000000
,
00000110
00000000
00000000
00000000
00001001
00000000
00000000
00000000
00000110
00000000
00001000
00000000
00010000
00001000
00010000
00001000
,
00010000
01000000
10000000
01000000
00100000
00010000
10000000
00100000
,
00010000
00100000
01000000
10000000
01000000
00100000
00010000
00001000
,
00000100
00000001
00000100
00000010
00001000
00000100
00000010
00000100
,
00010000
00000000
01000000
00000000
00100000
00000000
00010000
00000000
10000000
00000000
00010000
00100000
00010000
00000000
01100000
00000000
,
10000000
00010000
00100000
00001000
00010000
00001000
00100000
01000000
,
10000000
00010000
10000000
00100000
01000000
00010000
01000000
00100000
,
00010000
00001000
00000010
00000001
00000100
00001000
00010000
00001000
,
00022000
00000000
00000000
00000000
00033000
00001000
00010000
00000010
,
00001010
00010000
00001000
00100000
00110000
00001000
00010000
00000010
,
00001000
00000010
00000100
00000010
00001000
00000001
00000010
00000100
,
00001000
00000100
00000010
00000100
00000001
00000100
00010000
00001000
,
00100000
00001000
00010000
00100000
10000000
00010000
00100000
01000000
,
10000000
01000000
00010000
01000000
10000000
00010000
10000000
00100000
,
00010000
00010000
00001000
00001000
00000100
00000100
00000001
00000001
,
00001000
00000100
00000010
00000001
00000010
00000100
00010000
00001000
,
00022000
00000000
00000000
00000000
00000000
00000000
00000000
00000000
00033000
00000000
00001000
00010000
00001000
00000000
00100000
00000000
,
00110000
00001000
00010000
00000010
00001010
00010000
00001000
00100000
,
00010000
00100000
01000000
00100000
00010000
10000000
00100000
01000000
,
00010000
01000000
00100000
01000000
10000000
01000000
00001000
00010000
,
00000010
00010000
00001000
00000010
00000001
00001000
00000010
00000100
,
00000001
00000100
00001000
00000100
00000001
00000010
00001000
00010000
,
01000000
10000000
01000000
00010000
01000000
00100000
00010000
10000000
,
01000000
00000000
01000000
00000000
00010000
00000000
00010000
00000000
00001000
00010000
00001000
00010000
00000100
00001000
00000001
00000100
,
00000020
00000000
00000000
00000030
,
00000110
00000000
00000100
00000000
00000001
00000000
00001000
00000100
00000000
00000100
00010000
00000000
00001000
00000000
00010000
00000000
,
00011000
00000000
00010000
00000000
01000000
00000000
10000000
00010000
00000000
00010000
10000000
00000000
00100000
00000000
01000000
00000000
,
01100000
00000000
00100000
00000000
10000000
00000000
00010000
00100000
00000000
00100000
00001000
00000000
00010000
00000000
00001000
00000000
,
00011000
00000000
00011000
00000000
,
00011000
00000000
00100000
00000000
00010000
00000000
10000000
00100000
00000000
10000000
00100000
00000000
01000000
00000000
00010000
00000000
,
10010000
00000000
00010000
00000000
00100000
00000000
01000000
10000000
00000000
01000000
00100000
01000000
00010000
00000000
00001000
00000000
,
00011000
00000000
00000100
00000000
00001000
00000000
00000010
00000000
00000100
00000010
00000100
00000010
00000100
00000000
00000000
00000000
,
00000110
00000000
00000000
00000000
00001001
00000000
00000000
00000000
00000110
00000000
00001000
00000000
00010000
00001000
00010000
00001000
,
00010000
00100000
10000000
00100000
01000000
00010000
10000000
01000000
,
00010000
01000000
00100000
10000000
00100000
01000000
00010000
00001000
,
00000010
00000001
00000010
00000100
00001000
00000010
00000100
00000010
,
00010000
00000000
00100000
00000000
01000000
00000000
00010000
00000000
10000000
00000000
00010000
01000000
00010000
00000000
01100000
00000000
,
10000000
00010000
01000000
00001000
00010000
00001000
01000000
00100000
,
10000000
00010000
10000000
01000000
00100000
00010000
00100000
01000000
,
00010000
00001000
00000100
00000001
00000010
00001000
00010000
00001000
,
00022000
00000000
00000000
00033000
,
00002000
00000010
00023000
01000000
,
00032000
00000000
00000010
00000000
00013000
01000000
10000000
00100000
,
00020000
00100000
00032000
00000100
,
00023000
00000000
00100000
00000000
00031000
00000100
00000001
00000010
,
00002000
00000010
00023000
01000000
,
00032000
00003020
00000032
00000203
,
00002300
00000000
00013000
02000000
00000000
03100000
01000000
10000000
,
00010000
00100000
00010000
00100000
00001000
00010000
00001000
00010000
00000200
00000000
00000000
00000000
00000300
00000000
00000000
00000000
,
00001100
00010000
00001000
01000000
01010000
00001000
00010000
00000100
,
00001000
00000100
00000010
00000100
00001000
00000001
00000100
00000010
,
00001000
00000010
00000100
00000010
00000001
00000010
00010000
00001000
,
01000000
00001000
00010000
01000000
10000000
00010000
01000000
00100000
,
10000000
00100000
00010000
00100000
10000000
01000000
00010000
00001000
,
00000010
00000001
00000010
00001000
00000010
00000100
00001000
00000001
,
00000010
00000000
00000010
00000000
00001000
00000000
00001000
00000000
00010000
00001000
00010000
00001000
00100000
00010000
10000000
00100000
,
02000000
00000000
00000000
03000000
,
00022000
00000000
00000000
00033000
,
00000220
00000000
00000000
00000330
,
00001001
00000001
00000100
00001000
00000100
00000100
00000001
00001000
,
00000010
00010000
00001000
00010000
01000000
01000000
10000000
00010000
,
10000000
00000000
00100000
00000000
00010000
00000000
00100000
01000000
00000000
01000000
00010000
00000000
10000000
00000000
01000000
00000000
,
00100000
00010000
00100000
00000000
00001000
00000000
00010000
00001000
00000000
00001000
01000000
00000000
01010000
00000000
00000000
00000000
,
10010000
10000000
01000000
00010000
01000000
01000000
10000000
00010000
,
00100000
00001000
00010000
00001000
00000100
00000100
00000001
00001000
,
00000001
00000000
00000010
00000000
00001000
00000000
00000010
00000100
00000000
00000100
00001000
00000000
00000001
00000000
00000100
00000000
,
00000010
00001000
00000010
00010000
00001000
00000000
00010000
00001000
00010000
00000100
00001000
00000010
00000100
00000000
00000001
00000000
,
00002002
00000000
00000000
00000000
,
00000000
00000000
00000000
00000000
00000000
00003003
00000000
00000000
;
