#VERSION:0.83;
#TITLE:Subside;
#SUBTITLE:;
#ARTIST:Ephixa & Bossfight;
#TITLETRANSLIT:;
#SUBTITLETRANSLIT:;
#ARTISTTRANSLIT:;
#GENRE:;
#ORIGIN:;
#CREDIT:;
#BANNER:Subside [ITG Edit].png;
#BACKGROUND:Subside [ITG Edit]-bg.png;
#PREVIEWVID:;
#JACKET:Subside [ITG Edit]-jacket.png;
#CDIMAGE:;
#DISCIMAGE:;
#LYRICSPATH:;
#CDTITLE:;
#MUSIC:Subside [ITG Edit].ogg;
#OFFSET:0.009000;
#SAMPLESTART:46.452000;
#SAMPLELENGTH:15.000000;
#SELECTABLE:YES;
#BPMS:0.000=124.000;
#STOPS:;
#DELAYS:;
#WARPS:;
#TIMESIGNATURES:0.000=4=4;
#TICKCOUNTS:0.000=4;
#COMBOS:0.000=1;
#SPEEDS:0.000=1.000=0.000=0;
#SCROLLS:0.000=1.000;
#FAKES:;
#LABELS:0.000=Song Start;
#BGCHANGES:;
#KEYSOUNDS:;
#ATTACKS:
;

//---------------dance-single - ----------------
#NOTEDATA:;
#CHARTNAME:;
#STEPSTYPE:dance-single;
#DESCRIPTION:;
#CHARTSTYLE:;
#DIFFICULTY:Challenge;
#METER:12;
#RADARVALUES:0.722284,1.044042,0.280478,1.284294,0.992744,685.000000,647.000000,38.000000,174.000000,23.000000,4.000000,2.000000,0.000000,0.000000,0.722284,1.044042,0.280478,1.284294,0.992744,685.000000,647.000000,38.000000,174.000000,23.000000,4.000000,2.000000,0.000000,0.000000;
#CREDIT:led_light;
#NOTES:
// measure 0
0000
0000
0000
0000
,  // measure 1
0000
0000
0000
0000
,  // measure 2
0000
0000
0000
0000
,  // measure 3
0000
0000
0000
0000
,  // measure 4
1000
0000
0001
0010
0000
0100
1000
0000
0001
0000
0000
0100
0010
0000
0100
0001
0000
1000
0001
0000
1000
0100
0000
1000
,  // measure 5
0001
0000
0010
0100
0000
1000
0000
0000
0010
0100
0000
0001
1000
0000
0010
0100
0000
0000
0001
0000
0010
0100
0000
1000
,  // measure 6
0001
0000
1000
0100
0000
0010
0001
0000
1000
0000
0000
0010
0100
0000
0010
1000
0000
0001
1000
0000
0001
0100
0000
0001
,  // measure 7
0020
0000
0000
0130
1000
0100
2000
0000
0000
3001
0000
0010
0000
0000
0001
0100
0000
0000
0020
0000
0000
0000
0000
0000
,  // measure 8
1030
1100
0200
0000
1010
0000
0301
0100
,  // measure 9
1000
1010
0020
0000
2130
0000
3002
0000
,  // measure 10
0013
0110
2000
0000
0101
0000
3020
0000
,  // measure 11
0130
0110
0002
0000
1013
0100
0001
0100
,  // measure 12
2000
0000
0000
3000
0000
0000
2000
0000
0000
3000
0000
0000
2000
0000
0000
3010
0000
0100
0001
0000
2000
0000
0000
3000
,  // measure 13
0200
0000
0000
0300
0000
0000
0200
0000
0000
0300
0000
0000
0200
0000
0000
0310
0000
0001
1000
0000
0020
0000
0000
0030
,  // measure 14
0200
0000
0000
0300
0000
0000
0200
0000
0000
0300
0000
0000
0200
0000
0000
0310
0000
1000
0100
0000
0020
0000
0000
0030
,  // measure 15
0002
0000
0000
0003
0000
0000
0002
0000
0103
0010
0000
0000
0100
0000
0001
0010
0000
0100
1000
0000
0000
0010
0000
0000
,  // measure 16
2200
0000
0000
3300
0000
0000
0022
0000
0000
0033
0000
0000
1100
0000
0000
1000
0000
0001
0100
0000
M100
0010
0000
0000
,  // measure 17
2200
0000
0000
3300
0000
0000
0022
0000
0000
0033
0000
0000
1010
0000
0000
1000
0000
0001
0100
0000
0010
1000
0000
0000
,  // measure 18
0202
0000
0000
0303
0000
0000
2020
0000
0000
3030
0000
0000
0101
0000
0000
0001
0000
1000
0010
0000
001M
0100
0000
0000
,  // measure 19
0011
0000
0000
0100
1000
0100
2000
0000
0000
3001
0000
0000
2010
0000
0000
3001
0000
0000
2100
0000
0000
3010
0000
0000
,  // measure 20
0220
0000
0000
0000
0000
0000
0330
0000
0000
0000
0000
0000
0001
0000
0000
0010
0000
0000
0100
0000
0000
0000
0000
0000
2000
0000
0000
0000
0000
0000
3001
0000
0000
0000
0100
0000
00M0
0000
0000
0000
0100
0000
1000
0000
0000
0000
0000
0000
,  // measure 21
0120
0000
0000
0000
0000
0000
0031
0000
0000
0000
0000
0000
0010
0000
0000
0100
0000
0000
1000
0000
0000
0000
0000
0000
0020
0000
0000
0000
0000
0000
1030
0000
0000
0000
0100
0000
00M0
0000
0000
0000
0100
0000
0001
0000
0000
0000
0000
0000
,  // measure 22
2020
0000
0000
0000
0000
0000
3030
0000
0000
0000
0000
0000
1000
0000
0000
0100
0000
0000
0010
0000
0000
0000
0000
0000
0200
0000
0000
0000
0000
0000
1300
0000
0000
0000
0010
0000
0M00
0000
0000
0000
0010
0000
0001
0000
0000
0000
0000
0000
,  // measure 23
0200
0000
0300
0200
0000
0300
0020
0000
0030
0020
0000
0030
2000
0000
3002
0000
,  // measure 24
0203
0000
0000
0000
0000
0000
0300
0000
0000
0000
0000
0000
0110
0000
0000
0100
0000
0000
0002
0000
0000
0000
0000
0000
0023
0000
0000
0000
0000
0000
0130
0000
0000
0000
1000
0000
0000
0000
0000
0000
2000
0000
0000
0000
0000
0000
3000
0000
,  // measure 25
0002
0000
0000
0000
0000
0000
0013
0000
0000
0000
0000
0000
1000
0000
0000
0010
0000
0000
1000
0000
0000
0000
0000
0000
0020
0000
0000
0000
0000
0000
0031
0000
0000
0000
0100
0000
0000
0000
0000
0000
0200
0000
0000
0000
0000
0000
0300
0000
,  // measure 26
0020
0000
0000
0000
0000
0000
0030
0000
0000
1000
0000
0000
0000
0000
0000
1000
0000
0000
0002
0000
0000
0000
0000
0000
0023
0000
0000
0000
0000
0000
0130
0000
0000
0000
1000
0000
0000
0000
0000
0000
2000
0000
0000
0000
0000
0000
3000
0000
,  // measure 27
0020
0000
0030
0M20
0000
0030
0020
0000
0030
0M20
0000
0030
0020
0000
0030
0M10
0000
0010
0000
0000
0020
0M00
0000
0030
,  // measure 28
0220
0000
0000
0000
0000
0000
0330
0000
0000
0000
0000
0000
1000
0000
0000
0001
0000
0000
2000
0000
0000
0000
0000
0000
3200
0000
0000
0000
0000
0000
0310
0000
0000
0000
0001
0000
0000
0000
0000
0000
0002
0000
0000
0000
0000
0000
0003
0000
,  // measure 29
2000
0000
0000
0000
0000
0000
3100
0000
0000
0000
0000
0000
0001
0000
0000
0100
0000
0000
0001
0000
0000
0000
0000
0000
0200
0000
0000
0000
0000
0000
1300
0000
0000
0000
0010
0000
0000
0000
0000
0000
0020
0000
0000
0000
0000
0000
0030
0000
,  // measure 30
0200
0000
0000
0000
0000
0000
0300
0000
0000
0001
0000
0000
0000
0000
0000
0001
0000
0000
1000
0000
0000
0000
0000
0000
0200
0000
0000
0000
0000
0000
0310
0000
0000
0000
0001
0000
0000
0000
0000
0000
0002
0000
0000
0000
0000
0000
0003
0000
,  // measure 31
0200
0000
0300
02M0
0000
0300
0200
0000
0300
02M0
0000
0300
0200
0000
0300
01M0
0000
0100
0000
0000
0200
00M0
0000
0000
,  // measure 32
1300
0000
0001
0100
0000
0010
1000
0000
0001
0000
0000
0010
0100
0000
0010
0001
0000
1000
0001
0000
1000
0010
0000
1000
,  // measure 33
0001
0000
0100
0010
0000
1000
0000
0000
0100
0010
0000
0001
1000
0000
0100
0010
0000
0000
0001
0000
0100
0010
0000
1000
,  // measure 34
0001
0000
1000
0010
0000
0100
0001
0000
1000
0000
0000
0100
0010
0000
0100
1000
0000
0001
1000
0000
0000
0001
0000
0010
,  // measure 35
0002
0000
0000
0103
0010
0100
0020
0000
0000
1030
0000
0000
0200
0000
0000
0310
0000
0000
0002
0000
0000
0000
0000
0000
,  // measure 36
1003
0000
0100
1000
0000
0100
1000
0000
0100
1000
0000
0100
0010
0000
0100
0010
0000
0100
0010
0000
0100
0010
0000
0100
,  // measure 37
1000
0000
0010
1000
0000
0010
0001
0000
0010
0001
0000
0010
1000
0000
0001
1000
0000
0001
0010
0000
0100
1000
0000
0001
,  // measure 38
1000
0010
1000
0010
0100
0001
1000
0010
0100
0010
1000
0001
1000
0100
0010
0100
1000
0001
0010
0100
0010
0001
0010
0100
,  // measure 39
4000
0004
0000
0000
0000
0000
0000
0000
3000
1003
0010
1000
0010
0000
0010
0000
0010
0000
0200
0000
0000
0000
0000
0000
,  // measure 40
0302
0000
0000
0000
1003
0100
0010
0100
1000
0000
0102
0000
0000
0000
1003
0000
,  // measure 41
0020
0000
0000
0000
1030
0000
0001
0000
1010
0000
0001
0000
0100
0010
1000
0000
,  // measure 42
0202
0000
0303
0000
0020
0000
0030
0010
0M10
0000
0020
0000
0030
0M20
0000
0030
,  // measure 43
0020
0000
0000
0000
0000
0000
0030
0000
0000
0M20
0000
0000
0000
0000
0000
0030
0000
0000
0010
0000
0100
0000
0010
0000
0100
0000
0001
0000
1000
0000
0010
0000
0000
0100
0000
0000
0001
0000
0000
1000
0000
0000
0001
0000
0000
0010
0000
0000
,  // measure 44
0200
0000
0000
0000
0000
0000
0000
0000
0000
0300
0000
0000
2000
0000
0000
0000
0000
0000
3001
0000
0010
0000
0100
0000
1000
0000
0000
0000
0000
0000
1001
0000
0000
0000
0000
0000
1100
0000
0000
0000
0000
0000
0011
0000
0000
0000
0000
0000
,  // measure 45
0002
0000
0000
0000
0203
0000
0320
0000
2030
0000
3200
0000
0000
0310
0001
0000
,  // measure 46
2200
0000
3300
0000
0020
0000
0030
0010
0M10
0000
0020
0000
0030
0M20
0000
0030
,  // measure 47
0020
0000
0030
0M20
0000
0030
0020
0000
0130
0020
0000
0030
0M20
0000
0000
0000
,  // measure 48
0230
0000
0000
0000
0000
0000
0010
0000
0000
0000
0000
0000
0310
0000
0000
0100
0000
0010
0000
0000
0020
0000
0000
0030
,  // measure 49
2000
0000
0000
3000
0000
0000
2000
0000
0000
3000
0000
0000
2000
0000
0000
3100
0000
0010
0000
0000
0010
0100
0000
1000
,  // measure 50
0002
0000
0000
0003
0000
0000
0200
0000
0000
0300
0000
0000
0200
0000
0000
0301
0000
1000
0000
0000
0200
0000
0000
0300
,  // measure 51
1000
0000
0001
0000
0010
0000
1000
0000
0010
0000
0001
0000
1000
0000
0001
0100
0000
0010
1000
0000
0000
1100
0000
0000
,  // measure 52
1000
0000
0000
0000
0000
0000
0000
0000
0100
0000
0000
0000
0000
0000
0000
0000
0010
0000
0000
0000
0000
0000
0000
0000
0001
0000
0000
0000
0000
0000
0010
0000
0000
0000
0000
0000
0001
0000
0000
0000
0000
0000
0010
0000
0000
0000
0000
0000
0000
0000
0000
0000
0000
0000
0000
0000
0000
0000
0000
0000
0000
0000
0000
0000
0100
0000
0000
0000
0000
0000
0000
0000
1000
0000
0000
0000
0000
0000
0000
0000
0000
0000
0000
0000
0000
0000
0000
0000
0001
0000
0000
0000
0000
0000
0000
0000
0000
0000
0000
0000
0000
0000
0000
0000
0000
0000
0000
0000
0000
0000
0000
0000
0100
0000
0000
0000
0000
0000
0000
0000
0001
0000
0000
0000
0000
0000
0000
0000
0000
0000
0000
0000
0000
0000
0000
0000
1000
0000
0000
0000
0000
0000
0000
0000
0100
0000
0000
0000
0000
0000
0000
0000
0000
0000
0000
0000
0000
0000
0000
0000
0000
0000
0000
0000
0000
0000
0000
0000
0010
0000
0000
0000
0000
0000
0000
0000
0000
0000
0000
0000
0000
0000
0000
0000
0000
0000
0000
0000
0000
0000
0000
0000
,  // measure 53
0110
0000
1000
0001
0000
0100
0001
0000
1000
0010
0000
1000
0001
0000
0010
0100
0000
1000
0001
0000
0010
0200
0000
0300
,  // measure 54
1000
0000
0000
0000
0000
0000
0000
0000
0010
0000
0000
0000
0000
0000
0000
0000
0100
0000
0000
0000
0000
0000
0000
0000
0010
0000
0000
0000
0000
0000
1000
0000
0000
0000
0000
0000
0010
0000
0000
0000
0000
0000
1000
0000
0000
0000
0000
0000
0000
0000
0000
0000
0000
0000
0000
0000
0000
0000
0000
0000
0000
0000
0000
0000
0001
0000
0000
0000
0000
0000
0000
0000
1000
0000
0000
0000
0000
0000
0000
0000
0000
0000
0000
0000
0000
0000
0000
0000
0100
0000
0000
0000
0000
0000
0000
0000
0000
0000
0000
0000
0000
0000
0000
0000
0000
0000
0000
0000
0000
0000
0000
0000
0010
0000
0000
0000
0000
0000
0000
0000
0001
0000
0000
0000
0000
0000
0000
0000
0000
0000
0000
0000
0000
0000
0000
0000
1000
0000
0000
0000
0000
0000
0000
0000
0001
0000
0000
0000
0000
0000
0000
0000
0000
0000
0000
0000
0000
0000
0000
0000
0100
0000
0000
0000
0000
0000
0000
0000
0020
0000
0000
0000
0000
0000
0000
0000
0000
0000
0000
0000
0000
0000
0000
0000
0000
0000
0000
0000
0000
0000
0000
0000
,  // measure 55
2030
0000
0000
0000
0000
0000
0000
0000
0000
0000
0000
0000
0000
0000
0000
0000
0000
0000
0000
0000
0000
0000
0000
0000
3100
0000
0000
0000
0000
0000
0000
0000
0010
0000
0000
0000
0000
0000
0000
0000
0100
0000
0000
0000
0000
0000
0000
0000
0020
0000
0000
0000
0000
0000
0000
0000
0000
0000
0000
0000
0000
0000
0000
0000
0000
0000
0000
0000
0000
0000
0000
0000
0130
0000
0000
0000
0000
0000
0000
0000
0000
0000
0000
0000
0000
0000
0000
0000
0000
0000
0000
0000
0000
0000
0000
0000
2000
0000
0000
0000
0000
0000
0000
0000
0000
0000
0000
0000
0000
0000
0000
0000
0000
0000
0000
0000
0000
0000
0000
0000
3010
0000
0000
0000
0000
0000
0000
0000
0000
0000
0000
0000
0100
0000
0000
0000
0000
0000
0010
0000
0000
0000
0000
0000
1000
0000
0000
0000
0000
0000
0000
0000
0001
0000
0000
0000
0000
0000
0000
0000
1000
0000
0000
0000
0000
0000
0000
0000
0001
0000
0000
0000
0000
0000
0000
0000
0000
0000
0000
0000
0010
0000
0000
0000
0000
0000
0000
0000
0000
0000
0000
0000
,  // measure 56
0001
0000
0000
0000
0000
0000
0000
0000
0010
0000
0000
0000
0000
0000
0000
0000
0100
0000
0000
0000
0000
0000
0000
0000
1000
0000
0000
0000
0000
0000
0100
0000
0000
0000
0000
0000
1000
0000
0000
0000
0000
0000
0100
0000
0000
0000
0000
0000
0000
0000
0000
0000
0000
0000
0000
0000
0000
0000
0000
0000
0000
0000
0000
0000
0010
0000
0000
0000
0000
0000
0000
0000
0001
0000
0000
0000
0000
0000
0000
0000
0000
0000
0000
0000
0000
0000
0000
0000
1000
0000
0000
0000
0000
0000
0000
0000
0000
0000
0000
0000
0000
0000
0000
0000
0000
0000
0000
0000
0000
0000
0000
0000
0100
0000
0000
0000
0000
0000
0000
0000
1000
0000
0000
0000
0000
0000
0000
0000
0000
0000
0000
0000
0000
0000
0000
0000
0001
0000
0000
0000
0000
0000
0000
0000
0010
0000
0000
0000
0000
0000
0000
0000
0000
0000
0000
0000
0000
0000
0000
0000
0100
0000
0000
0000
0000
0000
0000
0000
2000
0000
0000
0000
0000
0000
0000
0000
0000
0000
0000
0000
0000
0000
0000
0000
0000
0000
0000
0000
0000
0000
0000
0000
,  // measure 57
3001
0000
1000
0100
0000
1000
0000
0000
0001
0100
0000
0001
1000
0000
0010
0100
0000
0001
0010
0000
0000
0210
0000
0000
,  // measure 58
1300
0000
0000
0000
0000
0000
0000
0000
0100
0000
0000
0000
0000
0000
0000
0000
0010
0000
0000
0000
0000
0000
0000
0000
0001
0000
0000
0000
0000
0000
0010
0000
0000
0000
0000
0000
0001
0000
0000
0000
0000
0000
0010
0000
0000
0000
0000
0000
0000
0000
0000
0000
0000
0000
0000
0000
0000
0000
0000
0000
0000
0000
0000
0000
0100
0000
0000
0000
0000
0000
0000
0000
1000
0000
0000
0000
0000
0000
0000
0000
0000
0000
0000
0000
0000
0000
0000
0000
0001
0000
0000
0000
0000
0000
0000
0000
0000
0000
0000
0000
0000
0000
0000
0000
0000
0000
0000
0000
0000
0000
0000
0000
0010
0000
0000
0000
0000
0000
0000
0000
0001
0000
0000
0000
0000
0000
0000
0000
0000
0000
0000
0000
0000
0000
0000
0000
1000
0000
0000
0000
0000
0000
0000
0000
0100
0000
0000
0000
0000
0000
0000
0000
0000
0000
0000
0000
0000
0000
0000
0000
0010
0000
0000
0000
0000
0000
0000
0000
0002
0000
0000
0000
0000
0000
0000
0000
0000
0000
0000
0000
0000
0000
0000
0000
0000
0000
0000
0000
0000
0000
0000
0000
,  // measure 59
0203
0000
0300
0200
0000
0300
0020
0000
0030
0020
0000
0030
2000
0000
3002
0000
,  // measure 60
0203
0000
0000
0000
0000
0000
0300
0000
0000
0000
0000
0000
0110
0000
0000
0100
0000
0000
0002
0000
0000
0000
0000
0000
2003
0000
0000
0000
0000
0000
3100
0000
0000
0000
0010
0000
0000
0000
0000
0000
0020
0000
0000
0000
0000
0000
0030
0000
,  // measure 61
0001
0000
0000
0100
0000
0000
0001
0000
0000
0100
0000
0000
0010
0000
0000
1000
0000
0000
0001
0000
0010
0000
0100
0000
2000
0000
0000
0000
3000
0000
0001
0000
0000
0000
0010
0000
0000
0000
0000
0000
0020
0000
0000
0000
0000
0000
0030
0000
,  // measure 62
0200
0000
0000
0000
0000
0000
0310
0000
0000
0000
0000
0000
0001
0000
0000
1000
0000
0000
0001
0000
0000
0000
0000
0000
0200
0000
0000
0000
0000
0000
0310
0000
0000
0000
1000
0000
0000
0000
0000
0000
2000
0000
0000
0000
0000
0000
3000
0000
,  // measure 63
0100
0020
0000
0130
0020
0000
0130
0020
0000
0130
0010
0100
1000
0100
0020
0030
,  // measure 64
0220
0000
0000
0000
0000
0000
0330
0000
0000
0000
0000
0000
1000
0000
0000
0001
0000
0000
0000
0000
0000
0001
0000
0000
0200
0000
0000
0000
0000
0000
0310
0000
0000
0000
1000
0000
0000
0000
0000
0000
1000
0000
0000
0000
0000
0000
1000
0000
,  // measure 65
0000
0000
0000
0100
0000
0000
0020
0000
0000
0000
0000
0000
0031
0000
0000
0010
0000
0000
0200
0000
0000
0000
0000
0000
2300
0000
0000
0000
0000
0000
3001
0000
0000
0000
0010
0000
0000
0000
0000
0000
0010
0000
0001
0000
1000
0000
0001
0000
,  // measure 66
2000
0000
0000
0000
0000
0000
3000
0000
0000
0001
0000
0000
0000
0000
0000
0001
0000
0000
0200
0000
0000
0000
0000
0000
0320
0000
0000
0000
0000
0000
1030
0000
0000
0000
0001
0000
0000
0000
0000
0000
0002
0000
0000
0000
0000
0000
0003
0000
,  // measure 67
0020
0030
0M20
0030
0020
0030
0M20
0030
0020
0030
0M10
0020
0000
0030
0200
0300
,  // measure 68
2002
0000
0000
0000
,  // measure 69
3003
0000
0000
0000
;
