#VERSION:0.83;
#TITLE:Stuck In The Abyss;
#SUBTITLE:;
#ARTIST:Noctyx;
#TITLETRANSLIT:;
#SUBTITLETRANSLIT:;
#ARTISTTRANSLIT:;
#GENRE:にじさんじ;
#ORIGIN:;
#CREDIT:;
#BANNER:Stuck In The Abyss.png;
#BACKGROUND:../bg.png;
#PREVIEWVID:;
#JACKET:Stuck In The Abyss-jacket.png;
#CDIMAGE:;
#DISCIMAGE:;
#LYRICSPATH:;
#CDTITLE:../cdtitle.png;
#MUSIC:Stuck In The Abyss.ogg;
#OFFSET:1.562000;
#SAMPLESTART:66.189003;
#SAMPLELENGTH:15.000000;
#SELECTABLE:YES;
#BPMS:0.000=150.000;
#STOPS:34.000=0.400,
91.000=0.200,
91.500=0.200,
162.000=2.800,
227.000=2.800;
#DELAYS:;
#WARPS:;
#TIMESIGNATURES:0.000=4=4;
#TICKCOUNTS:0.000=4;
#COMBOS:0.000=1;
#SPEEDS:0.000=1.000=0.000=0;
#SCROLLS:0.000=1.000;
#FAKES:;
#LABELS:0.000=Song Start;
#BGCHANGES:3.750=Stuck In The Abyss.avi=1.000=0=0=0=StretchNoLoop====,
99999=-nosongbg-=1.000=0=0=0 // don't automatically add -songbackground-
;
#KEYSOUNDS:;
#ATTACKS:
;

//---------------dance-single - ----------------
#NOTEDATA:;
#CHARTNAME:;
#STEPSTYPE:dance-single;
#DESCRIPTION:;
#CHARTSTYLE:;
#DIFFICULTY:Hard;
#METER:10;
#RADARVALUES:0.360822,0.488478,0.234129,0.205750,0.109970,356.000000,323.000000,33.000000,29.000000,0.000000,0.000000,0.000000,0.000000,0.000000,0.360822,0.488478,0.234129,0.205750,0.109970,356.000000,323.000000,33.000000,29.000000,0.000000,0.000000,0.000000,0.000000,0.000000;
#CREDIT:led_light;
#NOTES:
0000
0000
0000
0000
,
0000
0000
0000
0000
,
0000
0000
0000
0000
,
0000
0000
0000
0000
,
0000
0000
0000
0000
,
0001
0001
1000
1000
,
0001
0001
0010
0010
,
0100
0100
1000
1000
,
0001
0001
1000
1001
,
0001
0000
1000
0100
0000
0000
0100
0000
0000
1000
0000
0000
,
0001
0100
0010
1000
0000
0000
0000
0000
0000
0110
0000
0000
,
1000
0000
0100
1000
0000
0000
1000
0000
0000
0001
0000
0000
,
0010
0100
1000
0001
0000
0000
0000
0000
0000
1001
0000
0000
,
0001
0000
1000
0100
0000
0000
0100
0000
0000
1000
0000
0000
,
0001
0100
0010
1000
0000
0000
0001
0000
0000
1000
0100
1000
,
0100
0000
0000
0001
0100
0001
0100
0000
0000
1000
0100
0010
,
0001
0000
0010
0100
0000
0000
1000
0000
0000
0001
0000
0100
,
0001
0101
0000
1000
,
0100
0000
0000
1100
0000
0000
0001
0000
1000
0010
0000
0000
,
1000
0000
0001
0100
0000
0000
0010
0000
1000
0100
0000
0100
,
1000
0000
0000
1100
0000
0000
0100
0000
0010
0001
0000
1000
,
0020
0000
0000
0130
0000
0010
0001
0000
0001
0010
0000
0100
,
0020
0000
0000
0000
0000
0000
1030
0000
0000
0000
0000
0000
0001
0000
0000
0000
0010
0000
0100
0000
0000
0100
0000
0000
,
0100
1000
0001
0100
0000
0010
1000
0000
0000
0010
0000
0000
,
0110
0000
0010
1000
0002
0000
0000
0000
,
0000
0000
0000
0000
,
0000
0000
0020
0000
,
0000
0000
0030
0000
,
0000
0000
2000
0000
,
0000
0000
0003
0000
,
0000
0000
0200
0000
,
3000
0000
0020
0000
,
0030
0000
1300
0000
,
1010
0000
0000
0000
0001
0100
0001
0000
,
0020
0000
0130
0000
,
1100
0000
0000
0000
0001
0010
0001
0000
,
2000
0000
3010
0000
,
0110
0000
0000
0000
0001
0100
0010
0000
,
2000
0000
0002
0000
,
0000
0000
0000
3003
,
0020
0000
0000
0000
0000
0000
0000
0000
0000
0000
0000
0000
0000
0000
0000
0000
0000
0000
0000
0000
0000
0000
0000
0000
0000
0000
0000
0000
0000
0000
0000
0000
0200
0330
0000
0000
0000
0000
0000
0000
0000
0000
0000
0000
0000
0000
0000
0000
2002
0000
0000
0000
0000
0000
0000
0000
0000
0000
0000
0000
0000
0000
0000
0000
,
3003
0101
0000
0000
,
1000
0000
0001
0100
0010
1000
0002
0000
,
0003
0011
0000
0000
,
0001
1000
0001
0001
0100
0010
2000
0000
,
3000
1100
0000
0000
,
1000
0000
0001
0010
1000
0010
0002
0000
,
0003
0000
1000
0100
0010
0001
0200
0000
,
0300
0000
0001
0010
0100
1000
0001
0100
,
0001
0100
1000
0100
1000
0100
0001
0000
,
0001
0000
0110
0010
1000
0100
0010
0001
,
0010
0001
1000
0010
1000
0010
0100
0000
,
0100
0000
0011
0010
0010
1000
0002
0000
,
0003
0011
0000
0000
,
0100
0000
1000
0100
0001
0100
2000
0000
,
3000
0000
0001
0010
0100
1000
0020
0000
,
0030
0000
0000
0000
0000
0000
0000
0000
0000
0000
0000
0000
0000
0000
0000
0000
1000
0000
0000
0000
0000
0000
0000
0000
0100
0000
0000
0000
0000
0000
0000
0000
0010
0000
0000
0000
0000
0000
0000
0000
0001
0000
0000
0000
0000
0000
0000
0000
2000
3000
0000
0000
0000
0000
0000
0000
0000
0000
0000
0000
0000
0000
0000
0000
,
0011
0000
0000
0001
0100
0000
0100
0001
,
1000
0100
1000
0000
0001
0001
1000
0000
,
1100
0000
0000
1000
0010
0000
0010
1000
,
0001
0010
0001
0000
1000
1000
0001
0100
,
0110
0000
0000
0010
1000
0000
1000
0100
,
0010
0010
0010
0000
0001
0100
0001
0000
,
0110
0000
0000
0100
0001
0000
0001
0010
,
0100
0010
0001
0000
1000
0100
1000
0001
,
0200
0300
0101
0000
,
0010
0000
0010
0000
1100
0000
0001
1000
,
0200
0300
0110
0000
,
0001
1000
0001
1000
0010
0000
1000
0000
,
2100
0000
3001
0000
,
1000
0000
1000
0000
1010
0000
0100
0001
,
2000
0000
3001
0000
,
0010
0100
0010
0100
0001
0100
1000
0000
,
1001
0000
0000
0000
1010
0000
0001
0100
,
0001
0000
0000
0000
1100
0000
0001
0010
,
0002
0000
1003
0000
,
0010
0000
0000
0010
0000
0000
0100
0000
0001
0000
0001
0000
1000
0000
0100
0000
,
1100
0000
0000
0000
0011
0000
1000
0100
,
1000
0000
0000
0000
0101
0000
1000
0010
,
2000
0000
3001
0000
,
0010
0100
0010
0100
0001
0100
1000
0000
,
1001
0000
0000
0000
;

//---------------dance-single - ----------------
#NOTEDATA:;
#CHARTNAME:;
#STEPSTYPE:dance-single;
#DESCRIPTION:;
#CHARTSTYLE:;
#DIFFICULTY:Medium;
#METER:7;
#RADARVALUES:0.254400,0.402276,0.198655,0.141896,0.003547,251.000000,223.000000,28.000000,20.000000,0.000000,0.000000,0.000000,0.000000,0.000000,0.254400,0.402276,0.198655,0.141896,0.003547,251.000000,223.000000,28.000000,20.000000,0.000000,0.000000,0.000000,0.000000,0.000000;
#CREDIT:led_light;
#NOTES:
0000
0000
0000
0000
,
0000
0000
0000
0000
,
0000
0000
0000
0000
,
0000
0000
0000
0000
,
0000
0000
0000
0000
,
2000
0100
0100
0100
,
0100
0100
0100
3100
,
0002
0100
0100
0100
,
0100
0100
0103
1001
,
0001
0100
0100
0001
,
0001
1100
0000
0011
,
0001
1000
1000
0010
,
0010
0110
0000
1001
,
0001
1000
1000
0100
,
0100
0110
0000
0001
,
0001
1000
1000
0001
,
1000
0000
0001
0000
0000
0000
1000
0100
,
0010
0001
0000
0001
,
1000
0001
0000
0101
,
0000
0000
1010
0000
0000
0000
0001
0010
,
0100
1000
0000
0001
,
0001
0000
1000
0100
1000
0000
0001
0000
,
0001
0000
0110
0000
0000
0000
0010
0010
,
0010
0000
0100
0010
0000
0000
1000
0000
0000
1000
0000
0000
,
1100
0001
2000
0000
,
0000
0000
0000
0000
,
0000
0000
3020
0000
,
0000
0000
0000
0000
,
0000
0000
0230
0000
,
0000
0000
0000
0000
,
0000
0000
0302
0000
,
0000
0000
2003
0000
,
0000
0000
3001
0000
,
0101
0000
0000
0000
0010
0100
0010
0000
,
0021
0000
0130
0000
,
1100
0000
0000
0000
0001
1000
0001
0000
,
0102
0000
1003
0000
,
1100
0000
0000
0000
0010
0001
0010
0000
,
0200
0000
0020
0000
,
0000
0000
0000
0330
,
0002
0000
1003
1001
,
0000
0100
0000
0000
,
0100
0000
0001
0100
0001
0000
1010
0000
,
0000
0100
0000
0000
,
0001
0000
1000
0100
1000
0100
1001
0000
,
0000
0010
0000
0000
,
0010
0000
0001
0010
0001
0000
1100
0000
,
0000
0000
0001
0100
0001
0000
1010
0000
,
0000
0000
0100
0010
0100
0000
0001
1000
,
0100
0000
1000
0100
0010
0000
0001
0000
,
0000
0000
0001
0000
1100
0000
1000
0001
,
0100
0000
0001
0100
0010
0000
1000
0000
,
0001
0000
1000
0100
1000
0100
1001
0000
,
0000
0010
0000
0000
,
0010
0000
0001
0010
0001
0000
1100
0000
,
0000
0000
0001
0100
0001
0000
1010
0000
,
0000
0000
0100
0010
0100
0000
0001
0000
,
1001
0000
0001
0000
,
0000
0000
0001
0000
1000
0100
0010
0000
,
0011
0000
0100
0000
,
0000
0000
0100
0000
1000
0001
0100
0010
,
1010
0000
0001
0000
,
0000
0000
0001
0000
0010
0100
1000
0000
,
1100
0000
0001
0000
,
1000
0100
0010
0000
0001
0100
0010
0000
,
2000
0000
3100
0000
,
0000
0000
0100
0000
,
0002
0000
0013
0000
,
0000
0000
0000
0000
0010
0000
1000
0100
,
2000
0000
3010
0000
,
0000
0000
0010
0000
,
0002
0000
0103
0000
,
0000
0000
0100
1000
,
0002
0000
1003
0000
,
0000
0000
1000
0000
,
0200
0000
1300
0000
,
0000
0000
0000
0000
1000
0000
0100
0010
,
0002
0000
1003
0000
,
0000
0000
1000
0000
,
0020
0000
1030
0000
,
0001
0100
0010
0000
1000
0000
0001
0000
,
1000
0000
0000
0000
;

//---------------dance-single - ----------------
#NOTEDATA:;
#CHARTNAME:;
#STEPSTYPE:dance-single;
#DESCRIPTION:;
#CHARTSTYLE:;
#DIFFICULTY:Easy;
#METER:5;
#RADARVALUES:0.195614,0.258606,0.191560,0.106422,0.000000,193.000000,166.000000,27.000000,15.000000,0.000000,0.000000,0.000000,0.000000,0.000000,0.195614,0.258606,0.191560,0.106422,0.000000,193.000000,166.000000,27.000000,15.000000,0.000000,0.000000,0.000000,0.000000,0.000000;
#CREDIT:led_light;
#NOTES:
0000
0000
0000
0000
,
0000
0000
0000
0000
,
0000
0000
0000
0000
,
0000
0000
0000
0000
,
0000
0000
0000
0000
,
0000
0000
0000
0000
,
0000
0000
0000
0000
,
0000
0000
0000
0000
,
0000
0000
0000
1000
,
0000
0001
0000
1000
,
1000
1000
0000
1100
,
0000
0001
0000
0100
,
0100
0100
0000
0110
,
0000
0001
0000
0010
,
0010
0010
0000
0001
,
0010
0001
0100
0010
,
1000
0001
0000
0001
,
0100
0101
0000
1000
,
0100
1100
0000
0010
,
0000
0110
0000
1000
,
0001
1001
0000
0001
,
0000
1000
0000
0010
,
0100
0000
0010
0000
0000
0000
1000
1000
,
0100
0000
0001
0001
,
0010
0000
2000
0000
,
0000
0000
0000
0000
,
0000
0000
3002
0000
,
0000
0000
0000
0000
,
0000
0000
0023
0000
,
0000
0000
0000
0000
,
0000
0000
0230
0000
,
0000
0000
2300
0000
,
0000
0000
3001
0000
,
0011
0000
0001
0100
,
0002
0000
1003
0000
,
1100
0000
0010
0001
,
2000
0000
3001
0000
,
0101
0000
0001
0010
,
0200
0000
2000
0000
,
0000
0000
0000
0000
,
3300
0000
1001
0110
,
0000
0010
0000
0000
,
0010
0100
0010
0011
,
0000
1000
0000
0000
,
0100
1000
0001
0011
,
0000
1000
0000
0000
,
1000
0010
0010
0110
,
0000
0001
0001
1100
,
0000
1000
0001
1000
,
0100
0001
0100
1000
,
0000
1000
1001
0001
,
0010
1000
0010
0001
,
0000
0001
1000
1100
,
0000
0001
0000
0000
,
0001
0100
0100
0110
,
0000
1000
1000
0011
,
0000
0001
1000
0010
,
0110
0000
0010
0000
,
0000
0010
0001
0010
,
1100
0000
0100
0000
,
0000
0100
0001
0001
,
0110
0000
0100
0000
,
0000
0100
1000
0100
,
0011
0000
0010
0000
,
1000
0010
1000
1000
,
0001
0000
0011
0000
,
0100
0000
0110
0000
,
2000
0000
3000
0000
,
0010
0000
1000
0001
,
0100
0000
0101
0000
,
1000
0000
1001
0000
,
0020
0000
0030
0000
,
0001
0000
0010
0100
,
0020
0000
0030
0000
,
0100
0000
0001
0000
,
2000
0000
3000
0000
,
0010
0000
0100
0100
,
0002
0000
0003
0000
,
0001
0000
1000
0000
,
0020
0000
0030
0000
,
0001
0010
1000
0100
,
0001
0000
0000
0000
;

//---------------dance-single - ----------------
#NOTEDATA:;
#CHARTNAME:;
#STEPSTYPE:dance-single;
#DESCRIPTION:;
#CHARTSTYLE:;
#DIFFICULTY:Beginner;
#METER:2;
#RADARVALUES:0.076016,0.143670,0.113517,0.063853,0.000000,75.000000,59.000000,16.000000,9.000000,0.000000,0.000000,0.000000,0.000000,0.000000,0.076016,0.143670,0.113517,0.063853,0.000000,75.000000,59.000000,16.000000,9.000000,0.000000,0.000000,0.000000,0.000000,0.000000;
#CREDIT:led_light;
#NOTES:
0000
0000
0000
0000
,
0000
0000
0000
0000
,
0000
0000
0000
0000
,
0000
0000
0000
0000
,
0000
0000
0000
0000
,
0000
0000
0000
0000
,
0000
0000
0000
0000
,
0000
0000
0000
0000
,
0000
0000
0000
1001
,
0000
0000
0000
0000
,
0000
1000
0000
1001
,
0000
0000
0000
0000
,
0000
0001
0000
1001
,
0000
0000
0000
0000
,
0000
1000
0000
0001
,
0000
0001
0000
0001
,
0000
0000
0000
1000
,
0000
0000
0000
1000
,
0000
0000
0000
0001
,
0000
0000
0000
0001
,
0000
0000
0000
1000
,
0000
0000
0000
0010
,
0000
0000
0000
0100
,
0000
0000
0010
0000
,
0000
0000
2000
0000
,
0000
0000
3000
0000
,
0000
0000
0002
0000
,
0000
0000
0003
0000
,
0000
0000
0020
0000
,
0000
0000
0030
0000
,
0000
0000
0200
0000
,
0000
0000
0300
0000
,
0000
0000
1000
0000
,
0000
0000
1000
0000
,
0000
0000
0001
0000
,
0000
0000
0001
0000
,
0000
0000
0100
0000
,
0000
0000
0010
0000
,
0000
0000
2000
0000
,
0000
0000
0000
0000
,
3000
0000
1001
1001
,
0000
0000
0000
0000
,
0000
0000
0000
1001
,
0000
0000
0000
0000
,
0000
0000
0000
0110
,
0000
0000
0000
0000
,
0000
0000
0000
0110
,
0000
0000
0000
1001
,
0000
0000
0000
0100
,
0000
0100
0000
0100
,
0000
0000
0000
0001
,
0000
0001
0000
0001
,
0000
0000
0000
0110
,
0000
0000
0000
0000
,
0000
0000
0000
0110
,
0000
0000
0000
0110
,
0000
0000
0000
0100
,
1001
0000
0000
0000
,
0000
0000
0000
0000
,
0110
0000
0000
0000
,
0000
0000
0000
0000
,
0110
0000
0000
0000
,
0000
0000
0000
0000
,
1001
0000
0000
0000
,
0000
0000
0000
0000
,
2000
0000
0000
0000
,
3000
0000
0000
0000
,
0002
0000
0000
0000
,
0003
0000
0000
0000
,
2000
0000
0000
0000
,
3000
0000
0000
0000
,
0002
0000
0000
0000
,
0003
0000
0000
0000
,
1000
0000
0000
0000
,
1000
0000
0000
0000
,
1000
0000
0000
0000
,
0000
0000
0000
0000
,
0010
0000
0000
0000
,
0010
0000
0000
0000
,
0010
0000
0000
0000
,
0000
0000
0000
0000
,
0100
0000
0000
0000
;

//---------------dance-double - ----------------
#NOTEDATA:;
#CHARTNAME:;
#STEPSTYPE:dance-double;
#DESCRIPTION:;
#CHARTSTYLE:;
#DIFFICULTY:Easy;
#METER:5;
#RADARVALUES:0.192574,0.287340,0.198655,0.106422,0.000000,190.000000,162.000000,28.000000,15.000000,0.000000,0.000000,0.000000,0.000000,0.000000,0.192574,0.287340,0.198655,0.106422,0.000000,190.000000,162.000000,28.000000,15.000000,0.000000,0.000000,0.000000,0.000000,0.000000;
#CREDIT:led_light;
#NOTES:
00000000
00000000
00000000
00000000
,
00000000
00000000
00000000
00000000
,
00000000
00000000
00000000
00000000
,
00000000
00000000
00000000
00000000
,
00000000
00000000
00000000
00000000
,
00000000
00000000
00000000
00000000
,
00000000
00000000
00000000
00000000
,
00000000
00000000
00000000
00000000
,
00000000
00000000
00000000
00011000
,
00000000
00000010
00000000
00000100
,
00000100
00000100
00000000
00001001
,
00000000
00000010
00000000
00000100
,
00000100
00000100
00000000
00011000
,
00000000
00001000
00000000
00010000
,
00010000
00010000
00000000
00001000
,
00001000
00010000
00010000
00001000
,
00100000
00110000
00000000
00010000
,
01000000
01100000
00000000
10000000
,
01000000
01100000
00000000
10000000
,
00000000
10100000
00000000
01000000
,
00001000
00011000
00000000
00000100
,
00000000
00000100
00000000
00000010
,
00001000
00000000
00000010
00000000
00000000
00000000
00000001
00000001
,
00000001
00000000
00001000
00001000
,
00000010
00000000
00000200
00000000
,
00000000
00000000
00000000
00000000
,
00000000
00000000
00002300
00000000
,
00000000
00000000
00000000
00000000
,
00000000
00000000
00203000
00000000
,
00000000
00000000
00000000
00000000
,
00000000
00000000
02300000
00000000
,
00000000
00000000
23000000
00000000
,
00000000
00000000
30010000
00000000
,
10100000
00000000
00010000
01000000
,
02000000
00000000
03100000
00000000
,
00011000
00000000
00000010
00001000
,
00000020
00000000
00001030
00000000
,
00010100
00000000
00001000
00000010
,
00000002
00000000
00002003
00000000
,
00000000
00000000
00000000
00000000
,
00003000
00000000
00000001
00001001
,
00000000
00000100
00000000
00000000
,
00001000
00000010
00000010
00001100
,
00000000
00010000
00000000
00000000
,
00001000
01000000
01000000
10100000
,
00000000
01000000
00000000
00000000
,
00010000
00100000
00100000
01100000
,
00000000
10000000
10000000
10010000
,
00000000
00010000
00100000
00001000
,
00010000
00100000
00010000
00001000
,
00000000
00011000
00000000
00000010
,
00001000
00010000
00001000
00000010
,
00000000
00000100
00000100
00000011
,
00000000
00000100
00000000
00000000
,
00001000
00000010
00000010
00000110
,
00000000
00000001
00000001
00001001
,
00000000
00001000
00000100
00010000
,
00011000
00000000
00001000
00000000
,
00000000
00010000
00001000
00000000
,
01010000
00000000
00001000
00000000
,
00000000
00100000
00010000
00100000
,
01100000
00000000
10000000
00000000
,
00000000
00100000
10000000
00000000
,
01010000
00000000
00001000
00000000
,
00001000
00010000
00010000
00000000
,
00001000
00000000
00011000
00000000
,
00000100
00000000
00011000
00000000
,
00000020
00000000
00000030
00000000
,
00000001
00000000
00000100
00000001
,
00001000
00000000
00001100
00000000
,
00000010
00000000
00001100
00000000
,
00000002
00000000
00000003
00000000
,
00000100
00000000
00000010
00000010
,
00020000
00000000
00030000
00000000
,
00001000
00000000
00010000
00000000
,
02000000
00000000
03000000
00000000
,
10000000
00000000
01000000
00100000
,
00020000
00000000
00030000
00000000
,
10000000
00000000
00100000
00000000
,
02000000
00000000
03000000
00000000
,
00001000
00010000
01000000
00010000
,
00001000
00000000
00000000
00000000
;

//---------------dance-double - ----------------
#NOTEDATA:;
#CHARTNAME:;
#STEPSTYPE:dance-double;
#DESCRIPTION:;
#CHARTSTYLE:;
#DIFFICULTY:Medium;
#METER:7;
#RADARVALUES:0.248319,0.373542,0.205750,0.141896,0.003547,245.000000,216.000000,29.000000,20.000000,0.000000,0.000000,0.000000,0.000000,0.000000,0.248319,0.373542,0.205750,0.141896,0.003547,245.000000,216.000000,29.000000,20.000000,0.000000,0.000000,0.000000,0.000000,0.000000;
#CREDIT:led_light;
#NOTES:
00000000
00000000
00000000
00000000
,
00000000
00000000
00000000
00000000
,
00000000
00000000
00000000
00000000
,
00000000
00000000
00000000
00000000
,
00000000
00000000
00000000
00000000
,
00020000
00001000
00001000
00001000
,
00001000
00001000
00001000
00031000
,
00000020
00001000
00001000
00001000
,
00001000
00001000
00001030
00000101
,
00000001
00001000
00001000
00000100
,
00001000
00011000
00000000
00110000
,
00010000
10000000
10000000
00100000
,
10000000
11000000
00000000
01010000
,
00001000
00010000
00010000
00000100
,
00010000
00011000
00000000
00000010
,
00000010
00001000
00001000
00000100
,
00010000
00000000
00000010
00000000
00000000
00000000
00000100
00000001
,
00001000
00000001
00000000
00000010
,
00000010
00000100
00000000
00000101
,
00000000
00000000
00001010
00000000
00000000
00000000
00010000
00001000
,
00100000
00010000
00000000
10000000
,
10000000
00000000
01000000
10000000
00010000
00000000
01000000
00100000
,
10000000
00000000
01000000
00000000
00000000
00000000
10000000
10000000
,
00010000
00000000
01000000
00010000
00000000
00000000
10000000
00000000
00000000
10000000
00000000
00000000
,
01100000
00000000
00002000
00000000
,
00000000
00000000
00000000
00000000
,
00000000
00000000
00023000
00000000
,
00000000
00000000
00000000
00000000
,
00000000
00000000
00030200
00000000
,
00000000
00000000
00000000
00000000
,
00000000
00000000
00000320
00000000
,
00000000
00000000
00000032
00000000
,
00000000
00000000
00001003
00000000
,
00000011
00000000
00000000
00000000
00000100
00000001
00000100
00000000
,
00001200
00000000
00010300
00000000
,
00101000
00000000
00000000
00000000
00010000
01000000
00010000
00000000
,
01200000
00000000
10300000
00000000
,
11000000
00000000
00000000
00000000
00100000
00010000
10000000
00000000
,
00200000
00000000
02000000
00000000
,
00000000
00000000
00000000
03300000
,
00002000
00000000
00013000
00011000
,
00000000
00000100
00000000
00000000
,
00000100
00000000
00001000
00000010
00001000
00000000
00011000
00000000
,
00000000
01000000
00000000
00000000
,
01000000
00000000
00010000
00100000
00010000
00100000
00101000
00000000
,
00000000
00010000
00000000
00000000
,
00010000
00000000
00001000
00010000
00001000
00000000
00001100
00000000
,
00000000
00000000
00000001
00000100
00000001
00000000
00001010
00000000
,
00000000
00000000
00000110
00000000
00000001
00000000
00000010
00000100
,
00001000
00000000
00000100
00000010
00000001
00000000
00001000
00000000
,
00000000
00000000
00000100
00000000
00011000
00000000
00001000
00010000
,
00100000
00000000
01000000
00100000
00010000
00000000
00001000
00000000
,
00000000
00000000
01000000
00010000
01000000
00010000
10010000
00000000
,
00000000
00100000
00000000
00000000
,
00100000
00000000
01000000
10000000
01000000
00000000
01010000
00000000
,
00000000
00000000
00001000
00010000
00001000
00000000
00001010
00000000
,
00000000
00000000
00000001
00000010
00000100
00000000
00001000
00000000
,
00001001
00000000
00000001
00000000
,
00000000
00000001
00000100
00000001
,
00000110
00000000
00001000
00000000
,
00000000
00000000
00010000
00000000
00001000
00010000
01000000
00000000
,
11000000
00000000
00100000
00000000
,
00000000
00100000
10000000
10000000
,
00110000
00000000
00001000
00000000
,
00000000
00000000
00001000
00000000
00100000
00010000
01000000
00000000
,
00002000
00000000
00013000
00000000
,
00000000
00000000
00010000
00000000
,
02000000
00000000
03100000
00000000
,
00000000
00000000
00000000
00000000
00100000
00000000
00001000
00010000
,
00002000
00000000
00013000
00000000
,
00000000
00000000
00010000
00000000
,
00000020
00000000
00000130
00000000
,
00000000
00000000
00000100
00000010
,
00002000
00000000
00003001
00000000
,
00000000
00000000
00000001
00000000
,
00002000
00000000
00003100
00000000
,
00000000
00000000
00000000
00000000
00000100
00000000
00000010
00000001
,
00002000
00000000
00003100
00000000
,
00000000
00000000
00000100
00000000
,
00020000
00000000
00031000
00000000
,
00010000
00100000
01000000
00000000
10000000
00000000
00010000
00000000
,
00011000
00000000
00000000
00000000
;

//---------------dance-double - ----------------
#NOTEDATA:;
#CHARTNAME:;
#STEPSTYPE:dance-double;
#DESCRIPTION:;
#CHARTSTYLE:;
#DIFFICULTY:Hard;
#METER:10;
#RADARVALUES:0.353727,0.459744,0.234129,0.198655,0.095780,349.000000,316.000000,33.000000,28.000000,0.000000,0.000000,0.000000,0.000000,0.000000,0.353727,0.459744,0.234129,0.198655,0.095780,349.000000,316.000000,33.000000,28.000000,0.000000,0.000000,0.000000,0.000000,0.000000;
#CREDIT:led_light;
#NOTES:
// measure 0
00000000
00000000
00000000
00000000
,  // measure 1
00000000
00000000
00000000
00000000
,  // measure 2
00000000
00000000
00000000
00000000
,  // measure 3
00000000
00000000
00000000
00000000
,  // measure 4
00000000
00000000
00000000
00000000
,  // measure 5
00000001
00000001
00000100
00000100
,  // measure 6
00000010
00000010
00001000
00001000
,  // measure 7
00010000
00010000
00100000
00100000
,  // measure 8
01000000
01000000
10000000
10010000
,  // measure 9
00010000
00000000
10000000
01000000
00000000
00000000
01000000
00000000
00000000
00010000
00000000
00000000
,  // measure 10
01000000
00100000
00001000
00010000
00000000
00000000
00000000
00000000
00000000
00011000
00000000
00000000
,  // measure 11
00010000
00000000
00000100
00001000
00000000
00000000
00001000
00000000
00000000
00000010
00000000
00000000
,  // measure 12
00000010
00000100
00000001
00001000
00000000
00000000
00000000
00000000
00000000
00001001
00000000
00000000
,  // measure 13
00000001
00000000
00000100
00000010
00000000
00000000
00000010
00000000
00000000
00001000
00000000
00000000
,  // measure 14
00001000
00000100
00010000
00001000
00000000
00000000
00100000
00000000
00000000
00001000
00000000
00010000
,  // measure 15
00001000
00000000
00001000
00010000
00000000
00010000
01000000
00000000
01000000
10000000
00000000
01000000
,  // measure 16
00100000
00000000
00010000
10000000
00000000
00000000
00010000
00000000
00000000
01000000
00000000
00001000
,  // measure 17
00010000
00011000
00000000
00000100
,  // measure 18
00000100
00000011
00001000
00001100
,  // measure 19
00000100
00000000
00000000
00011000
00000000
00000000
00001000
00000000
00000000
00100000
00000000
00010000
,  // measure 20
01000000
00000000
00000000
11000000
00000000
00000000
01000000
00000000
00010000
01000000
00000000
01000000
,  // measure 21
00020000
00000000
00000000
10030000
00000000
01000000
10000000
00000000
10000000
00010000
00000000
01000000
,  // measure 22
00200000
00000000
00000000
00000000
00000000
00000000
01300000
00000000
00000000
00000000
00000000
00000000
00001000
00000000
00000000
00000000
00010000
00000000
00001000
00000000
00000000
00001000
00000000
00000000
,  // measure 23
00010000
00000100
00010000
00001000
00000000
00010000
00000010
00000000
00000000
00000010
00000000
00000000
,  // measure 24
00000110
00000000
00000010
00001000
00000002
00000000
00000000
00000000
,  // measure 25
00000000
00000000
00000000
00000000
,  // measure 26
00000000
00000000
00000023
00000000
,  // measure 27
00000000
00000000
00000000
00000000
,  // measure 28
00000000
00000000
00002030
00000000
,  // measure 29
00000000
00000000
00000000
00000000
,  // measure 30
00000000
00000000
00203000
00000000
,  // measure 31
00000000
00000000
02300000
00000000
,  // measure 32
00000000
00000000
13000000
00000000
,  // measure 33
01010000
00000000
00000000
00000000
00100000
10000000
00100000
00000000
,  // measure 34
02000000
00000000
03001000
00000000
,  // measure 35
00011000
00000000
00000000
00000000
00000100
00001000
00000100
00000000
,  // measure 36
00020000
00000000
00031000
00000000
,  // measure 37
00000110
00000000
00000000
00000000
00000001
00000100
00000010
00000000
,  // measure 38
00020000
00000000
00002000
00000000
,  // measure 39
00000000
00000000
00000000
00033000
,  // measure 40
00200000
00000000
00000000
00000000
00000000
00000000
00000000
00000000
00000000
00000000
00000000
00000000
00000000
00000000
00000000
00000000
00000000
00000000
00000000
00000000
00000000
00000000
00000000
00000000
00000000
00000000
00000000
00000000
00000000
00000000
00000000
00000000
02000000
03300000
00000000
00000000
00000000
00000000
00000000
00000000
00000000
00000000
00000000
00000000
00000000
00000000
00000000
00000000
12000000
00000000
00000000
00000000
00000000
00000000
00000000
00000000
00000000
00000000
00000000
00000000
00000000
00000000
00000000
00000000
,  // measure 41
00000000
03010000
00000000
00000000
,  // measure 42
00010000
00000000
00001000
00010000
00000100
00001000
00000020
00000000
,  // measure 43
00000030
00000011
00000000
00000000
,  // measure 44
00000001
00000100
00000010
00000010
00010000
00001000
00020000
00000000
,  // measure 45
00030000
00101000
00000000
00000000
,  // measure 46
00010000
00000000
10000000
01000000
00010000
01000000
20000000
00000000
,  // measure 47
30000000
00000000
00010000
00100000
10000000
00100000
00020000
00000000
,  // measure 48
00030000
00000000
00100000
00001000
00010000
00000000
00000100
00010000
,  // measure 49
00000100
00010000
00001000
01000000
00001000
01000000
00100000
00000000
,  // measure 50
00000000
00000000
10000000
00100000
01000000
00010000
00100000
00001000
,  // measure 51
00100000
00001000
00010000
00000010
00010000
00000010
00000100
00000000
,  // measure 52
00000100
00000000
00001010
00000010
00000010
00010000
00002000
00000000
,  // measure 53
00003000
00010100
00000000
00000000
,  // measure 54
00001000
00000000
00000001
00000010
00001000
00000010
00000002
00000000
,  // measure 55
00000003
00000000
00001000
00000100
00000001
00000100
00002000
00000000
,  // measure 56
00003000
00000000
00000000
00000000
00000000
00000000
00000000
00000000
00000000
00000000
00000000
00000000
00000000
00000000
00000000
00000000
00000100
00000000
00000000
00000000
00000000
00000000
00000000
00000000
00010000
00000000
00000000
00000000
00000000
00000000
00000000
00000000
00001000
00000000
00000000
00000000
00000000
00000000
00000000
00000000
00000000
00000000
00000000
00000000
00000000
00000000
00000000
00000000
00020000
00030000
00000000
00000000
00000000
00000000
00000000
00000000
00000000
00000000
00000000
00000000
00000000
00000000
00000000
00000000
,  // measure 57
00011000
00000000
00000000
00010000
00001000
00000000
00001000
00010000
,  // measure 58
00001000
01000000
00010000
00000000
01000000
01000000
00001000
00000000
,  // measure 59
00011000
00000000
00000000
00001000
00100000
00000000
00100000
00001000
,  // measure 60
00010000
00000010
00001000
00000000
00010000
00010000
01000000
00010000
,  // measure 61
01100000
00000000
00000000
00010000
10000000
00000000
10000000
00010000
,  // measure 62
00100000
01000000
10000000
00000000
01000000
01000000
00010000
00000000
,  // measure 63
00011000
00000000
00000000
00000100
00001000
00000000
00001000
00000001
,  // measure 64
00000100
00000010
00001000
00000000
00000001
00001000
00000100
00000010
,  // measure 65
00000200
00000300
00011000
00000000
,  // measure 66
00100000
00000000
00100000
00000000
10010000
00000000
00010000
01000000
,  // measure 67
00200000
00300000
01100000
00000000
,  // measure 68
00010000
10000000
00010000
10000000
01000000
00100000
00010000
00000000
,  // measure 69
00012000
00000000
00003100
00000000
,  // measure 70
00000010
00000000
00000010
00000000
00001100
00000000
00000001
00000100
,  // measure 71
00000020
00000000
00000130
00000000
,  // measure 72
00000001
00000010
00000001
00000010
00000100
00001000
00000001
00000000
,  // measure 73
00001001
00000000
00000000
00000000
00000101
00000000
00000010
00001000
,  // measure 74
00000010
00000000
00000000
00000000
00011000
00000000
00100000
00010000
,  // measure 75
00200000
00000000
00301000
00000000
,  // measure 76
00010000
00000000
00000000
00010000
00000000
00000000
00001000
00000000
00010000
00000000
00100000
00000000
01000000
00000000
00000000
00000000
,  // measure 77
01010000
00000000
00000000
00000000
11000000
00000000
00100000
00010000
,  // measure 78
00100000
00000000
00000000
00000000
00011000
00000000
00000010
00001000
,  // measure 79
00000020
00000000
00010030
00000000
,  // measure 80
01000000
00010000
00001000
00010000
00001000
00000100
00000001
00000000
,  // measure 81
00001001
00000000
00000000
00000000
;
