#VERSION:0.83;
#TITLE:Stress;
#SUBTITLE:;
#ARTIST:Kawai Sprite;
#TITLETRANSLIT:;
#SUBTITLETRANSLIT:;
#ARTISTTRANSLIT:;
#GENRE:Friday Night Funkin';
#ORIGIN:;
#CREDIT:;
#BANNER:Stress.png;
#BACKGROUND:../bg.png;
#PREVIEWVID:;
#JACKET:Stress-jacket.png;
#CDIMAGE:;
#DISCIMAGE:;
#LYRICSPATH:;
#CDTITLE:../cdtitle.png;
#MUSIC:Stress.ogg;
#OFFSET:-0.002000;
#SAMPLESTART:33.708000;
#SAMPLELENGTH:15.000000;
#SELECTABLE:YES;
#BPMS:0.000=178.000;
#STOPS:;
#DELAYS:;
#WARPS:;
#TIMESIGNATURES:0.000=4=4;
#TICKCOUNTS:0.000=4;
#COMBOS:0.000=1;
#SPEEDS:0.000=1.000=0.000=0;
#SCROLLS:0.000=1.000;
#FAKES:;
#LABELS:0.000=Song Start;
#BGCHANGES: -1.000=Stress.avi=1.000=0=0=0=StretchNoLoop====,
99999=-nosongbg-=1.000=0=0=0 // don't automatically add -songbackground-
;
#KEYSOUNDS:;
#ATTACKS:
;

//---------------dance-single - FNF Hard----------------
#NOTEDATA:;
#CHARTNAME:;
#STEPSTYPE:dance-single;
#DESCRIPTION:FNF Hard;
#CHARTSTYLE:;
#DIFFICULTY:Edit;
#METER:18;
#RADARVALUES:0.901167,0.885965,0.000000,0.087724,0.454571,791.000000,791.000000,0.000000,11.000000,0.000000,0.000000,0.000000,0.000000,0.000000,0.901167,0.885965,0.000000,0.087724,0.454571,791.000000,791.000000,0.000000,11.000000,0.000000,0.000000,0.000000,0.000000,0.000000;
#CREDIT:led_light (FNF Hard);
#NOTES:
0000
0000
0000
0000
,
0100
0010
1000
1000
0010
0001
0100
0001
,
1000
0001
0010
0001
0100
0001
1000
0001
,
0100
0010
1000
1000
0010
0001
0100
0001
,
1000
0001
0010
0001
0100
0001
1000
0001
,
0100
0010
1000
1000
0010
0001
0100
0001
,
1000
0001
0010
0001
0100
0001
1000
0001
,
0100
0010
1000
1000
0010
0001
0100
0001
,
1000
0001
0010
0001
0100
0001
1000
0001
,
0000
0000
0000
0000
1000
0000
0100
0000
0002
0000
0000
0003
0100
0000
0000
0000
,
1000
0000
0000
0000
1000
0000
0000
0000
1000
0000
1000
0000
0010
0001
0010
0000
,
0100
0000
0001
0000
0010
0000
0100
0000
0001
0000
0010
0000
0100
0001
0010
0000
,
1000
0001
0010
0001
0100
0001
1000
0001
,
0200
0000
0000
0300
1000
0000
0100
0000
0002
0000
0000
0003
0100
0000
0000
0000
,
1000
0000
0000
0000
1000
0000
0000
0000
1000
0000
1000
0000
0010
0001
0010
0000
,
0100
0000
0001
0000
0010
0000
0100
0000
0001
0000
0010
0000
0100
0001
0010
0000
,
1000
0001
0010
0001
0100
0001
1000
0001
,
0001
0010
1000
0010
0001
0010
1000
0010
,
0001
0010
0001
0000
0001
0000
0010
0000
0001
0000
1000
0000
0100
0000
1000
0000
,
0001
0010
1000
0010
0001
0010
1000
0010
,
0001
0010
0001
0000
0001
0000
0010
0000
0001
0000
1000
0000
0100
0000
1000
0000
,
0001
0010
0001
1000
0001
0010
0001
1000
,
0001
0010
0001
0000
1000
0000
0001
0000
0010
0000
1000
0000
0001
0000
0100
0000
,
0001
0010
0001
1000
0001
0010
0001
1000
,
0001
0010
0001
0000
1000
0000
0001
0000
0010
0000
1000
0000
0001
0000
0100
0000
,
0010
0000
0001
0000
0100
0000
0001
0000
1000
0000
0001
0000
0100
0000
0001
0001
,
0100
0000
0001
0000
0100
0000
0010
0000
1000
0000
0010
0000
1000
0000
0001
0100
,
0010
0000
0001
0000
0010
0000
0001
0000
1000
0000
0100
0000
1000
0010
1000
0000
,
0001
0000
0100
0000
1000
0000
0100
0000
1000
0000
0100
0000
0100
0000
0001
0001
,
0010
0000
0001
0000
0100
0000
0001
0000
1000
0000
0001
0000
0100
0000
0001
0001
,
0100
0000
0001
0000
0100
0000
0010
0000
1000
0000
0010
0000
1000
0000
0001
0100
,
0010
0000
0001
0000
0010
0000
0001
0000
1000
0000
0100
0000
1000
0010
1000
0000
,
0001
0000
0100
0000
1000
0000
0100
0000
1000
0000
0100
0000
0100
0000
0001
0001
,
0001
0100
0001
0000
1000
0000
0001
0100
0010
0000
1000
0000
0100
0000
0001
0001
,
0010
0000
0001
1000
0100
0000
1000
0000
0010
0000
0001
0000
0100
0000
0001
0010
,
1000
0000
0001
0000
0100
0000
0001
0000
1000
0000
0100
0000
0001
0010
0001
0000
,
0100
0001
1000
0001
0100
0001
0010
0010
,
0001
0100
0001
0000
1000
0000
0001
0100
0010
0000
1000
0000
0100
0000
0001
0001
,
0010
0000
0001
1000
0100
0000
1000
0000
0010
0000
0001
0000
0100
0000
0001
0010
,
1000
0000
0001
0000
0100
0000
0001
0000
1000
0000
0100
0000
0001
0010
0001
0000
,
0100
0001
1000
0001
0100
0001
0010
0010
,
0100
0010
1000
1000
0010
0001
0100
0001
,
1000
0100
0010
0001
0100
0001
1000
0001
,
0100
0010
1000
1000
0010
0001
0100
0001
,
1000
0000
0010
0001
0100
0000
0001
0000
0100
0000
0001
0000
1000
0000
0001
0000
,
0100
0010
1000
1000
0010
0001
0100
0001
,
1000
0100
0010
0001
0100
0001
1000
0001
,
0100
0010
1000
1000
0010
0001
0100
0001
,
1000
0000
0010
0001
0100
0000
0001
0000
0100
0000
0001
0000
1000
0000
0001
0000
,
0200
0000
0000
0300
1000
0000
0100
0000
0002
0000
0000
0003
0100
0000
0000
0000
,
1000
0000
0000
0000
1000
0000
0000
0000
1000
0000
1000
0000
0010
0001
0010
0000
,
0100
0000
0001
0000
0010
0000
0100
0000
0001
0000
0010
0000
0100
0001
0010
0000
,
1000
0001
0010
0001
0100
0001
1000
0001
,
0200
0000
0000
0300
1000
0000
0100
0000
0002
0000
0000
0003
0100
0000
0000
0000
,
1000
0000
0000
0000
1000
0000
0000
0000
1000
0000
1000
0000
0010
0001
0010
0000
,
0100
0000
0001
0000
0010
0000
0100
0000
0001
0000
0010
0000
0100
0001
0010
0000
,
1000
0001
0010
0001
0100
0001
1000
0001
,
1000
0000
1000
0000
0100
0000
1000
0010
1000
0000
0100
0000
0001
0000
1000
0000
,
0100
0001
0100
0000
1000
0000
0100
0000
0020
0000
0000
0030
1000
0000
1000
0000
,
0100
0000
1000
0001
0001
0000
0001
1000
0100
0000
0100
0001
0010
0000
1000
0100
,
0010
0001
0010
1000
0000
0001
0010
0000
1000
0000
0001
0000
1000
0000
0010
0000
,
1000
0000
1000
0000
0100
0000
1000
0010
1000
0000
0100
0000
0001
0000
1000
0000
,
0100
0001
0100
0000
1000
0000
0100
0000
0020
0000
0000
0030
1000
0000
1000
0000
,
0100
0000
1000
0001
0001
0000
0001
1000
0100
0000
0100
0001
0010
0000
1000
0100
,
0010
0001
0010
1000
0000
0001
0010
0000
1000
0000
0001
0000
1000
0000
0010
0000
,
0100
1000
0001
0000
0010
0100
0001
0000
0010
0000
0001
0000
0010
0000
1000
0000
,
0100
1000
0001
0000
0010
0100
0001
0000
0010
0000
0001
0000
0100
0000
0001
0000
,
0010
0001
0010
0000
0100
1000
0100
0000
0001
0000
0001
0100
0001
0000
0100
0000
,
1000
0000
0001
0000
0100
0000
1000
0000
0100
0000
0000
0000
0001
0000
0000
0000
1000
0000
0001
0000
0100
0000
1000
0000
0200
0300
0000
0000
0000
0000
0000
0000
,
0100
1000
0001
0000
0010
0100
0001
0000
0010
0000
0001
0000
0010
0000
1000
0000
,
0100
1000
0001
0000
0010
0100
0001
0000
0010
0000
0001
0000
0100
0000
0001
0000
,
0010
0001
0010
0000
0100
1000
0100
0000
0001
0000
0001
0100
0001
0000
0100
0000
,
1000
0001
0100
1000
0100
0000
0001
0000
1000
0001
0100
1000
0200
0000
0000
0300
,
1000
0001
0010
0000
0001
0000
1000
0001
0010
0000
0001
0000
1000
0001
0010
0000
,
0001
0000
1000
0001
0010
0000
0001
0000
0010
0000
0100
0000
1000
0000
0001
0000
,
1000
0001
0010
0000
0001
0000
1000
0001
0010
0000
0001
0000
1000
0001
0010
0000
,
0001
0000
1000
0001
0010
0000
0001
0000
0010
0000
0100
0000
1000
0000
0001
0000
,
0001
1000
0010
0000
1000
0000
0001
1000
0010
0000
1000
0000
0001
1000
0010
0000
,
1000
0000
0001
1000
0010
0000
1000
0000
0010
0000
0100
0000
0001
0000
1000
0000
,
0001
1000
0010
0000
1000
0000
0001
1000
0010
0000
1000
0000
0001
1000
0010
0000
,
1000
0000
0001
1000
0010
0000
1000
0000
0010
0000
0100
0000
0001
0000
1000
0000
,
0001
0010
0001
0010
1000
0000
0100
0000
0001
0010
0001
0010
1000
0000
0100
0000
,
0001
1000
0010
0001
1000
0000
0100
0000
0001
0010
0001
0010
1000
0000
0100
0000
,
0001
0010
0001
0010
1000
0000
0100
0000
0001
0010
0001
0010
1000
0000
0100
0000
,
0001
1000
0010
0001
1000
0000
0100
0000
0001
0010
0001
0010
1000
0000
0100
0000
,
0010
0000
0001
0000
0100
0000
0001
0000
1000
0000
0100
0000
1000
0001
0100
1000
,
0010
0000
0001
0000
0100
0000
0001
0000
1000
0001
0100
1000
0001
0000
0100
0000
,
0010
0000
0001
0000
0100
0000
0001
0000
1000
0000
0100
0000
1000
0001
0100
1000
,
0010
0000
0001
0000
0100
0000
0001
0000
1000
0001
0100
1000
0001
0000
0100
0000
;

//---------------dance-single - ----------------
#NOTEDATA:;
#CHARTNAME:;
#STEPSTYPE:dance-single;
#DESCRIPTION:;
#CHARTSTYLE:;
#DIFFICULTY:Hard;
#METER:15;
#RADARVALUES:0.684704,0.815087,0.263173,0.191398,0.215323,601.000000,568.000000,33.000000,24.000000,0.000000,0.000000,0.000000,0.000000,0.000000,0.684704,0.815087,0.263173,0.191398,0.215323,601.000000,568.000000,33.000000,24.000000,0.000000,0.000000,0.000000,0.000000,0.000000;
#CREDIT:led_light;
#NOTES:
// measure 0
0000
0000
0000
0000
,  // measure 1
0000
0000
0000
0000
,  // measure 2
0000
0000
0000
0000
,  // measure 3
0000
0000
0000
0000
,  // measure 4
0000
0000
0000
0000
,  // measure 5
0001
0010
0001
0000
1000
0100
1000
0000
,  // measure 6
0001
0010
0001
0000
0100
0010
1000
0001
,  // measure 7
1000
0100
1000
0000
0001
0010
0001
0000
,  // measure 8
1000
0100
1000
0000
0010
0100
0001
1000
,  // measure 9
2200
0000
0000
0000
,  // measure 10
0000
0000
3300
0001
,  // measure 11
2020
0000
3030
0022
,  // measure 12
0000
0000
0000
0033
,  // measure 13
0220
0000
0000
0000
,  // measure 14
0000
0000
0330
0001
,  // measure 15
2020
0000
3030
0220
,  // measure 16
0000
0000
0300
0000
0130
1000
0100
0001
,  // measure 17
1000
1000
0010
0010
,  // measure 18
0001
0001
0100
0100
,  // measure 19
1000
0100
0010
0000
0001
0100
0010
0000
,  // measure 20
1000
0100
0010
0100
1000
0100
0010
0000
,  // measure 21
0001
0100
0001
0000
0100
1000
0100
0000
,  // measure 22
1000
0010
1000
0000
0010
0001
0010
0000
,  // measure 23
0001
0001
0100
0000
0010
0010
1000
0000
,  // measure 24
0001
0100
0010
1000
0100
0100
0001
0100
,  // measure 25
1000
0100
0010
0001
0010
0100
1000
0001
,  // measure 26
0100
0000
0010
0000
1000
0000
0010
0000
0100
0000
0001
0000
1000
0000
0001
0010
,  // measure 27
0001
0000
0010
0000
0100
0000
0010
0000
0100
0000
1000
0000
0001
0100
0001
0000
,  // measure 28
1000
0000
0010
0000
0100
0000
0010
0000
0100
0000
0001
0000
1000
0100
1000
0000
,  // measure 29
0001
0010
0100
1000
0100
0010
0001
1000
,  // measure 30
0010
0000
0100
0000
0001
0000
0100
0000
0010
0000
1000
0000
0001
0000
1000
0100
,  // measure 31
1000
0000
0100
0000
0010
0000
0100
0000
0010
0000
0001
0000
1000
0010
1000
0000
,  // measure 32
0001
0000
0100
0000
0110
0000
0000
0000
0110
0000
1000
0000
0001
0010
0001
0000
,  // measure 33
0010
0100
0010
0000
0001
0000
1000
0010
1000
0000
0010
0000
0001
0000
0010
0000
,  // measure 34
1000
0000
0001
0100
0010
0000
1000
0000
0001
0000
0010
0000
0100
0000
0010
1000
,  // measure 35
0010
0000
0100
0000
0010
0000
0001
0000
1000
0000
0100
0000
0001
0100
0001
0000
,  // measure 36
1000
0010
0001
0010
0100
1000
0100
0001
,  // measure 37
0100
0010
0100
0000
1000
0000
0001
0100
0001
0000
0100
0000
1000
0000
0100
0000
,  // measure 38
0001
0000
1000
0010
0100
0000
0001
0000
1000
0000
0100
0000
0010
0000
0100
0001
,  // measure 39
0100
0000
0010
0000
0100
0000
1000
0000
0001
0000
0010
0000
1000
0010
1000
0000
,  // measure 40
1001
0000
0000
0000
0101
0000
0000
0000
1100
0000
1000
0000
0010
0100
0010
0000
,  // measure 41
2000
0000
3000
0000
,  // measure 42
0000
0000
0002
0003
,  // measure 43
0020
0000
0030
0000
,  // measure 44
0000
0000
0000
0000
2000
0000
3010
0100
,  // measure 45
0010
0010
0001
0001
,  // measure 46
1000
1000
0100
0100
,  // measure 47
1001
0010
0010
0010
,  // measure 48
1000
0000
0001
0100
0010
0000
1000
0000
,  // measure 49
0012
0100
0100
0100
,  // measure 50
1000
0000
0000
0000
1000
0000
0000
0000
0013
0000
0100
0000
0010
0100
0010
0000
,  // measure 51
0001
0000
1000
0000
0001
0000
0010
0000
1000
0000
0001
0000
1000
0010
1000
0000
,  // measure 52
0010
0001
1000
0001
0010
1000
0001
0100
,  // measure 53
2000
0000
3100
0100
0020
0000
0032
0000
,  // measure 54
1003
0000
0000
0000
1000
0000
0000
0000
0010
0000
0100
0000
0010
0100
0010
0000
,  // measure 55
1000
0000
0001
0000
1000
0000
0100
0000
0001
0000
1000
0000
0001
0100
0001
0000
,  // measure 56
0100
1000
0001
0010
1000
0001
0100
1000
,  // measure 57
0001
0000
0001
0000
0010
0000
1000
0010
1000
0000
0010
0000
0001
0000
1000
0000
,  // measure 58
0100
0010
0001
0000
0100
0000
0010
0000
2000
0000
0000
0000
3001
0000
0100
0000
,  // measure 59
0010
0000
1000
0100
1000
0000
0100
0010
0100
0000
0010
0001
0010
0000
0001
0000
,  // measure 60
0100
0010
1000
0010
0000
0100
0001
0000
1000
0000
0100
0000
0010
0000
0100
0000
,  // measure 61
1000
0000
1000
0000
0100
0000
0001
0100
0001
0000
0100
0000
1000
0000
0001
0000
,  // measure 62
0010
0100
1000
0000
0010
0000
0100
0000
0002
0000
0000
0000
1003
0000
0010
0000
,  // measure 63
0100
0000
0001
0010
0001
0000
0010
0100
0010
0000
0100
1000
0100
0000
1000
0000
,  // measure 64
0010
0100
0001
0100
0000
0010
1000
0000
0001
0000
0010
0000
0100
0000
0010
0000
,  // measure 65
0001
0010
0001
0000
1000
0000
0100
0000
0010
0000
0001
0000
0010
0000
0100
0000
,  // measure 66
1000
0010
1000
0000
0001
0000
0100
0000
0010
0000
1000
0000
0010
0000
0100
0000
,  // measure 67
0001
1000
0001
0000
0010
0000
0001
0000
0100
0000
0001
1000
0001
0000
0100
0000
,  // measure 68
0010
0100
0010
0000
1000
0000
0100
0000
0010
0100
0010
0000
0001
0000
0000
0000
,  // measure 69
1000
0100
1000
0000
0001
0000
0010
0000
0100
0000
1000
0000
0100
0000
0010
0000
,  // measure 70
0001
0100
0001
0000
1000
0000
0010
0000
0100
0000
0001
0000
0100
0000
0010
0000
,  // measure 71
1000
0001
1000
0000
0100
0000
1000
0000
0010
0000
1000
0001
1000
0000
0010
0000
,  // measure 72
0100
0010
0100
0000
0001
0000
0010
0000
0100
0010
0100
0000
1000
0000
0000
0000
,  // measure 73
1000
0100
0001
0100
1000
0001
1000
0100
,  // measure 74
0001
0100
1000
0001
0010
0100
1000
0001
,  // measure 75
1000
0100
0001
0100
1000
0001
1000
0010
,  // measure 76
0001
0010
1000
0001
0100
0010
1000
0001
,  // measure 77
1000
0010
0001
0010
1000
0001
1000
0010
,  // measure 78
0001
0010
1000
0001
0100
0010
1000
0001
,  // measure 79
1000
0010
0001
0010
1000
0001
1000
0100
,  // measure 80
0001
0100
1000
0001
0010
0100
1000
0001
,  // measure 81
1000
0000
1000
0100
1000
0000
0000
0000
0100
0000
0100
0001
0100
0000
0000
0000
,  // measure 82
0001
0000
0001
0010
0001
0000
0000
0000
0010
0000
0010
1000
0010
0000
0000
0000
,  // measure 83
1100
1100
0101
0000
1001
0000
1001
0000
,  // measure 84
0011
1010
1100
0101
,  // measure 85
2002
3003
1001
1100
,  // measure 86
0101
0000
0101
0000
0110
0000
0100
0010
,  // measure 87
1010
1010
0011
0000
1100
0000
0011
0000
,  // measure 88
0001
0000
1000
0000
0100
0000
0010
0000
0001
0100
0010
0000
1000
0000
0001
0000
;

//---------------dance-single - ----------------
#NOTEDATA:;
#CHARTNAME:;
#STEPSTYPE:dance-single;
#DESCRIPTION:;
#CHARTSTYLE:;
#DIFFICULTY:Medium;
#METER:12;
#RADARVALUES:0.521788,0.567017,0.207348,0.231273,0.003987,458.000000,432.000000,26.000000,29.000000,0.000000,0.000000,0.000000,0.000000,0.000000,0.521788,0.567017,0.207348,0.231273,0.003987,458.000000,432.000000,26.000000,29.000000,0.000000,0.000000,0.000000,0.000000,0.000000;
#CREDIT:led_light;
#NOTES:
// measure 0
0000
0000
0000
0000
,  // measure 1
0000
0000
0000
0000
,  // measure 2
0000
0000
0000
0000
,  // measure 3
0000
0000
0000
0000
,  // measure 4
0000
0000
0000
0000
,  // measure 5
1000
1000
0001
0001
,  // measure 6
0100
0000
0100
0000
0010
1000
0001
0000
,  // measure 7
1000
1000
0100
0100
,  // measure 8
0010
0000
0010
0000
0001
0100
0010
0000
,  // measure 9
2200
0000
0000
0000
,  // measure 10
0000
0000
3300
0001
,  // measure 11
0202
0000
0303
0220
,  // measure 12
0000
0000
0000
0330
,  // measure 13
0022
0000
0000
0000
,  // measure 14
0000
0000
0033
1000
,  // measure 15
2020
0000
3030
0220
,  // measure 16
0000
0000
0300
0000
0130
0010
0100
0010
,  // measure 17
1000
1000
0001
0001
,  // measure 18
0010
0010
0100
0100
,  // measure 19
1000
0100
1000
0000
0100
0001
0100
0000
,  // measure 20
1000
0100
1000
0100
0001
0100
1000
0000
,  // measure 21
2100
3100
0201
0301
,  // measure 22
0012
0013
1020
1030
,  // measure 23
0001
0110
0001
0110
,  // measure 24
0001
0000
0001
0000
0001
0100
0001
0000
,  // measure 25
1000
0001
0100
0000
0010
0000
1000
0000
,  // measure 26
0001
0100
0010
0000
1000
0000
0001
0000
,  // measure 27
0010
0100
0010
0000
0100
1000
0100
0000
,  // measure 28
1000
0001
0100
0000
0010
0100
0010
0100
,  // measure 29
0001
1000
0100
0000
0010
0000
0001
0000
,  // measure 30
1000
0100
0010
0000
0001
0000
1000
0000
,  // measure 31
0010
0100
0010
0000
0100
0001
0100
0000
,  // measure 32
0010
0000
0110
0000
0001
0100
0001
0000
,  // measure 33
1000
1000
0100
0000
1000
0001
0100
0000
,  // measure 34
0001
0001
0010
0000
0001
1000
0010
0000
,  // measure 35
0100
0001
1000
0000
0001
0100
0010
0000
,  // measure 36
1000
0100
0010
0000
0100
0001
0100
1000
,  // measure 37
0001
0001
0010
0000
0001
1000
0010
0000
,  // measure 38
1000
1000
0100
0000
1000
0001
0100
0000
,  // measure 39
0010
1000
0001
0000
1000
0010
0100
0000
,  // measure 40
0001
0000
0110
0000
0001
0010
0100
1000
,  // measure 41
0002
0000
0003
0000
,  // measure 42
0000
0000
2000
3000
,  // measure 43
0020
0000
0030
0000
,  // measure 44
0000
0000
0000
0000
0200
0000
0301
1000
,  // measure 45
0001
0001
0010
0010
,  // measure 46
1000
1000
0100
0100
,  // measure 47
1001
0010
0010
0010
,  // measure 48
1000
0000
0010
0001
0010
0000
0100
0000
,  // measure 49
1002
0100
0100
0100
,  // measure 50
1000
1000
0013
0100
,  // measure 51
2001
0010
3010
1002
,  // measure 52
0100
0000
0103
0000
0001
0000
0100
0010
,  // measure 53
2000
0000
3100
0010
0200
0000
0310
0000
,  // measure 54
0001
0000
0001
0000
0010
0001
0010
0000
,  // measure 55
0001
0100
0010
0000
0100
0010
1000
0000
,  // measure 56
0001
0100
0010
1000
0100
0010
0100
0000
,  // measure 57
1000
1000
0001
0000
0100
0100
0010
0000
,  // measure 58
1000
0001
0100
0010
2000
0000
3001
0010
,  // measure 59
0100
1000
0010
0000
1000
0100
0001
0000
,  // measure 60
0100
0000
0000
1000
0000
0000
1000
0000
0100
0000
0010
0000
0001
0000
0100
0000
,  // measure 61
0001
0001
1000
0000
0100
0100
0010
0000
,  // measure 62
0001
1000
0100
0010
0002
0000
1003
0010
,  // measure 63
0100
0100
0100
0000
0001
0010
0001
0000
,  // measure 64
0100
1000
0100
0001
1000
0100
1000
0000
,  // measure 65
0001
0100
0001
1000
0010
0100
0010
0000
,  // measure 66
1000
0100
1000
0001
0010
0100
0010
0000
,  // measure 67
0001
0001
0100
0000
0010
0010
1000
0000
,  // measure 68
0001
0100
1000
0100
0001
0001
0001
0000
,  // measure 69
1000
0100
1000
0001
0010
0100
0010
0000
,  // measure 70
0001
0100
0001
1000
0010
0100
0010
0000
,  // measure 71
1000
1000
0100
0000
0010
0010
0001
0000
,  // measure 72
1000
0100
0001
0100
1000
1000
1000
0000
,  // measure 73
0001
0010
1000
0001
0100
1000
0001
0010
,  // measure 74
1000
0001
0100
1000
0100
0010
0001
0000
,  // measure 75
1000
0100
0001
1000
0010
0001
1000
0100
,  // measure 76
0001
1000
0010
0001
0010
0100
1000
0000
,  // measure 77
0001
0100
1000
0001
0010
1000
0001
0100
,  // measure 78
1000
0001
0010
1000
0010
0100
0001
0000
,  // measure 79
1000
0010
0001
1000
0100
0001
1000
0010
,  // measure 80
0001
1000
0100
0001
0100
0010
1000
0000
,  // measure 81
0001
0001
0001
0000
0100
0100
0100
0000
,  // measure 82
1000
1000
1000
0000
0010
0010
0010
0000
,  // measure 83
0001
0010
0001
0000
1000
0000
1100
0000
,  // measure 84
0001
0011
0100
0010
,  // measure 85
2002
3003
1001
0100
,  // measure 86
0110
0000
0110
0000
1001
0000
1000
0100
,  // measure 87
0010
0010
0010
0000
0001
0000
0110
0000
,  // measure 88
0001
0100
0010
1000
0100
0001
0100
1000
;

//---------------dance-single - ----------------
#NOTEDATA:;
#CHARTNAME:;
#STEPSTYPE:dance-single;
#DESCRIPTION:;
#CHARTSTYLE:;
#DIFFICULTY:Easy;
#METER:9;
#RADARVALUES:0.407861,0.496140,0.326972,0.295072,0.000000,358.000000,317.000000,41.000000,37.000000,0.000000,0.000000,0.000000,0.000000,0.000000,0.407861,0.496140,0.326972,0.295072,0.000000,358.000000,317.000000,41.000000,37.000000,0.000000,0.000000,0.000000,0.000000,0.000000;
#CREDIT:led_light;
#NOTES:
// measure 0
0000
0000
0000
0000
,  // measure 1
0000
0000
0000
0000
,  // measure 2
0000
0000
0000
0000
,  // measure 3
0000
0000
0000
0000
,  // measure 4
0000
0000
0000
0000
,  // measure 5
0010
0010
0100
0100
,  // measure 6
1000
1000
0100
0010
,  // measure 7
0001
0001
0100
0100
,  // measure 8
0010
0010
0100
0001
,  // measure 9
2002
0000
0000
0000
,  // measure 10
0000
0000
3003
0100
,  // measure 11
0220
0000
0330
2002
,  // measure 12
0000
0000
0000
3003
,  // measure 13
0220
0000
0000
0000
,  // measure 14
0000
0000
0330
0001
,  // measure 15
2002
0000
3003
0220
,  // measure 16
0000
0300
0200
0330
,  // measure 17
1000
1000
0001
0001
,  // measure 18
0100
0100
0010
1000
,  // measure 19
0001
0001
0010
0010
,  // measure 20
0100
1000
0001
1000
,  // measure 21
0002
0103
0200
1300
,  // measure 22
2000
3010
0020
0031
,  // measure 23
0001
0101
0001
1001
,  // measure 24
0001
0101
0020
0030
,  // measure 25
1000
0100
0010
0001
,  // measure 26
0010
0100
1000
0001
,  // measure 27
0100
0010
0100
0010
,  // measure 28
0100
0000
0100
0000
0100
0010
0100
0000
,  // measure 29
0001
0010
0100
1000
,  // measure 30
0100
0010
0001
1000
,  // measure 31
0010
0100
0010
0100
,  // measure 32
0010
1001
1001
0100
,  // measure 33
0001
1000
0100
1000
,  // measure 34
0010
1000
0100
1000
,  // measure 35
0001
0010
0100
0010
,  // measure 36
0001
0000
0010
0000
0100
0010
0001
0000
,  // measure 37
1000
0001
0010
0001
,  // measure 38
0100
0001
0010
0001
,  // measure 39
1000
0100
0010
0100
,  // measure 40
1000
1001
0001
1001
,  // measure 41
0200
0000
0300
0000
,  // measure 42
0000
0000
0020
0030
,  // measure 43
2000
0000
3000
0000
,  // measure 44
0000
0000
0002
1003
,  // measure 45
0100
0100
0010
0010
,  // measure 46
0100
0100
0010
0010
,  // measure 47
1001
0100
0100
0100
,  // measure 48
0010
1000
0001
0000
,  // measure 49
1002
1000
1000
1000
,  // measure 50
0100
0100
0103
0001
,  // measure 51
2100
0100
3100
0012
,  // measure 52
0010
0010
0103
0001
,  // measure 53
2001
0001
0001
0001
,  // measure 54
0100
0100
3010
1000
,  // measure 55
0102
0100
0103
2010
,  // measure 56
0010
0010
0020
3030
,  // measure 57
1001
0100
1001
0100
,  // measure 58
0001
1000
2200
3300
,  // measure 59
0010
0100
0010
0100
,  // measure 60
1000
0000
1000
0000
0100
0010
0001
0000
,  // measure 61
1001
0010
1001
0010
,  // measure 62
1000
0001
0020
0130
,  // measure 63
0010
0100
0010
0000
0100
0000
0010
0000
,  // measure 64
0001
0010
0100
0000
2000
0000
3000
0000
,  // measure 65
0001
0000
0010
0000
1000
0010
0001
0000
,  // measure 66
0010
0000
1000
0000
0010
0001
1000
0000
,  // measure 67
0010
0000
0100
0000
0010
0100
0001
0000
,  // measure 68
0010
0100
0010
1001
,  // measure 69
1000
0000
0100
0000
0001
0100
1000
0000
,  // measure 70
0100
0000
0001
0000
0100
1000
0001
0000
,  // measure 71
0100
0000
0010
0000
0100
0010
1000
0000
,  // measure 72
0110
0110
2002
3003
,  // measure 73
0001
0000
0010
1000
0000
1000
0100
0000
,  // measure 74
0100
0001
0000
0001
0010
0000
1010
0000
,  // measure 75
0001
0000
0010
0100
0000
1000
0010
0000
,  // measure 76
1000
0100
0000
0001
0100
0000
0110
0000
,  // measure 77
0001
0000
1000
0100
0000
0010
0001
0000
,  // measure 78
1000
0100
0000
0010
0001
0000
1100
0000
,  // measure 79
0001
0000
0100
0010
0000
1000
0001
0000
,  // measure 80
0010
0010
0100
0110
,  // measure 81
0001
0101
0001
0011
,  // measure 82
1000
1100
1000
1010
,  // measure 83
0100
0001
0100
0000
0010
0000
0010
0000
,  // measure 84
1000
0001
0100
0010
,  // measure 85
2002
3003
1001
0100
,  // measure 86
0010
1000
0001
0101
,  // measure 87
0010
0010
0010
0000
1000
0000
0011
0000
,  // measure 88
0010
0000
0100
0000
1000
0001
1000
0001
;

//---------------dance-single - ----------------
#NOTEDATA:;
#CHARTNAME:;
#STEPSTYPE:dance-single;
#DESCRIPTION:;
#CHARTSTYLE:;
#DIFFICULTY:Beginner;
#METER:4;
#RADARVALUES:0.154941,0.283110,0.079749,0.143549,0.000000,136.000000,126.000000,10.000000,18.000000,0.000000,0.000000,0.000000,0.000000,0.000000,0.154941,0.283110,0.079749,0.143549,0.000000,136.000000,126.000000,10.000000,18.000000,0.000000,0.000000,0.000000,0.000000,0.000000;
#CREDIT:led_light;
#NOTES:
// measure 0
0000
0000
0000
0000
,  // measure 1
0000
0000
0000
0000
,  // measure 2
0000
0000
0000
0000
,  // measure 3
0000
0000
0000
0000
,  // measure 4
0000
0000
0000
0000
,  // measure 5
0001
0000
0000
0000
,  // measure 6
0001
0000
0000
0000
,  // measure 7
1000
0000
0000
0000
,  // measure 8
1000
0000
0000
0000
,  // measure 9
2002
0000
0000
0000
,  // measure 10
0000
0000
3003
0000
,  // measure 11
0220
0000
0000
0000
,  // measure 12
0000
0000
0330
0000
,  // measure 13
2002
0000
0000
0000
,  // measure 14
0000
0000
3003
0000
,  // measure 15
0220
0000
0000
0000
,  // measure 16
0000
0000
0330
0000
,  // measure 17
0100
0000
0000
0000
,  // measure 18
0100
0000
0000
0000
,  // measure 19
0001
0000
0000
0000
,  // measure 20
0001
0000
0000
0000
,  // measure 21
0010
0000
0000
0000
,  // measure 22
1000
0000
0000
0000
,  // measure 23
0010
0000
0000
0000
,  // measure 24
0010
0000
0000
0000
,  // measure 25
0100
0000
0000
0000
,  // measure 26
0001
0000
0000
0000
,  // measure 27
0100
0000
0000
0000
,  // measure 28
0100
0000
0000
0000
,  // measure 29
1000
0000
0000
0000
,  // measure 30
0001
0000
0000
0000
,  // measure 31
0010
0000
0000
0000
,  // measure 32
0100
0000
0100
0000
,  // measure 33
0010
0000
0000
0000
,  // measure 34
1000
0000
0000
0000
,  // measure 35
0001
0000
0000
0000
,  // measure 36
0100
0000
0000
0000
,  // measure 37
1000
0000
0000
0000
,  // measure 38
0010
0000
0000
0000
,  // measure 39
0100
0000
0000
0000
,  // measure 40
0001
0000
0001
0000
,  // measure 41
0002
0000
0003
0000
,  // measure 42
0000
0000
0001
0000
,  // measure 43
2000
0000
3000
0000
,  // measure 44
0000
0000
1000
0000
,  // measure 45
0001
0000
0001
0000
,  // measure 46
0010
0000
0010
0000
,  // measure 47
1000
0000
1000
0000
,  // measure 48
0100
0100
0100
0000
,  // measure 49
0220
0000
0000
0000
,  // measure 50
0000
0000
0330
0000
,  // measure 51
2002
0000
0000
0000
,  // measure 52
0000
0000
3003
0000
,  // measure 53
0100
0000
0100
0000
,  // measure 54
0010
0000
0010
0000
,  // measure 55
0100
0100
0100
0000
,  // measure 56
0100
0100
0100
0000
,  // measure 57
0001
0000
1000
0000
,  // measure 58
0100
0100
0100
0000
,  // measure 59
1000
0000
0010
0000
,  // measure 60
0001
0000
0001
0000
,  // measure 61
1000
0000
0001
0000
,  // measure 62
0010
0010
0010
0000
,  // measure 63
0001
0000
0100
0000
,  // measure 64
1000
0000
0000
0000
,  // measure 65
1000
0000
0100
0000
,  // measure 66
1000
0000
0100
0000
,  // measure 67
0010
0000
0001
0000
,  // measure 68
0010
0000
0000
0000
,  // measure 69
0001
0000
0100
0000
,  // measure 70
0001
0000
0100
0000
,  // measure 71
0010
0000
1000
0000
,  // measure 72
0010
0010
0010
0000
,  // measure 73
1000
0000
0100
0000
,  // measure 74
0001
0000
0010
0000
,  // measure 75
1000
0000
0100
0000
,  // measure 76
0001
0000
0010
0000
,  // measure 77
1000
0000
0010
0000
,  // measure 78
0001
0000
0100
0000
,  // measure 79
1000
0000
0010
0000
,  // measure 80
0001
0000
0000
0000
,  // measure 81
1001
0000
0100
0000
,  // measure 82
1001
0000
0100
0000
,  // measure 83
0001
0001
0001
0000
,  // measure 84
1000
1000
1000
0000
,  // measure 85
0220
0000
0330
0000
,  // measure 86
2002
0000
3003
0000
,  // measure 87
0010
0010
0010
0000
,  // measure 88
0100
0100
0010
0100
;
