#VERSION:0.83;
#TITLE:Starlight, Stargazer;
#SUBTITLE:;
#ARTIST:Uki Violeta;
#TITLETRANSLIT:;
#SUBTITLETRANSLIT:;
#ARTISTTRANSLIT:;
#GENRE:にじさんじ;
#ORIGIN:;
#CREDIT:;
#BANNER:Starlight Stargazer.png;
#BACKGROUND:../bg.png;
#PREVIEWVID:;
#JACKET:Starlight Stargazer-jacket.png;
#CDIMAGE:;
#DISCIMAGE:;
#LYRICSPATH:;
#CDTITLE:../cdtitle.png;
#MUSIC:Starlight Stargazer.ogg;
#OFFSET:2.141000;
#SAMPLESTART:12.858000;
#SAMPLELENGTH:15.000000;
#SELECTABLE:YES;
#BPMS:0.000=80.000;
#STOPS:;
#DELAYS:;
#WARPS:;
#TIMESIGNATURES:0.000=4=4;
#TICKCOUNTS:0.000=4;
#COMBOS:0.000=1;
#SPEEDS:0.000=1.000=0.000=0;
#SCROLLS:0.000=1.000;
#FAKES:;
#LABELS:0.000=Song Start;
#BGCHANGES:2.750=Starlight Stargazer.avi=1.000=0=0=0=StretchNoLoop====,
99999=-nosongbg-=1.000=0=0=0 // don't automatically add -songbackground-
;
#KEYSOUNDS:;
#ATTACKS:
;

//---------------dance-single - ----------------
#NOTEDATA:;
#CHARTNAME:;
#STEPSTYPE:dance-single;
#DESCRIPTION:;
#CHARTSTYLE:;
#DIFFICULTY:Beginner;
#METER:1;
#RADARVALUES:0.033375,0.047787,0.000000,0.042478,0.000000,33.000000,33.000000,0.000000,6.000000,0.000000,0.000000,0.000000,0.000000,0.000000,0.033375,0.047787,0.000000,0.042478,0.000000,33.000000,33.000000,0.000000,6.000000,0.000000,0.000000,0.000000,0.000000,0.000000;
#CREDIT:led_light;
#NOTES:
0000
0000
0000
0000
,
0000
0000
0000
0000
,
0000
0000
0000
0000
,
0000
0000
0000
0000
,
0000
0000
0000
0000
,
0001
0000
0000
0000
,
0010
0000
0000
0000
,
0010
0000
0000
0000
,
0100
0000
0000
0000
,
1000
0000
0000
0000
,
0010
0000
0000
0000
,
0001
0000
0000
0000
,
0001
0000
0000
0000
,
1000
0000
0000
0000
,
0100
0000
0000
0000
,
0100
0000
0000
0000
,
0010
0000
0000
0000
,
0001
0000
0000
0000
,
0100
0000
0000
0000
,
1000
0000
0000
0000
,
1000
0000
0000
0000
,
0002
0000
0000
0000
,
0003
0000
0000
0000
,
2000
0000
0000
0000
,
3000
0000
0000
0000
,
0200
0000
0000
0000
,
0300
0000
0000
0000
,
0020
0000
0000
0000
,
0030
0000
0000
0000
,
0100
0000
0000
0000
,
0001
0000
0000
0000
,
0100
0000
0000
0000
,
1000
0000
0000
0000
,
0010
0000
0000
0000
,
0001
0000
0000
0000
,
0010
0000
0000
0000
,
1000
0000
0000
0000
,
0002
0000
0000
0000
,
0000
0000
0000
0000
,
0003
0000
0000
0000
,
0001
0000
0000
0000
,
2000
0000
0000
0000
,
0000
0000
0000
0000
,
3000
0000
0000
0000
,
1000
0000
0000
0000
,
0100
0000
0000
0000
;

//---------------dance-single - ----------------
#NOTEDATA:;
#CHARTNAME:;
#STEPSTYPE:dance-single;
#DESCRIPTION:;
#CHARTSTYLE:;
#DIFFICULTY:Easy;
#METER:2;
#RADARVALUES:0.071807,0.111504,0.000000,0.176990,0.000000,71.000000,71.000000,0.000000,25.000000,0.000000,0.000000,0.000000,0.000000,0.000000,0.071807,0.111504,0.000000,0.176990,0.000000,71.000000,71.000000,0.000000,25.000000,0.000000,0.000000,0.000000,0.000000,0.000000;
#CREDIT:led_light;
#NOTES:
0000
0000
0000
0000
,
0000
0000
0000
0000
,
0000
0000
0000
0000
,
0000
0000
0000
0000
,
0000
0000
0000
0000
,
0001
0000
0001
0000
,
0020
0000
0000
0030
,
0100
0000
0100
0000
,
0002
0000
0000
0003
,
1000
0000
1000
0000
,
0020
0000
0030
0010
,
0200
0000
0300
0100
,
2000
0000
3000
0000
,
0001
0000
0001
1000
,
0200
0000
0000
0300
,
0010
0000
0010
0001
,
1000
0002
0003
0001
,
1000
0000
1000
0001
,
0200
0000
0300
0100
,
0020
0000
0030
1000
,
0002
0000
0000
0003
,
2000
0000
3000
0000
,
0200
0000
0300
0000
,
0020
0000
0030
0000
,
0002
0000
0000
0003
,
0200
0000
0300
0000
,
0020
0000
0030
0000
,
2000
0000
3000
0000
,
0002
0000
0000
0003
,
1000
0000
1000
0000
,
0100
0020
0000
0030
,
0001
0000
0001
0000
,
1000
0001
0200
0300
,
0001
0000
0001
0000
,
0010
0200
0000
0300
,
1000
0000
1000
0000
,
0001
1000
0010
0100
,
0002
0000
0000
0000
,
0100
0000
0000
0000
,
1003
0000
0000
0000
,
1000
0100
0001
0100
,
2000
0000
0000
0000
,
0001
0000
3000
1000
,
0002
0000
0000
0000
,
0203
0000
0000
0000
,
0310
0000
0000
0000
;

//---------------dance-single - ----------------
#NOTEDATA:;
#CHARTNAME:;
#STEPSTYPE:dance-single;
#DESCRIPTION:;
#CHARTSTYLE:;
#DIFFICULTY:Medium;
#METER:4;
#RADARVALUES:0.112262,0.127433,0.000000,0.254865,0.000000,111.000000,111.000000,0.000000,36.000000,0.000000,0.000000,0.000000,0.000000,0.000000,0.112262,0.127433,0.000000,0.254865,0.000000,111.000000,111.000000,0.000000,36.000000,0.000000,0.000000,0.000000,0.000000,0.000000;
#CREDIT:led_light;
#NOTES:
// measure 0
0000
0000
0000
0000
,  // measure 1
0000
0000
0000
0000
,  // measure 2
0000
0000
0000
0000
,  // measure 3
0000
0000
0000
0000
,  // measure 4
0000
0000
0000
0000
,  // measure 5
0010
0010
1000
0001
,  // measure 6
0100
0020
0000
0030
,  // measure 7
0100
0100
0001
1000
,  // measure 8
0100
0020
0000
0030
,  // measure 9
0001
0001
0100
0010
,  // measure 10
1000
0002
0003
0001
,  // measure 11
1000
0200
0300
0100
,  // measure 12
1000
0020
0030
0010
,  // measure 13
0001
0001
0010
1000
,  // measure 14
0002
0100
0000
0103
,  // measure 15
0010
0010
1000
0100
,  // measure 16
0020
0001
0030
0001
,  // measure 17
1000
1000
0100
0001
,  // measure 18
0200
0010
0300
0010
,  // measure 19
0002
1000
0003
1000
,  // measure 20
0002
0100
0000
0103
,  // measure 21
0020
0000
0200
0030
,  // measure 22
0002
0300
2000
3003
,  // measure 23
0002
0000
2000
0003
,  // measure 24
0200
0000
0000
3300
,  // measure 25
0020
0000
0200
0030
,  // measure 26
2000
0300
0002
3003
,  // measure 27
2000
0000
0002
3000
,  // measure 28
0200
0000
0000
0303
,  // measure 29
0001
0100
0002
0003
,  // measure 30
1000
0100
2000
3000
,  // measure 31
0010
0100
0020
0030
,  // measure 32
1000
0010
0100
0001
,  // measure 33
1000
0100
2000
3000
,  // measure 34
0001
0100
0002
0003
,  // measure 35
0010
0100
0020
0030
,  // measure 36
0001
0010
0100
1000
,  // measure 37
0002
0000
0000
0000
,  // measure 38
1000
0000
1000
0000
,  // measure 39
2003
0000
0000
0000
,  // measure 40
3001
0100
0010
1000
,  // measure 41
0002
0000
1000
0000
,  // measure 42
2003
0000
3100
1000
,  // measure 43
0002
0000
0010
0000
,  // measure 44
2003
0000
3010
0100
,  // measure 45
0001
0000
0000
0000
;

//---------------dance-single - ----------------
#NOTEDATA:;
#CHARTNAME:;
#STEPSTYPE:dance-single;
#DESCRIPTION:;
#CHARTSTYLE:;
#DIFFICULTY:Hard;
#METER:6;
#RADARVALUES:0.178001,0.191149,0.000000,0.346900,0.060177,176.000000,176.000000,0.000000,49.000000,0.000000,0.000000,0.000000,0.000000,0.000000,0.178001,0.191149,0.000000,0.346900,0.060177,176.000000,176.000000,0.000000,49.000000,0.000000,0.000000,0.000000,0.000000,0.000000;
#CREDIT:led_light;
#NOTES:
// measure 0
0000
0000
0000
0000
,  // measure 1
0000
0000
0000
0000
,  // measure 2
0000
0000
0000
0000
,  // measure 3
0000
0000
0000
0000
,  // measure 4
0000
0000
0000
0000
,  // measure 5
1000
0000
0100
0000
0001
0000
0100
1000
,  // measure 6
0000
2000
0002
0000
0003
0000
3001
0000
,  // measure 7
0010
0000
1000
0000
0010
0000
0001
0100
,  // measure 8
0000
0020
2000
0000
3030
0000
1000
0000
,  // measure 9
0001
0000
0100
0000
0010
0000
0100
0001
,  // measure 10
0000
2000
0200
0000
3300
0000
0010
0100
,  // measure 11
0000
2000
0002
0000
3003
0000
0100
0001
,  // measure 12
0000
0020
0200
0000
0330
0000
0100
0000
,  // measure 13
1000
0000
0010
0000
0001
0000
0010
1000
,  // measure 14
0000
2000
0002
0000
0003
0000
3001
0000
,  // measure 15
0100
0000
1000
0000
0100
0000
0001
0010
,  // measure 16
0000
0200
2000
0000
3300
0000
0100
1000
,  // measure 17
0001
0000
0010
0000
0100
0000
0010
0001
,  // measure 18
0000
2000
0020
0000
3030
0000
0100
0010
,  // measure 19
0000
2000
0002
0000
3003
0000
0010
0001
,  // measure 20
0000
0200
0020
0000
0330
0000
0010
0000
,  // measure 21
1000
0000
0000
0001
0000
0000
0100
0000
0010
0000
0000
1000
0000
0000
0100
0000
,  // measure 22
0010
0000
0000
0010
0000
0000
0001
0000
2000
0000
0000
0000
3001
0000
0000
0000
,  // measure 23
1000
0000
0000
0100
0000
0000
0010
0000
0001
0000
0000
0100
0000
0000
0010
0000
,  // measure 24
1000
0000
0000
0100
0000
0000
1000
0000
0000
1000
0000
0002
0000
0000
0003
0000
,  // measure 25
1000
0000
0000
0001
0000
0000
0100
0000
0010
0000
0000
1000
0000
0000
0100
0000
,  // measure 26
0010
0000
0000
0010
0000
0000
0001
0000
2000
0000
0000
0000
3000
0000
1000
0000
,  // measure 27
0001
0000
0000
0100
0000
0000
0010
0000
1000
0000
0000
0100
0000
0000
0010
0000
,  // measure 28
0001
0000
0000
0001
0000
0000
0010
0000
0000
0001
0000
2000
0000
0000
0000
0000
,  // measure 29
3100
0000
0010
0010
0200
0000
0300
0000
,  // measure 30
0001
0001
2000
0000
3000
0000
1000
0000
,  // measure 31
0020
0000
0031
0001
2000
0000
3100
1000
,  // measure 32
2000
3020
0230
0302
,  // measure 33
0013
0000
0100
0100
0020
0000
0030
0000
,  // measure 34
1000
1000
0002
0000
0003
0000
0001
0000
,  // measure 35
0200
0000
1300
1000
0002
0000
0013
0001
,  // measure 36
0002
0203
2300
3020
,  // measure 37
0032
0000
0000
0000
0013
0000
0010
0001
,  // measure 38
2000
0000
0000
0000
3100
0000
0100
1000
,  // measure 39
0002
0000
2003
0000
,  // measure 40
3010
0000
0000
0000
0100
0000
0000
0000
0001
0000
0000
0010
0000
0000
0100
0000
,  // measure 41
2000
0000
0000
0000
0020
0000
3030
0100
,  // measure 42
0002
0000
0000
0000
0013
0000
0010
0100
,  // measure 43
2000
0000
0000
0000
3100
0000
0100
1000
,  // measure 44
0020
0000
0000
0000
0130
0000
0100
0001
,  // measure 45
1000
0000
0000
0000
;

//---------------dance-double - ----------------
#NOTEDATA:;
#CHARTNAME:;
#STEPSTYPE:dance-double;
#DESCRIPTION:;
#CHARTSTYLE:;
#DIFFICULTY:Easy;
#METER:2;
#RADARVALUES:0.069785,0.111504,0.000000,0.191149,0.000000,69.000000,69.000000,0.000000,27.000000,0.000000,0.000000,0.000000,0.000000,0.000000,0.069785,0.111504,0.000000,0.191149,0.000000,69.000000,69.000000,0.000000,27.000000,0.000000,0.000000,0.000000,0.000000,0.000000;
#CREDIT:led_light;
#NOTES:
00000000
00000000
00000000
00000000
,
00000000
00000000
00000000
00000000
,
00000000
00000000
00000000
00000000
,
00000000
00000000
00000000
00000000
,
00000000
00000000
00000000
00000000
,
00000001
00000000
00000001
00000000
,
00000200
00000000
00000300
00000000
,
00000010
00000000
00000010
00000000
,
00002000
00000000
00003000
00000000
,
00000100
00000000
00000100
00000000
,
00020000
00000000
00030000
00010000
,
00002000
00000000
00003000
00001000
,
02000000
00000000
03000000
00000000
,
00010000
00000000
00010000
00100000
,
02000000
00000000
03000000
00000000
,
10000000
00000000
10000000
01000000
,
20000000
00000000
30000000
00000000
,
10000000
00000000
10000000
00100000
,
00020000
00000000
00030000
00010000
,
00002000
00000000
00003000
00001000
,
00000200
00000000
00000300
00000000
,
00000002
00000000
00000003
00000000
,
00000020
00000000
00000030
00000000
,
00000200
00000000
00000300
00000000
,
00020000
00000000
00000000
00030000
,
00002000
00000000
00003000
00000000
,
02000000
00000000
03000000
00000000
,
00200000
00000000
00300000
00000000
,
20000000
00000000
00000000
30000000
,
00010000
00000000
00010000
00000000
,
01000000
00002000
00000000
00003000
,
00010000
00000000
00010000
00000000
,
00000100
00000010
00000002
00000003
,
00001000
00000000
00001000
00000000
,
00000010
00020000
00000000
00030000
,
00001000
00000000
00001000
00000000
,
00100000
01000000
10000000
00010000
,
20000000
00000000
00000000
00000000
,
30020000
00000000
00000000
00000000
,
01030000
00000000
00000000
00000000
,
00001000
00010000
00001000
00000100
,
00000002
00000000
00000000
00000000
,
00000023
00000000
00000030
00000010
,
00000200
00000000
00000000
00000300
,
00020000
00000000
00000000
00030000
,
00001000
00000000
00000000
00000000
;

//---------------dance-double - ----------------
#NOTEDATA:;
#CHARTNAME:;
#STEPSTYPE:dance-double;
#DESCRIPTION:;
#CHARTSTYLE:;
#DIFFICULTY:Medium;
#METER:4;
#RADARVALUES:0.109228,0.127433,0.000000,0.247786,0.000000,108.000000,108.000000,0.000000,35.000000,0.000000,0.000000,0.000000,0.000000,0.000000,0.109228,0.127433,0.000000,0.247786,0.000000,108.000000,108.000000,0.000000,35.000000,0.000000,0.000000,0.000000,0.000000,0.000000;
#CREDIT:led_light;
#NOTES:
00000000
00000000
00000000
00000000
,
00000000
00000000
00000000
00000000
,
00000000
00000000
00000000
00000000
,
00000000
00000000
00000000
00000000
,
00000000
00000000
00000000
00000000
,
00000010
00000001
00000100
00000010
,
00002000
00000000
00003100
00000000
,
00000100
00010000
00001000
01000000
,
00020000
00000000
00130000
00000000
,
01000000
10000000
00100000
01000000
,
00020000
00000000
00130000
00100000
,
00002000
00000000
00013000
00010000
,
00000200
00000000
00010300
00000000
,
00000010
00000100
00000001
00000100
,
00000020
00001000
00000000
00001030
,
00000100
00010000
00001000
00010000
,
02000000
00000000
13000000
00010000
,
01000000
00100000
10000000
00100000
,
02000000
00000000
03001000
00001000
,
00020000
00000000
00031000
00001000
,
00000200
00000000
00000301
00000000
,
00002000
00000000
00003200
00000000
,
00020300
00000000
00031000
00000000
,
00000020
00000000
00000032
00000000
,
00000203
00000000
00000000
00000300
,
00020000
00000000
00230000
00000000
,
00302000
00000000
00013000
00000000
,
02000000
00000000
23000000
00000000
,
30200000
00000000
00000000
00300000
,
10000000
01000000
00200000
00300000
,
01000000
01000000
00200000
00300000
,
00100000
00001000
00020000
00030000
,
00010000
00001000
00000200
00000300
,
00000001
00000010
00000200
00000300
,
00000010
00000010
00000200
00000300
,
00000100
00010000
00002000
00003000
,
00001000
00010000
00100000
10000000
,
00020000
00000000
00000000
00000000
,
01000000
00000000
01000000
00000000
,
20030000
00000000
00000000
30000000
,
10000000
01000000
00010000
00001000
,
00020000
00000000
00000100
00000000
,
00030200
00000000
00001300
00000001
,
00002000
00000000
00003100
00000000
,
00000002
00000000
00000103
00001000
,
00000010
00000000
00000000
00000000
;

//---------------dance-double - ----------------
#NOTEDATA:;
#CHARTNAME:;
#STEPSTYPE:dance-double;
#DESCRIPTION:;
#CHARTSTYLE:;
#DIFFICULTY:Hard;
#METER:6;
#RADARVALUES:0.190138,0.191149,0.000000,0.297343,0.060177,188.000000,188.000000,0.000000,42.000000,0.000000,0.000000,0.000000,0.000000,0.000000,0.190138,0.191149,0.000000,0.297343,0.060177,188.000000,188.000000,0.000000,42.000000,0.000000,0.000000,0.000000,0.000000,0.000000;
#CREDIT:led_light;
#NOTES:
00000000
00000000
00000000
00000000
,
00000000
00000000
00000000
00000000
,
00000000
00000000
00000000
00000000
,
00000000
00000000
00000000
00000000
,
00000000
00000000
00000000
00000000
,
00000010
00000000
00000001
00000000
00001000
00000000
00001000
00000001
,
00000100
00000020
00001000
00000000
00010000
00000000
00001030
00000000
,
00010000
00000000
00000100
00000000
00010000
00000000
00010000
00001000
,
01000000
00200000
10000000
00000000
01000000
00000000
10300000
00000000
,
01000000
00000000
10000000
00000000
00100000
00000000
00100000
10000000
,
01000000
00200000
01000000
00000000
00310000
00000000
00100000
00001000
,
00000000
00020000
00002000
00000000
00033000
00000000
00010000
00000010
,
00000000
00002000
00000002
00000000
00003003
00000000
00000001
00000000
,
00000100
00000000
00000001
00000000
00001000
00000000
00001000
00000001
,
00000010
00000200
00001000
00000000
00010000
00000000
00001300
00000000
,
00010000
00000000
00000010
00000000
00010000
00000000
00010000
00001000
,
00100000
02000000
10000000
00000000
03100000
00000000
01000000
10000000
,
00010000
00000000
10000000
00000000
01000000
00000000
01000000
10000000
,
00100000
02000000
00100000
00000000
03010000
00000000
01000000
00001000
,
00000000
00020000
00002000
00000000
00033000
00000000
00010000
00000100
,
00000000
00002000
00000002
00000000
00003003
00000000
00000001
00000000
,
00001000
00000000
00000000
00000100
00000000
00000000
00000010
00000000
00000001
00000000
00000000
00000100
00000000
00000000
00000010
00000000
,
00001000
00000000
00000000
00000100
00000000
00000000
00010000
00000000
00002000
00000000
00000000
00000000
00003000
00000000
00000000
00000000
,
00001000
00000000
00000000
01000000
00000000
00000000
00100000
00000000
10000000
00000000
00000000
01000000
00000000
00000000
00100000
00000000
,
00010000
00000000
00000000
00010000
00000000
00000000
01000000
00000000
00000000
00010000
00000000
20000000
00000000
00000000
30000000
00000000
,
00010000
00000000
00000000
01000000
00000000
00000000
00100000
00000000
10000000
00000000
00000000
01000000
00000000
00000000
00100000
00000000
,
00010000
00000000
00000000
01000000
00000000
00000000
00001000
00000000
00020000
00000000
00000000
00000000
00030000
00000000
00001000
00000000
,
00010000
00000000
00000000
00000100
00000000
00000000
00000010
00000000
00000001
00000000
00000000
00000100
00000000
00000000
00000010
00000000
,
00001000
00000000
00000000
00001000
00000000
00000000
00000100
00000000
00000000
00001000
00000000
00000002
00000000
00000000
00000000
00000000
,
00001003
00000000
00000001
00000001
00000200
00000000
00000300
00000000
,
00001000
00001000
00000200
00000000
00000300
00000000
00000100
00000000
,
00000020
00000000
00010030
00010000
00002000
00000000
00103000
00100000
,
00020000
20030000
32000000
03200000
,
00310000
00000000
10000000
10000000
00200000
00000000
00300000
00000000
,
00010000
00010000
00200000
00000000
00300000
00000000
00100000
00000000
,
02000000
00000000
03001000
00001000
00020000
00000000
00030100
00000100
,
00002000
00003002
00000203
00000320
,
00002030
00000000
00000000
00000000
00003001
00000000
00000001
00000010
,
00000002
00000000
00000000
00000000
00000103
00000000
00000100
00001000
,
00020000
00000000
00002000
00030000
,
00013000
00000000
00000000
00000000
01000000
00000000
00000000
00000000
10000000
00000000
00000000
01000000
00000000
00000000
00100000
00000000
,
00020000
00000000
00000000
00000000
10030000
00000000
10000000
01000000
,
20000000
00000000
00000000
00000000
30100000
00000000
00100000
00010000
,
00002000
00000000
00000000
00000000
00013000
00000000
00001000
00000010
,
00000002
00000000
00000000
00000000
00000013
00000000
00000100
00001000
,
00000001
00000000
00000000
00000000
;
