#TITLE:Spookeez;
#SUBTITLE:;
#ARTIST:Kawai Sprite;
#TITLETRANSLIT:;
#SUBTITLETRANSLIT:;
#ARTISTTRANSLIT:;
#GENRE:Friday Night Funkin';
#CREDIT:;
#BANNER:Spookeez.png;
#BACKGROUND:../bg.png;
#LYRICSPATH:;
#CDTITLE:../cdtitle.png;
#MUSIC:Spookeez.ogg;
#OFFSET:1.347000;
#SAMPLESTART:6.652000;
#SAMPLELENGTH:15.000000;
#LASTBEATHINT:0.867500;
#SELECTABLE:YES;
#BPMS:0.000000=150.000000
;
#STOPS:
;
#BGCHANGES:-99.000=Spookeez.avi=1.000=0=0=1====#000000=,
-1.000=Spookeez.avi=1.000=0=0=0=StretchNoLoop====,
99999=-nosongbg-=1.000=0=0=0 // don't automatically add -songbackground-
;
#KEYSOUNDS:;
#ATTACKS:;

//---------------dance-single - ----------------
#NOTES:
     dance-single:
     :
     Hard:
     13:
     0.563380,0.613053,0.060362,0.301811,0.211268,392.000000,386.000000,6.000000,30.000000,0.000000,0.000000,0.563380,0.613053,0.060362,0.301811,0.211268,392.000000,386.000000,6.000000,30.000000,0.000000,0.000000:
0000
0000
0000
0000
,
0000
0000
0000
0000
,
0000
0000
0000
0000
,
0000
0000
0000
0000
,
0000
0000
0000
0000
,
1000
1000
0010
0000
0010
0000
0001
0010
,
1000
1000
0010
0000
0010
0000
1000
1000
,
0001
0001
0010
0000
0010
0000
1000
0010
,
0001
0001
0010
0000
0010
0000
0001
0001
,
1000
0000
1000
0100
1000
0000
1000
0000
0001
0000
0100
0000
0010
0000
0000
0000
,
1000
0000
1000
0010
1000
0000
0100
0000
0010
0000
0001
0000
1001
0000
0000
0000
,
0001
0000
0001
0010
0001
0000
0001
0000
1000
0000
0010
0000
0100
0000
0000
0000
,
0001
0000
0001
0100
0001
0000
0010
0000
0100
0000
1000
0000
0001
0000
1000
0000
,
0020
0000
1030
0100
0010
0000
0000
0000
0001
0000
0000
0001
0000
0000
0001
0000
,
2000
0000
3100
1000
0010
0000
0000
0000
0100
0000
0000
1000
0100
0000
0010
0000
,
2000
0000
3001
0010
0001
0000
0000
0000
1000
0000
0000
1000
0000
0000
1000
0000
,
0200
0000
0310
0001
1000
0000
0000
0000
0010
0000
0000
0000
0110
0000
0001
0000
,
0010
0000
0001
0100
0010
0000
0000
0000
1000
0000
0000
1000
0000
0000
1000
0000
,
0002
0000
0103
0001
0010
0000
0000
0000
0100
0000
0000
0001
0100
0000
0010
0000
,
0002
0000
1003
0010
1000
0000
0000
0000
0001
0000
0000
0001
0000
0000
0001
0000
,
0200
0000
0310
1000
0001
0000
0000
0000
0010
0000
0000
0000
0110
0000
0100
0000
,
1000
1000
0010
0000
0010
0000
0001
0010
,
1000
1000
0010
0000
0010
0000
1000
1000
,
0001
0001
0010
0000
0010
0000
1000
0010
,
0001
0001
0010
0000
0010
0000
0001
0001
,
1000
0000
1000
0100
1000
0000
1000
0000
0001
0000
0100
0000
0010
0000
0000
0000
,
1000
0000
1000
0010
1000
0000
0100
0000
0010
0000
0001
0000
1001
0000
0000
0000
,
0001
0000
0001
0010
0001
0000
0001
0000
1000
0000
0010
0000
0100
0000
0000
0000
,
0001
0000
0001
0100
0001
0000
0010
0000
0100
0000
1000
0000
0001
0000
1000
0000
,
0020
0000
1030
0100
0010
0000
0000
0010
0001
0000
0000
0001
0000
0000
0001
0000
,
2000
0000
3100
1000
0010
0000
0000
0010
0100
0000
1000
0000
0100
0000
0010
0000
,
2000
0000
3001
0010
0001
0000
0000
0000
1000
0000
0000
1000
0000
0000
1000
0000
,
0200
0000
0310
0001
1000
0000
0000
0000
0010
0000
0000
0000
0110
0000
0001
0000
,
0020
0000
0031
0100
0010
0000
0000
0010
1000
0000
0000
1000
0000
0000
1000
0000
,
0002
0000
0103
0001
0010
0000
0000
0010
0100
0000
0001
0000
0100
0000
0010
0000
,
0002
0000
1003
0010
1000
0000
0000
0000
0001
0000
0000
0001
0000
0000
0001
0000
,
0200
0000
0310
1000
0001
0000
0010
0100
1000
0100
1000
0001
0200
0000
0300
0000
,
2001
3200
2300
3020
,
0130
0100
0002
0000
0023
0000
2030
0000
,
3010
0000
0001
0010
0000
0001
0010
0001
,
1000
0000
0100
1000
0000
0100
1000
0001
,
2000
3020
2030
3200
,
0310
0010
0002
0000
0203
0000
2300
0000
,
3100
0000
0001
0100
0000
0001
0100
0001
,
1000
0000
0010
1000
0000
0010
1000
0001
,
0010
1000
0010
0001
0000
0001
0010
1000
,
0010
0001
0010
1000
0000
0010
0001
0000
,
0010
1000
0010
0001
0000
0001
0010
1000
,
0010
0001
0010
1000
0000
0010
0001
0000
,
0100
1000
0100
0001
0000
0001
0100
1000
,
0100
0001
0100
1000
0000
0100
0001
0000
,
0100
1000
0100
0001
0000
0001
0100
1000
,
0100
0001
0100
1000
0000
0100
0001
0000
,
0010
0010
0100
0010
0000
0001
0100
0001
,
0010
0010
0100
0010
0000
0001
0100
0000
,
0010
0010
0100
0010
0000
1000
0100
1000
,
0010
0010
0100
0010
0000
1000
0100
0000
,
0010
0010
0100
0010
0000
0001
0100
0001
,
0010
0010
0100
0010
0000
0001
0100
0000
,
0010
0010
0100
0010
0000
1000
0100
1000
,
0010
0000
0010
0000
0100
0000
0010
0000
0000
0000
1000
0000
0100
0000
0010
0001
;

//---------------dance-single - ----------------
#NOTES:
     dance-single:
     :
     Medium:
     10:
     0.446968,0.428697,0.120724,0.040241,0.050302,311.000000,299.000000,12.000000,4.000000,0.000000,0.000000,0.446968,0.428697,0.120724,0.040241,0.050302,311.000000,299.000000,12.000000,4.000000,0.000000,0.000000:
0000
0000
0000
0000
,
0000
0000
0000
0000
,
0000
0000
0000
0000
,
0000
0000
0000
0000
,
0000
0000
0000
0000
,
1000
0100
0001
0000
0001
0000
0001
0100
,
1000
0100
0001
0000
0001
0000
0001
0100
,
1000
0010
0001
0000
0001
0000
0001
0010
,
1000
0010
0001
0000
0001
0000
0001
0010
,
1000
0100
1000
0000
1000
1000
1000
0000
,
0001
0100
0001
0000
0100
0000
1001
0000
,
0001
0010
0001
0000
0001
0001
0001
0000
,
1000
0010
1000
0000
0010
0000
1001
0000
,
0110
0000
0000
0000
0001
0000
0000
0000
0001
0000
0000
0001
0000
0000
0001
0000
,
1000
0000
0000
0000
0010
0000
0000
0000
0010
0000
0000
0010
0000
0000
0010
0000
,
0110
0000
0000
0000
1000
0000
0000
0000
1000
0000
0000
1000
0000
0000
1000
0000
,
0001
0000
0010
0000
0100
0000
0010
0010
,
1001
0000
0000
0000
0010
0000
0000
0000
0010
0000
0000
0010
0000
0000
0010
0000
,
0100
0000
0000
0000
0001
0000
0000
0000
0001
0000
0000
0001
0000
0000
0001
0000
,
1001
0000
0000
0000
0100
0000
0000
0000
0100
0000
0000
0100
0000
0000
0100
0000
,
0010
0000
1000
0000
0100
0000
1000
0001
,
1000
0100
0001
0000
0001
0000
0001
0100
,
1000
0100
0001
0000
0001
0000
0001
0100
,
1000
0010
0001
0000
0001
0000
0001
0010
,
1000
0010
0001
0000
0001
0000
0001
0010
,
1000
0100
1000
0000
1000
1000
1000
0000
,
0001
0100
0001
0000
0100
0000
1001
0000
,
0001
0010
0001
0000
0001
0001
0001
0000
,
1000
0010
1000
0000
0010
0000
1001
0000
,
0110
0000
0000
0000
0001
0000
0000
0000
0001
0000
0000
0001
0000
0000
0001
0000
,
1000
0000
0010
0000
0010
0000
0100
0010
,
0110
0000
0000
0000
1000
0000
0000
0000
1000
0000
0000
1000
0000
0000
1000
0000
,
0001
0000
0010
0000
0100
0000
0010
0010
,
1001
0000
0000
0000
0010
0000
0000
0000
0010
0000
0000
0010
0000
0000
0010
0000
,
0100
0000
0001
0000
0001
0000
1000
0001
,
1001
0000
0000
0000
0100
0000
0000
0000
0100
0000
0000
0100
0000
0000
0100
0000
,
0010
0000
1000
0000
0100
0100
0100
0000
,
2000
3010
0002
0013
,
1000
1000
0100
0000
0010
0000
0001
0000
,
1000
0000
1000
0010
0000
0010
1000
0000
,
0001
0000
0010
0001
0000
0001
0010
0000
,
0002
0103
2000
3100
,
0001
0001
0010
0000
0100
0000
1000
0000
,
0001
0000
0001
0100
0000
0100
0001
0000
,
1000
0000
0100
1000
0000
1000
0100
0000
,
0010
0100
0010
0001
0000
0010
0100
0000
,
0010
0100
0010
0001
0000
0010
0100
0000
,
1000
0010
0100
0010
0000
1000
0100
0000
,
1000
0010
0100
0010
0000
1000
0100
0000
,
0010
0100
0010
0001
0000
0010
0100
0000
,
0010
0100
0010
0001
0000
0010
0100
0000
,
1000
0010
0100
0010
0000
1000
0100
0000
,
1000
0010
0100
0010
0000
1000
0100
0000
,
1000
0000
0010
0001
0000
0001
0010
0000
,
1000
0000
0010
0001
0000
0001
0010
0000
,
1000
0000
0100
0001
0000
0001
0100
0000
,
1000
0000
0100
0001
0000
0001
0100
0000
,
0010
0000
0001
0100
0000
0100
0001
0000
,
0010
0000
0001
0100
0000
0100
0001
0000
,
0010
0000
0001
0100
0000
0100
0001
0000
,
0010
0000
0001
0100
0000
0100
0001
1000
;

//---------------dance-single - ----------------
#NOTES:
     dance-single:
     :
     Easy:
     6:
     0.284565,0.305584,0.140845,0.000000,0.000000,198.000000,184.000000,14.000000,0.000000,0.000000,0.000000,0.284565,0.305584,0.140845,0.000000,0.000000,198.000000,184.000000,14.000000,0.000000,0.000000,0.000000:
0000
0000
0000
0000
,
0000
0000
0000
0000
,
0000
0000
0000
0000
,
0000
0000
0000
0000
,
0000
0000
0000
0000
,
1000
1000
1000
0000
,
1000
1000
1000
0000
,
0001
0001
0001
0000
,
0001
0001
0001
0000
,
1000
0100
0001
0000
,
0001
0100
1000
1001
,
0001
0010
1000
0000
,
1000
0010
0001
1001
,
0110
0000
0100
0100
,
0100
0000
0010
0010
,
1001
0000
0010
0010
,
0010
0000
0100
0100
,
0110
0000
0100
0100
,
0100
0000
0010
0010
,
1001
0000
0010
0010
,
0010
0000
0100
0110
,
0001
0001
0001
0000
,
0001
0001
0001
0000
,
1000
1000
1000
0000
,
1000
1000
1000
0000
,
0001
0010
1000
0000
,
1000
0010
0001
1001
,
1000
0100
0001
0000
,
0001
0100
1000
1001
,
0110
0000
0010
0010
,
0010
0000
0100
0100
,
1001
0000
0100
0100
,
0100
0000
0010
0010
,
0110
0000
0010
0010
,
0010
0000
0100
0100
,
1001
0000
0100
0100
,
0100
0000
0010
0110
,
1000
1000
0001
0001
,
0100
0010
0100
0010
,
1000
0000
0000
0100
0000
0000
0100
0000
,
0001
0000
0000
0100
0000
0000
0100
0000
,
1000
1000
0001
0001
,
0010
0100
0010
0100
,
1000
0000
0000
0010
0000
0000
0010
0000
,
0001
0000
0000
0010
0000
0000
0010
0000
,
1000
0000
0100
0000
0000
1000
0100
0000
,
0010
0001
0000
0001
,
1000
0000
0010
0000
0000
1000
0010
0000
,
0100
0001
0010
0001
,
1000
0000
0010
0000
0000
1000
0010
0000
,
0100
0001
0000
0001
,
1000
0000
0100
0000
0000
1000
0100
0000
,
0010
0001
0100
0001
,
1000
0000
0000
1000
0000
0000
1000
0000
,
0001
0000
0000
0001
0000
0000
0001
0000
,
0100
0000
0000
0100
0000
0000
0100
0000
,
0010
1000
0100
1000
,
0001
0000
0000
0001
0000
0000
0001
0000
,
1000
0000
0000
1000
0000
0000
1000
0000
,
0010
0000
0000
0010
0000
0000
0010
0000
,
0100
0000
0001
0000
0000
0010
0001
0000
;

//---------------dance-single - ----------------
#NOTES:
     dance-single:
     :
     Beginner:
     1:
     0.086232,0.148390,0.080483,0.000000,0.000000,60.000000,52.000000,8.000000,0.000000,0.000000,0.000000,0.086232,0.148390,0.080483,0.000000,0.000000,60.000000,52.000000,8.000000,0.000000,0.000000,0.000000:
0000
0000
0000
0000
,
0000
0000
0000
0000
,
0000
0000
0000
0000
,
0000
0000
0000
0000
,
0000
0000
0000
0000
,
1000
0000
0000
0000
,
1000
0000
0000
0000
,
0001
0000
0000
0000
,
0001
0000
0000
0000
,
0010
0000
0000
0000
,
0010
0000
0000
0000
,
0100
0000
0000
0000
,
0100
0000
0000
0000
,
1001
0000
0000
0000
,
0010
0000
0000
0000
,
1001
0000
0000
0000
,
0100
0000
0000
0000
,
0110
0000
0000
0000
,
1000
0000
0000
0000
,
0110
0000
0000
0000
,
0001
0000
0000
0000
,
1000
0000
0000
0000
,
1000
0000
0000
0000
,
0001
0000
0000
0000
,
0001
0000
0000
0000
,
0100
0000
0000
0000
,
0100
0000
0000
0000
,
0010
0000
0000
0000
,
0010
0000
0000
0000
,
1001
0000
0000
0000
,
0100
0000
0000
0000
,
1001
0000
0000
0000
,
0010
0000
0000
0000
,
0110
0000
0000
0000
,
1000
0000
0000
0000
,
0110
0000
0000
0000
,
0001
0000
0000
0000
,
1000
0000
0000
0000
,
1000
0000
0000
0000
,
0001
0000
0000
0000
,
0001
0000
0000
0000
,
0010
0000
0000
0000
,
0010
0000
0000
0000
,
0100
0000
0000
0000
,
0100
0000
0000
0000
,
1000
0000
0000
0000
,
1000
0000
0000
0000
,
1000
0000
0000
0000
,
1000
0000
0000
0000
,
0001
0000
0000
0000
,
0001
0000
0000
0000
,
0001
0000
0000
0000
,
0001
0000
0000
0000
,
0100
0000
0000
0000
,
0000
0000
0000
0000
,
0100
0000
0000
0000
,
0000
0000
0000
0000
,
0010
0000
0000
0000
,
0000
0000
0000
0000
,
0010
0000
0000
0000
;

//---------------dance-single - FNF Hard----------------
#NOTES:
     dance-single:
     :
     Edit:
     14:
     0.547571,0.611167,0.000000,0.181087,0.211268,381.000000,381.000000,0.000000,18.000000,0.000000,0.000000,0.547571,0.611167,0.000000,0.181087,0.211268,381.000000,381.000000,0.000000,18.000000,0.000000,0.000000:
// measure 0
0000
0000
0000
0000
,  // measure 1
0000
0000
0000
0000
,  // measure 2
0000
0000
0000
0000
,  // measure 3
0000
0000
0000
0000
,  // measure 4
0000
0000
0000
0000
,  // measure 5
1000
0100
0001
0000
0001
0000
0010
0001
,  // measure 6
0100
0001
0001
0000
0010
0000
1000
0001
,  // measure 7
1000
0100
0001
0000
0001
0000
0010
0001
,  // measure 8
0100
0001
0001
0000
0010
0000
1000
0001
,  // measure 9
0010
0000
0001
0100
1000
0000
1000
0000
0010
0000
0001
0000
0100
0000
0000
0000
,  // measure 10
0100
0000
1000
0100
0001
0000
0001
0000
1000
0000
1000
0000
0010
0000
0000
0000
,  // measure 11
0010
0000
0001
0100
1000
0000
1000
0000
0010
0000
0001
0000
0100
0000
0000
0000
,  // measure 12
0100
0000
1000
0100
0001
0000
0001
0000
1000
0000
1000
0000
0010
0000
0001
0000
,  // measure 13
0010
0000
0001
0100
0001
0000
0000
0000
0001
0000
0000
0001
0000
0000
0001
0000
,  // measure 14
0010
0000
1000
0100
0001
0000
0000
0000
0001
0000
0000
0100
0001
0000
0001
0000
,  // measure 15
0010
0000
0001
0100
0001
0000
0000
0000
0001
0000
0000
0001
0000
0000
0001
0000
,  // measure 16
0010
0000
1000
0100
0001
0000
0000
0000
0100
0000
0000
0000
0010
0000
0010
0000
,  // measure 17
0010
0000
0001
0100
0001
0000
0000
0000
0001
0000
0000
0001
0000
0000
0001
0000
,  // measure 18
0010
0000
1000
0100
0001
0000
0000
0000
0001
0000
0000
0100
0001
0000
0001
0000
,  // measure 19
0010
0000
0001
0100
0001
0000
0000
0000
0001
0000
0000
0001
0000
0000
0001
0000
,  // measure 20
0010
0000
1000
0100
0001
0000
0000
0000
0100
0000
0000
0000
0010
0000
0010
0000
,  // measure 21
1000
0100
0001
0000
0001
0000
0010
0001
,  // measure 22
0100
0001
0001
0000
0010
0000
1000
0001
,  // measure 23
1000
0100
0001
0000
0001
0000
0010
0001
,  // measure 24
0100
0001
0001
0000
0010
0000
1000
0001
,  // measure 25
0010
0000
0001
0100
1000
0000
1000
0000
0010
0000
0001
0000
0100
0000
0000
0000
,  // measure 26
0100
0000
1000
0100
0001
0000
0001
0000
1000
0000
1000
0000
0010
0000
0000
0000
,  // measure 27
0010
0000
0001
0100
1000
0000
1000
0000
0010
0000
0001
0000
0100
0000
0000
0000
,  // measure 28
0100
0000
1000
0100
0001
0000
0001
0000
1000
0000
1000
0000
0010
0000
0001
0000
,  // measure 29
0010
0000
0001
0100
0001
0000
0000
0001
0001
0000
0000
0001
0000
0000
0001
0000
,  // measure 30
0010
0000
1000
0100
0001
0000
0000
0001
0100
0000
1000
0010
0001
0000
0001
0100
,  // measure 31
0010
0000
0001
0100
0001
0000
0000
0000
0001
0000
0000
0001
0000
0000
0001
0000
,  // measure 32
0010
0000
1000
0100
0001
0000
0000
0000
0001
0000
0000
0000
1000
0000
0001
0000
,  // measure 33
0010
0000
0001
0100
0001
0000
0000
0001
0001
0000
0000
0001
0000
0000
0001
0000
,  // measure 34
0010
0000
1000
0100
0001
0000
0000
0001
0100
0000
1000
0010
0001
0000
0001
0100
,  // measure 35
0010
0000
0001
0100
0001
0000
0000
0000
0001
0000
0000
0001
0000
0000
0001
0000
,  // measure 36
0010
0000
1000
0100
0001
0000
0000
0000
0001
0000
0000
0000
0000
0000
0000
0000
,  // measure 37
0020
0000
0000
0030
0002
0000
0000
0003
0200
0000
0000
0300
0020
0000
0000
0030
,  // measure 38
0020
0030
0000
0000
0002
0003
0000
0000
2000
0000
0000
0000
0000
0000
3000
0000
0200
0000
0000
0000
0000
0000
0300
0000
0020
0000
0000
0000
0000
0000
0030
0000
,  // measure 39
0100
0000
0100
0001
0000
0001
1000
0001
,  // measure 40
0100
0000
0100
0001
0000
0001
1000
0001
,  // measure 41
0020
0000
0000
0030
0002
0000
0000
0003
0200
0000
0000
0300
0020
0000
0000
0030
,  // measure 42
0020
0030
0000
0000
0002
0003
0000
0000
2000
0000
0000
0000
0000
0000
3000
0000
0200
0000
0000
0000
0000
0000
0300
0000
0020
0000
0000
0000
0000
0000
0030
0000
,  // measure 43
0100
0000
0100
0001
0000
0001
1000
0001
,  // measure 44
0100
0000
0100
0001
0000
0001
1000
0001
,  // measure 45
0010
0010
0001
0010
0000
0001
0100
0001
,  // measure 46
0010
0010
0001
0010
0000
0001
0100
0000
,  // measure 47
0010
0010
0001
0010
0000
0001
0100
0001
,  // measure 48
0010
0010
0001
0010
0000
0001
0100
0000
,  // measure 49
0010
0010
0001
0010
0000
0001
0100
0001
,  // measure 50
0010
0010
0001
0010
0000
0001
0100
0000
,  // measure 51
0010
0010
0001
0010
0000
0001
0100
0000
,  // measure 52
0010
0010
0001
0010
0000
0001
0100
0000
,  // measure 53
0010
0010
0001
0010
0000
0001
0100
0001
,  // measure 54
0010
0010
0001
0010
0000
0001
0100
0000
,  // measure 55
0010
0010
0001
0010
0000
0001
0100
0001
,  // measure 56
0010
0010
0001
0010
0000
0001
0100
0000
,  // measure 57
0010
0010
0001
0010
0000
0001
0100
0001
,  // measure 58
0010
0010
0001
0010
0000
0001
0100
0000
,  // measure 59
0010
0010
0001
0010
0000
0001
0100
0001
,  // measure 60
0010
0010
0001
0010
0000
0001
0100
0000
;
