#TITLE:Spookeez;
#SUBTITLE:[B-Side Remix];
#ARTIST:JADS;
#TITLETRANSLIT:;
#SUBTITLETRANSLIT:;
#ARTISTTRANSLIT:;
#GENRE:Friday Night Funkin';
#CREDIT:;
#BANNER:Spookeez [B-Side Remix].png;
#BACKGROUND:../bg.png;
#LYRICSPATH:;
#CDTITLE:../cdtitle.png;
#MUSIC:Spookeez [B-Side Remix].ogg;
#OFFSET:1.346000;
#SAMPLESTART:5.795000;
#SAMPLELENGTH:15.000000;
#LASTBEATHINT:0.968800;
#SELECTABLE:YES;
#BPMS:0.000000=168.000000
;
#STOPS:
;
#BGCHANGES:-99.000=Spookeez [B-Side Remix].avi=1.000=0=0=1====#000000=,
-1.000=Spookeez [B-Side Remix].avi=1.000=0=0=0=StretchNoLoop====,
99999=-nosongbg-=1.000=0=0=0 // don't automatically add -songbackground-
;
#KEYSOUNDS:;
#ATTACKS:;

//---------------dance-single - FNF Hard----------------
#NOTES:
     dance-single:
     :
     Edit:
     18:
     0.793961,0.850957,0.000000,0.323643,0.636125,498.000000,498.000000,0.000000,29.000000,0.000000,0.000000,0.793961,0.850957,0.000000,0.323643,0.636125,498.000000,498.000000,0.000000,29.000000,0.000000,0.000000:
0000
0000
0000
0000
,
0000
0000
0000
0000
,
0000
0000
0000
0000
,
0000
0000
0000
0000
,
0000
0000
0000
0000
,
1000
0100
0001
0000
0010
0000
0100
0001
0010
0000
0000
0000
1000
1000
0001
0000
,
1000
0010
0001
1000
0010
0001
0100
1000
,
0001
0010
1000
0000
0100
0000
0010
1000
0100
0000
0000
0000
0001
0001
1000
0000
,
0001
0100
1000
0001
0100
1000
0010
0001
,
0001
0000
0010
1000
0100
0000
0010
1000
0100
0000
1000
0000
0001
0000
0000
0000
,
0010
0000
0000
0000
0000
0000
1000
0000
0000
1000
0000
0000
0001
0000
0000
0000
0000
0000
0001
0000
0000
0001
0000
0000
0100
0000
0000
0000
0000
0000
1000
0000
0000
0000
0000
0000
0002
0000
0000
0000
0000
0000
0000
0000
0003
0000
0000
0000
,
1000
0000
0100
0001
0010
0000
0100
0001
0010
0000
0001
0000
1000
0000
0000
0000
,
0100
0000
0000
0000
0000
0000
0001
0000
0000
0001
0000
0000
1000
0000
0000
0000
0000
0000
1000
0000
0000
1000
0000
0000
0010
0000
0000
0000
0000
0000
0001
0000
0000
0000
0000
0000
2000
0000
0000
0000
0000
0000
0010
0000
3000
0000
0000
0000
,
0001
0000
0010
1000
0100
0000
0100
0100
0100
0000
0100
0100
0000
0100
0100
0100
,
0001
0001
0010
1000
0100
0000
0100
0100
0100
0000
0000
0001
1000
0000
0010
0010
,
0001
0000
0010
1000
0100
0000
0100
0100
0100
0000
0100
0100
0000
0100
0100
0100
,
0001
0001
0010
1000
0100
0000
0100
0100
0100
0000
0000
0000
0001
0000
1000
0000
,
1000
0000
0100
0001
0010
0000
0010
0010
0010
0000
0010
0010
0000
0010
0010
0010
,
1000
1000
0100
0001
0010
0000
0010
0010
0010
0000
0000
0000
0001
0000
0100
0100
,
1000
0000
0100
0001
0010
0000
0010
0010
0010
0000
0010
0010
0000
0010
0010
0010
,
1000
1000
0100
0001
0010
0000
0010
0010
0010
0000
0000
0000
0000
0000
0000
0000
,
1000
0100
0001
0000
0010
0000
0100
0001
0010
0000
0000
0000
1000
1000
0001
0000
,
1000
0010
0001
1000
0010
0001
0100
1000
,
0001
0010
1000
0000
0100
0000
0010
1000
0100
0000
0000
0000
0001
0001
1000
0000
,
0001
0100
1000
0001
0100
1000
0010
0001
,
0001
0000
0010
1000
0100
0000
0010
1000
0100
0000
1000
0000
0001
0000
0000
0000
,
0010
0000
0000
0000
0000
0000
1000
0000
0000
1000
0000
0000
0001
0000
0000
0000
0000
0000
0001
0000
0000
0001
0000
0000
0100
0000
0000
0000
0000
0000
1000
0000
0000
0000
0000
0000
0002
0000
0000
0000
0000
0000
0000
0000
0003
0000
0000
0000
,
1000
0000
0100
0001
0010
0000
0100
0001
0010
0000
0001
0000
1000
0000
0000
0000
,
0100
0000
0000
0000
0000
0000
0001
0000
0000
0001
0000
0000
1000
0000
0000
0000
0000
0000
1000
0000
0000
1000
0000
0000
0010
0000
0000
0000
0000
0000
0001
0000
0000
0000
0000
0000
2000
0000
0000
0000
0000
0000
0010
0000
3000
0000
0000
0000
,
0001
0000
0010
1000
0100
0000
0100
0100
0100
0000
0100
0100
0000
0100
0100
0100
,
0001
0001
0010
1000
0100
0000
0100
0100
0100
0000
0000
0001
1000
0000
0010
0010
,
0001
0000
0010
1000
0100
0000
0100
0100
0100
0000
0100
0100
0000
0100
0100
0100
,
0001
0001
0010
1000
0100
0000
0100
0100
0100
0000
0000
0000
0001
0000
1000
0000
,
1000
0000
0100
0001
0010
0000
0010
0010
0010
0000
0010
0010
0000
0010
0010
0010
,
1000
1000
0100
0001
0010
0000
0010
0010
0010
0000
0000
0000
0001
0000
0100
0100
,
1000
0000
0100
0001
0010
0000
0010
0010
0010
0000
0010
0010
0000
0010
0010
0010
,
1000
1000
0100
0001
0010
0000
0010
0010
0010
0000
0000
0000
0000
0000
0000
0000
,
0002
0000
0000
0000
0000
0000
0000
0000
0000
0000
0000
0000
0000
0000
0000
0000
0000
0000
0000
0000
0000
0000
0000
0000
0000
0000
0000
0000
0000
0000
0000
0000
0003
0000
0000
0000
0000
0000
0000
0000
0000
0000
0000
0000
0000
0000
0000
0000
2000
0000
0000
0000
0000
0000
0000
0000
0000
0000
0000
0000
0000
0000
0000
0000
0000
0000
3000
0000
0000
0000
0000
0000
0200
0000
0000
0000
0000
0000
0000
0000
0000
0000
0000
0000
0000
0000
0000
0000
0000
0000
0000
0000
0000
0000
0000
0000
0000
0000
0000
0000
0000
0000
0000
0000
0300
0000
0000
0000
0000
0000
0000
0000
0000
0000
0000
0000
0000
0000
0000
0000
2000
0000
0000
0000
0000
0000
0000
0000
0000
0000
0000
0000
0000
0000
0000
0000
0000
0000
0000
0000
0000
0000
0000
0000
0000
0000
0000
0000
0000
0000
0000
0000
3000
0000
0000
0000
0000
0000
0000
0000
0000
0000
0000
0000
0000
0000
0000
0000
0002
0000
0000
0000
0000
0000
0000
0000
0000
0000
0000
0000
0000
0000
0000
0000
0000
0000
0000
0000
0000
0000
0000
0000
,
0000
0000
2003
0000
3010
0000
0010
0000
0100
0000
0100
0000
1000
0000
1000
1000
,
1000
0000
1000
0001
0000
0001
1000
0001
,
1000
0000
0000
1000
1000
0000
0001
0000
0001
0000
0001
0000
1000
0000
0001
0000
,
2000
0000
0000
0000
0000
0000
0000
0000
0000
0000
0000
0000
0000
0000
0000
0000
0000
0000
0000
0000
0000
0000
0000
0000
0000
0000
0000
0000
0000
0000
0000
0000
3000
0000
0000
0000
0000
0000
0000
0000
0000
0000
0000
0000
0000
0000
0000
0000
0002
0000
0000
0000
0000
0000
0000
0000
0000
0000
0000
0000
0000
0000
0000
0000
0000
0000
0003
0000
0000
0000
0000
0000
0020
0000
0000
0000
0000
0000
0000
0000
0000
0000
0000
0000
0000
0000
0000
0000
0000
0000
0000
0000
0000
0000
0000
0000
0000
0000
0000
0000
0000
0000
0000
0000
0030
0000
0000
0000
0000
0000
0000
0000
0000
0000
0000
0000
0000
0000
0000
0000
0002
0000
0000
0000
0000
0000
0000
0000
0000
0000
0000
0000
0000
0000
0000
0000
0000
0000
0000
0000
0000
0000
0000
0000
0000
0000
0000
0000
0000
0000
0000
0000
0003
0000
0000
0000
0000
0000
0000
0000
0000
0000
0000
0000
0000
0000
0000
0000
2000
0000
0000
0000
0000
0000
0000
0000
0000
0000
0000
0000
0000
0000
0000
0000
0000
0000
0000
0000
0000
0000
0000
0000
,
0000
0000
3002
0000
0103
0000
0100
0000
0010
0000
0010
0000
0001
0000
0001
0001
,
0001
0000
0001
1000
0000
1000
0001
1000
,
0001
0000
0000
0001
0001
0000
1000
0000
1000
0000
1000
0000
0001
0000
1000
0000
,
0001
0000
0000
0000
1000
0000
0000
0000
0100
0000
0000
0000
0001
0000
0000
0000
0001
0000
0001
0000
1000
0000
0000
0000
0200
0000
0000
0300
0010
0000
0000
0000
,
0001
0000
0000
0000
0000
0000
1000
0000
0000
0000
0000
0000
0001
0000
0000
0000
0000
0000
1000
0000
0000
0000
0000
0000
0000
0000
0000
1000
0000
0000
1000
0000
0000
0000
0000
0000
0200
0000
0000
0000
0000
0000
0000
0000
0300
0000
0000
0000
,
0001
0000
0000
0000
0001
0000
0000
0000
0010
0000
0010
0000
0001
0000
0000
0000
0000
0000
0000
0000
0001
0000
0000
0000
2000
0000
0000
3000
0010
0000
0000
0000
,
0001
1000
0100
0001
0000
1000
0100
0000
,
1000
0000
0000
0000
0001
0000
0000
0000
0010
0000
0000
0000
1000
0000
0000
0000
1000
0000
1000
0000
0001
0000
0000
0000
0020
0000
0000
0030
0100
0000
0000
0000
,
1000
0000
0000
0000
0000
0000
0001
0000
0000
0000
0000
0000
1000
0000
0000
0000
0000
0000
0001
0000
0000
0000
0000
0000
0000
0000
0000
0001
0000
0000
0001
0000
0000
0000
0000
0000
0020
0000
0000
0000
0000
0000
0000
0000
0030
0000
0000
0000
,
1000
0000
0000
0000
1000
0000
0000
0000
0100
0000
0100
0000
1000
0000
0000
0000
0000
0000
0000
0000
1000
0000
0000
0000
0002
0000
0000
0003
0100
0000
0000
0000
,
1000
0001
0010
1000
0000
0001
0010
0000
,
0001
0000
0000
0000
1000
0000
0000
0000
0100
0000
0000
0000
0001
0000
0000
0000
0001
0000
0001
0000
1000
0000
0000
0000
0200
0000
0000
0300
0010
0000
0000
0000
,
0001
0000
0000
0000
0000
0000
1000
0000
0000
0000
0000
0000
0001
0000
0000
0000
0000
0000
1000
0000
0000
0000
0000
0000
0000
0000
0000
1000
0000
0000
1000
0000
0000
0000
0000
0000
0200
0000
0000
0000
0000
0000
0000
0000
0300
0000
0000
0000
,
0001
0000
0000
0000
0001
0000
0000
0000
0010
0000
0010
0000
0001
0000
0000
0000
0000
0000
0000
0000
0001
0000
0000
0000
2000
0000
0000
3000
0010
0000
0000
0000
,
0001
1000
0100
0001
0000
1000
0100
0000
,
1000
0000
0000
0000
0001
0000
0000
0000
0010
0000
0000
0000
1000
0000
0000
0000
1000
0000
1000
0000
0001
0000
0000
0000
0020
0000
0000
0030
0100
0000
0000
0000
,
1000
0000
0000
0000
0000
0000
0001
0000
0000
0000
0000
0000
1000
0000
0000
0000
0000
0000
0001
0000
0000
0000
0000
0000
0000
0000
0000
0001
0000
0000
0001
0000
0000
0000
0000
0000
0020
0000
0000
0000
0000
0000
0000
0000
0030
0000
0000
0000
,
1000
0000
0000
0000
1000
0000
0000
0000
0100
0000
0100
0000
1000
0000
0000
0000
0000
0000
0000
0000
1000
0000
0000
0000
0002
0000
0000
0003
0100
0000
0000
0000
,
1000
0001
0010
1000
0000
0001
0020
0000
,
0030
0000
0000
0000
;

//---------------dance-single - ----------------
#NOTES:
     dance-single:
     :
     Hard:
     16:
     0.778018,0.816919,0.066961,0.267842,0.546844,488.000000,482.000000,6.000000,24.000000,0.000000,0.000000,0.778018,0.816919,0.066961,0.267842,0.546844,488.000000,482.000000,6.000000,24.000000,0.000000,0.000000:
0000
0000
0000
0000
,
0000
0000
0000
0000
,
0000
0000
0000
0000
,
0000
0000
0000
0000
,
0000
0000
0000
0000
,
0001
0010
0100
0000
0001
0000
0100
0010
0002
0000
0000
0000
0013
0100
0010
0000
,
0001
0100
0010
0010
0001
0001
0010
0010
,
1000
0100
0010
0000
1000
0000
0010
0100
1000
0000
0000
0000
0100
0010
0100
0000
,
1000
0010
0100
0100
1000
1000
0100
0010
,
1000
0000
1000
0100
0001
0000
0001
0100
1000
0000
1000
0000
0010
0000
0000
0000
,
0100
0000
0100
1000
0100
0000
0001
0010
0100
0000
0010
0000
0110
0000
0000
0000
,
0001
0000
0001
0010
1000
0000
1000
0010
0001
0000
0001
0000
0100
0000
0000
0000
,
0010
0000
0010
0001
0010
0000
1000
0100
0010
0000
0010
0000
0110
0000
1000
0000
,
0020
0000
1030
0100
1000
0000
0100
0010
0001
0000
0010
0100
0000
0010
0100
0000
,
0001
0100
0010
0000
0001
0000
0010
0100
0010
0000
0000
0010
0001
0000
0100
0010
,
0100
0000
0010
0100
1000
0000
0100
0010
0100
0000
0001
0100
0000
0001
0100
0000
,
0001
0100
0010
0000
1000
0000
0100
0010
0100
0000
0000
0000
0110
0000
0001
0000
,
0010
0000
0001
0100
0001
0000
0100
0010
1000
0000
0010
0100
0000
0010
0100
0000
,
1000
0100
0010
0000
1000
0000
0010
0100
0010
0000
0000
0000
1000
0000
0100
0010
,
0100
0000
0010
0100
0001
0000
0100
0010
0100
0000
1000
0100
0000
1000
0100
0000
,
1000
0100
0010
0000
0001
0000
0100
0010
0100
0000
0000
0000
0000
0000
0000
0000
,
0001
0010
0100
0000
0001
0000
0100
0010
0002
0000
0000
0000
0013
0100
0010
0000
,
0001
0100
0010
0010
0001
0001
0010
0010
,
1000
0100
0010
0000
1000
0000
0010
0100
1000
0000
0000
0000
0100
0010
0100
0000
,
1000
0010
0100
0100
1000
1000
0100
0010
,
1000
0000
1000
0100
0001
0000
0001
0100
1000
0000
1000
0000
0010
0000
0000
0000
,
0100
0000
0100
1000
0100
0000
0001
0010
0100
0000
0010
0000
0110
0000
0000
0000
,
0001
0000
0001
0010
1000
0000
1000
0010
0001
0000
0001
0000
0100
0000
0000
0000
,
0010
0000
0010
0001
0010
0000
1000
0100
0010
0000
0010
0000
0110
0000
1000
0000
,
0020
0000
1030
0100
1000
0000
0100
0010
0001
0000
0010
0100
0000
0010
0100
0000
,
0001
0100
0010
0000
0001
0000
0010
0100
0010
0000
0000
0010
0001
0000
0100
0010
,
0100
0000
0010
0100
1000
0000
0100
0010
0100
0000
0001
0100
0000
0001
0100
0000
,
0001
0100
0010
0000
1000
0000
0100
0010
0100
0000
0000
0000
0110
0000
0001
0000
,
0010
0000
0001
0100
0001
0000
0100
0010
1000
0000
0010
0100
0000
0010
0100
0000
,
1000
0100
0010
0000
1000
0000
0010
0100
0010
0000
0000
0000
1000
0000
0100
0010
,
0100
0000
0010
0100
0001
0000
0100
0010
0100
0000
1000
0100
0000
1000
0100
0000
,
1000
0100
0010
0000
0001
0000
0100
0010
0100
0000
0000
0000
0000
0000
0000
0000
,
0002
0000
0023
2030
0000
3002
0000
0203
,
0000
0000
1300
0000
0010
0000
0010
0000
0100
0000
0100
0000
0001
0000
1000
0001
,
1000
0000
0100
0001
0000
0100
0010
0100
,
1000
0000
0000
0100
1000
0000
0001
0000
0100
0000
0001
0000
0100
0000
0010
0000
,
2000
0000
3200
0302
0000
2003
0000
3020
,
0000
0000
0031
0000
0100
0000
0100
0000
0010
0000
0010
0000
1000
0000
0001
1000
,
0001
0000
0010
1000
0000
0010
0100
0010
,
0001
0000
0000
0010
0001
0000
1000
0000
0010
0000
1000
0000
0010
0000
0100
0000
,
0001
0000
1000
0000
0100
0000
1000
0000
0001
0100
0001
0000
1000
0000
0100
0000
,
0001
0000
0100
0000
1000
0000
0001
0000
0100
0001
0100
0000
0010
0000
0000
0000
,
0100
0000
0001
0000
0010
0100
0010
0000
0000
0000
0100
0000
1000
0000
0010
0000
,
0002
0203
2300
3002
,
1003
0000
0001
0000
0010
0000
0001
0000
1000
0010
1000
0000
0001
0000
0010
0000
,
1000
0000
0010
0000
0001
0000
1000
0000
0010
1000
0010
0000
0100
0000
0000
0000
,
0010
0000
1000
0000
0100
0010
0100
0000
0000
0000
0010
0000
0001
0000
0100
0000
,
1000
0100
0001
0010
0000
0100
2000
0000
,
3001
0000
1000
0000
0010
0000
1000
0000
0001
0010
0001
0000
1000
0000
0010
0000
,
0001
0000
0010
0000
1000
0000
0001
0000
0010
0001
0010
0000
0100
0000
0000
0000
,
0010
0000
0001
0000
0100
0010
0100
0000
0000
0000
0010
0000
1000
0000
0100
0000
,
0002
0023
2030
3002
,
1003
0000
0001
0000
0100
0000
0001
0000
1000
0100
1000
0000
0001
0000
0100
0000
,
1000
0000
0100
0000
0001
0000
1000
0000
0100
1000
0100
0000
0010
0000
0000
0000
,
0100
0000
1000
0000
0010
0100
0010
0000
0000
0000
0100
0000
0001
0000
0010
0000
,
1000
0010
0001
0100
0000
0010
2000
0000
,
3000
0000
0000
0000
;

//---------------dance-single - ----------------
#NOTES:
     dance-single:
     :
     Medium:
     13:
     0.650474,0.612689,0.044640,0.290162,0.111601,408.000000,404.000000,4.000000,26.000000,0.000000,0.000000,0.650474,0.612689,0.044640,0.290162,0.111601,408.000000,404.000000,4.000000,26.000000,0.000000,0.000000:
0000
0000
0000
0000
,
0000
0000
0000
0000
,
0000
0000
0000
0000
,
0000
0000
0000
0000
,
0000
0000
0000
0000
,
1000
0100
0010
0010
0020
0000
0130
1000
,
0010
0010
0001
0001
0100
0100
1000
0001
,
1000
0010
0100
0100
0100
0000
0010
1000
,
0100
0100
0001
0001
0010
0010
1000
0001
,
0010
1000
0010
0001
0010
1000
0001
0000
,
0100
1000
0001
1000
0100
0010
0110
0000
,
0100
0001
0100
1000
0100
0001
1000
0000
,
0010
0001
1000
0001
0010
0100
0010
0010
,
0020
0000
0031
0000
1000
0000
0100
0000
1000
0000
0001
0100
0000
0001
0100
0000
,
0001
0000
1000
0000
0010
0000
0010
0000
0010
0000
0000
0010
1000
0000
0100
0000
,
0020
0000
0031
0000
1000
0000
0100
0000
1000
0000
0001
0100
0000
0001
0100
0000
,
0001
1000
0010
0010
0010
0000
0110
0100
,
0010
0000
1000
0000
0001
0000
0010
0000
0100
0000
1000
0001
0000
1000
0001
0000
,
0010
0100
1000
1000
1000
0000
0001
0100
,
0010
0000
1000
0000
0001
0000
0010
0000
0100
0000
1000
0001
0000
1000
0001
0000
,
0010
0100
1000
1000
1000
0000
0000
0000
,
1000
0100
0010
0010
0020
0000
0130
1000
,
0010
0010
0001
0001
0100
0100
1000
0001
,
1000
0010
0100
0100
0100
0000
0010
1000
,
0100
0100
0001
0001
0010
0010
1000
0001
,
0010
1000
0010
0001
0010
1000
0001
0000
,
0100
1000
0001
1000
0100
0010
0110
0000
,
0100
0001
0100
1000
0100
0001
1000
0000
,
0010
0001
1000
0001
0010
0100
0010
0010
,
0020
0000
0031
0000
1000
0000
0100
0000
1000
0000
0001
0100
0000
0001
0100
0000
,
0001
0000
1000
0000
0010
0000
0010
0000
0010
0000
0000
0010
1000
0000
0100
0000
,
0020
0000
0031
0000
1000
0000
0100
0000
1000
0000
0001
0100
0000
0001
0100
0000
,
0001
1000
0010
0010
0010
0000
0110
0100
,
0010
0000
1000
0000
0001
0000
0010
0000
0100
0000
1000
0001
0000
1000
0001
0000
,
0010
0100
1000
1000
1000
0000
0001
0100
,
0010
0000
1000
0000
0001
0000
0010
0000
0100
0000
1000
0001
0000
1000
0001
0000
,
0010
0100
1000
1000
1000
0000
0000
0000
,
0002
0000
0203
0320
0000
2030
0000
3200
,
0000
0310
0100
0010
0100
1000
0001
0100
,
0010
0000
1000
0100
0000
1000
0001
0100
,
0010
0000
0000
1000
0100
0000
1000
0000
0100
0000
0100
0000
0010
0000
0001
0000
,
2000
0000
3200
0320
0000
0032
0000
0203
,
0000
0310
0100
0010
0100
0001
1000
0100
,
0010
0000
0001
0100
0000
0001
1000
0100
,
0010
0000
0000
0001
0100
0000
0001
0000
0100
0000
0100
0000
0010
0000
1000
0000
,
0001
0010
0100
1000
0010
0010
0001
0010
,
0100
1000
0010
0010
0001
1000
0100
0000
,
1000
0001
0100
0001
0000
1000
0100
0010
,
0200
0320
0032
2003
,
3001
0100
0010
1000
0100
0100
0001
0100
,
0010
1000
0100
0100
0001
1000
0010
0000
,
1000
0001
0010
0001
0000
1000
0010
0100
,
0010
0010
1000
0010
0000
0100
0002
0000
,
1003
0100
0010
0001
0100
0100
1000
0100
,
0010
0001
0100
0100
1000
0001
0010
0000
,
0001
1000
0010
1000
0000
0001
0010
0100
,
0020
0230
2300
3002
,
1003
0010
0100
0001
0010
0010
1000
0010
,
0100
0001
0010
0010
1000
0001
0100
0000
,
0001
1000
0100
1000
0000
0001
0100
0010
,
0100
0100
0001
0100
0000
0010
2000
0000
,
3000
0000
0000
0000
;

//---------------dance-single - ----------------
#NOTES:
     dance-single:
     :
     Easy:
     7:
     0.318860,0.340383,0.044640,0.234362,0.000000,200.000000,196.000000,4.000000,21.000000,0.000000,0.000000,0.318860,0.340383,0.044640,0.234362,0.000000,200.000000,196.000000,4.000000,21.000000,0.000000,0.000000:
0000
0000
0000
0000
,
0000
0000
0000
0000
,
0000
0000
0000
0000
,
0000
0000
0000
0000
,
0000
0000
0000
0000
,
0100
0100
0100
0000
,
0001
1000
0010
0100
,
0010
0010
0010
0000
,
1000
0001
0100
0010
,
1000
0100
0001
0000
,
0001
0100
1000
0000
,
1000
0010
0001
0000
,
0001
0010
1000
0000
,
0100
0010
0100
0100
,
0010
0100
0010
0000
,
0100
0010
0100
0100
,
0010
0100
0010
0000
,
0001
1000
0001
0001
,
1000
0001
1000
0000
,
0001
1000
0001
0001
,
1000
0001
1000
0000
,
0010
0010
0010
0000
,
1000
0001
0100
0010
,
0100
0100
0100
0000
,
0001
1000
0010
0100
,
0001
0010
1000
0000
,
1000
0010
0001
0000
,
0001
0100
1000
0000
,
1000
0100
0001
0000
,
0010
0100
0010
0010
,
0100
0010
0100
0000
,
0010
0100
0010
0010
,
0100
0010
0100
0000
,
1000
0001
1000
1000
,
0001
1000
0001
0000
,
1000
0001
1000
1000
,
0001
1000
0001
0000
,
2000
3200
0320
0032
,
0203
0320
1030
1000
,
0100
0000
0000
0010
0000
0000
0010
0000
,
0100
0000
0010
0010
,
0002
0203
0320
2030
,
3200
0320
0031
0001
,
0100
0000
0000
0010
0000
0000
0010
0000
,
0100
0000
0010
0010
,
1000
0100
0001
0001
,
0100
0010
0000
0110
,
0001
0000
1000
0000
0000
1000
0001
0000
,
0200
0320
2030
3002
,
1003
0100
0001
0001
,
0100
0010
0000
0110
,
0001
0000
1000
0000
0000
1000
0001
0000
,
0010
0000
0100
0000
0000
0010
0100
0000
,
1000
0010
0001
0001
,
0010
0100
0000
0110
,
0001
0000
1000
0000
0000
1000
0001
0000
,
0020
0230
2300
3002
,
1003
0010
0001
0001
,
0010
0100
0000
0110
,
0001
0000
1000
0000
0000
1000
0001
0000
,
0100
0000
0010
0000
0000
0100
0020
0000
,
0030
0000
0000
0000
;

//---------------dance-single - ----------------
#NOTES:
     dance-single:
     :
     Beginner:
     2:
     0.130732,0.169494,0.089281,0.089281,0.000000,82.000000,74.000000,8.000000,8.000000,0.000000,0.000000,0.130732,0.169494,0.089281,0.089281,0.000000,82.000000,74.000000,8.000000,8.000000,0.000000,0.000000:
// measure 0
0000
0000
0000
0000
,  // measure 1
0000
0000
0000
0000
,  // measure 2
0000
0000
0000
0000
,  // measure 3
0000
0000
0000
0000
,  // measure 4
0000
0000
0000
0000
,  // measure 5
0010
0000
0001
0000
,  // measure 6
0010
0000
0000
0000
,  // measure 7
0100
0000
1000
0000
,  // measure 8
0100
0000
0000
0000
,  // measure 9
0010
0000
0100
0000
,  // measure 10
0010
0000
0000
0000
,  // measure 11
0100
0000
0010
0000
,  // measure 12
0100
0000
0000
0000
,  // measure 13
1000
0000
0000
0000
,  // measure 14
1001
0000
0000
0000
,  // measure 15
1000
0000
0000
0000
,  // measure 16
1001
0000
0000
0000
,  // measure 17
0100
0000
0000
0000
,  // measure 18
0110
0000
0000
0000
,  // measure 19
0100
0000
0000
0000
,  // measure 20
0110
0000
0000
0000
,  // measure 21
1000
0000
0100
0000
,  // measure 22
1000
0000
0000
0000
,  // measure 23
0001
0000
0010
0000
,  // measure 24
0001
0000
0000
0000
,  // measure 25
1000
0000
0001
0000
,  // measure 26
1000
0000
0000
0000
,  // measure 27
0001
0000
1000
0000
,  // measure 28
0001
0000
0000
0000
,  // measure 29
0010
0000
0000
0000
,  // measure 30
0110
0000
0000
0000
,  // measure 31
0010
0000
0000
0000
,  // measure 32
0110
0000
0000
0000
,  // measure 33
0001
0000
0000
0000
,  // measure 34
1001
0000
0000
0000
,  // measure 35
0001
0000
0000
0000
,  // measure 36
1001
0000
0000
0000
,  // measure 37
0002
0000
0003
0000
,  // measure 38
0020
0000
0030
0000
,  // measure 39
0010
0000
0000
0000
,  // measure 40
0100
0000
0100
0000
,  // measure 41
2000
0000
3000
0000
,  // measure 42
0020
0000
0030
0000
,  // measure 43
0010
0000
0000
0000
,  // measure 44
0100
0000
0100
0000
,  // measure 45
0001
0000
0001
0000
,  // measure 46
0001
0000
0000
0000
,  // measure 47
0010
0000
1000
0000
,  // measure 48
0002
0000
0003
0000
,  // measure 49
1000
0000
1000
0000
,  // measure 50
1000
0000
0000
0000
,  // measure 51
0010
0000
0001
0000
,  // measure 52
2000
0000
3000
0000
,  // measure 53
0001
0000
0001
0000
,  // measure 54
0001
0000
0000
0000
,  // measure 55
0100
0000
1000
0000
,  // measure 56
0002
0000
0003
0000
,  // measure 57
1000
0000
1000
0000
,  // measure 58
1000
0000
0000
0000
,  // measure 59
0100
0000
0001
0000
,  // measure 60
2000
0000
0000
3000
;
