#VERSION:0.83;
#TITLE:Spider;
#SUBTITLE:;
#ARTIST:HOSHI;
#TITLETRANSLIT:;
#SUBTITLETRANSLIT:;
#ARTISTTRANSLIT:;
#GENRE:K-Pop;
#ORIGIN:;
#CREDIT:;
#BANNER:Spider.png;
#BACKGROUND:Spider-bg.png;
#PREVIEWVID:;
#JACKET:Spider-jacket.png;
#CDIMAGE:;
#DISCIMAGE:;
#LYRICSPATH:;
#CDTITLE:../cdtitle.png;
#MUSIC:Spider.ogg;
#OFFSET:2.387000;
#SAMPLESTART:67.418999;
#SAMPLELENGTH:15.000000;
#SELECTABLE:YES;
#BPMS:0.000=98.000;
#STOPS:;
#DELAYS:;
#WARPS:;
#TIMESIGNATURES:0.000=4=4;
#TICKCOUNTS:0.000=4;
#COMBOS:0.000=1;
#SPEEDS:0.000=1.000=0.000=0;
#SCROLLS:0.000=1.000;
#FAKES:;
#LABELS:0.000=Song Start;
#BGCHANGES:3.875=Spider.avi=1.000=0=0=0=StretchNoLoop====,
152.250=Spider.avi=1.000=0=0=1====#000000=,
99999=-nosongbg-=1.000=0=0=0 // don't automatically add -songbackground-
;
#KEYSOUNDS:;
#ATTACKS:
;

//---------------dance-single - ----------------
#NOTEDATA:;
#CHARTNAME:;
#STEPSTYPE:dance-single;
#DESCRIPTION:;
#CHARTSTYLE:;
#DIFFICULTY:Beginner;
#METER:1;
#RADARVALUES:0.050317,0.081451,0.000000,0.022014,0.000000,32.000000,32.000000,0.000000,2.000000,0.000000,0.000000,0.000000,0.000000,0.000000,0.050317,0.081451,0.000000,0.022014,0.000000,32.000000,32.000000,0.000000,2.000000,0.000000,0.000000,0.000000,0.000000,0.000000;
#CREDIT:led_light;
#NOTES:
0000
0000
0000
0000
,
0000
0000
0000
0000
,
0000
0000
0000
0000
,
0000
0000
0000
0000
,
0000
0000
0000
0000
,
0001
0000
0000
0000
,
0001
0000
0000
0000
,
1000
0000
0000
0000
,
1000
0000
0000
0000
,
0010
0000
0000
0000
,
0010
0000
0000
0000
,
0100
0000
0000
0000
,
0100
0000
0000
0000
,
0020
0000
0000
0000
,
0030
0000
0000
0000
,
0200
0000
0000
0000
,
0300
0000
0000
0000
,
0001
0000
0000
0000
,
0001
0000
0000
0000
,
0010
0000
0000
0000
,
0010
0000
0000
0000
,
0001
0000
0000
0000
,
0001
0000
0000
0000
,
0100
0000
0000
0000
,
0100
0000
0000
0000
,
0010
0000
0000
0000
,
0010
0000
0000
0000
,
1000
0000
0000
0000
,
1000
0000
0000
0000
,
0001
0000
0000
0000
,
1000
0000
0000
0000
,
0010
0000
0010
0000
,
0010
0000
0000
0000
,
1000
0000
0000
0000
,
0001
0000
0000
0000
,
0010
0000
0000
0000
,
0010
0000
0000
0000
,
0100
0000
0000
0000
;

//---------------dance-single - ----------------
#NOTEDATA:;
#CHARTNAME:;
#STEPSTYPE:dance-single;
#DESCRIPTION:;
#CHARTSTYLE:;
#DIFFICULTY:Easy;
#METER:3;
#RADARVALUES:0.130511,0.183265,0.022014,0.055035,0.000000,83.000000,81.000000,2.000000,5.000000,0.000000,0.000000,0.000000,0.000000,0.000000,0.130511,0.183265,0.022014,0.055035,0.000000,83.000000,81.000000,2.000000,5.000000,0.000000,0.000000,0.000000,0.000000,0.000000;
#CREDIT:led_light;
#NOTES:
0000
0000
0000
0000
,
0000
0000
0000
0000
,
0000
0000
0000
0000
,
0000
0000
0000
0000
,
0000
0000
0000
0000
,
0001
0010
0001
0000
,
0001
0100
0001
0000
,
1000
0100
0000
0100
,
1000
0010
0000
0010
,
0100
0000
0100
0001
,
1000
0000
0100
0010
,
0100
0000
1000
0001
,
1000
0000
1000
0001
,
0200
0000
0000
0000
,
0010
0000
0300
0000
,
0002
0000
0000
0000
,
1000
0000
0003
0000
,
0020
0000
0100
0000
,
0100
0000
0100
0030
,
2000
0000
0001
0000
,
0002
0000
3003
0000
,
0100
0000
0100
0000
,
0001
0000
1000
0100
,
0001
0000
1000
0010
,
0001
0000
0001
0100
,
0010
0000
0010
0000
,
1000
0000
0001
0010
,
1000
0000
0001
0100
,
1000
0000
0000
0000
,
0110
0000
0100
1000
,
0001
0000
0001
0100
,
0010
0010
0100
0010
,
0100
0000
0001
1000
,
1010
0000
0100
0001
,
1000
0000
1000
0100
,
0010
0000
0100
0010
,
0100
0000
1000
0001
,
0100
0000
0000
0000
;

//---------------dance-single - ----------------
#NOTEDATA:;
#CHARTNAME:;
#STEPSTYPE:dance-single;
#DESCRIPTION:;
#CHARTSTYLE:;
#DIFFICULTY:Medium;
#METER:6;
#RADARVALUES:0.229573,0.264716,0.099062,0.110069,0.000000,146.000000,137.000000,9.000000,10.000000,0.000000,0.000000,0.000000,0.000000,0.000000,0.229573,0.264716,0.099062,0.110069,0.000000,146.000000,137.000000,9.000000,10.000000,0.000000,0.000000,0.000000,0.000000,0.000000;
#CREDIT:led_light;
#NOTES:
0000
0000
0000
0000
,
0000
0000
0000
0000
,
0000
0000
0000
0000
,
0000
0000
0000
0000
,
0000
0000
0000
0000
,
0100
0001
0100
0000
0001
0000
0000
0000
,
1000
0100
1000
0000
0100
0000
0000
0000
,
1000
0001
0100
0000
0000
0000
0100
0000
,
0001
0010
0100
0000
0000
0000
0100
0000
,
1000
0000
0001
0000
1000
0000
0001
0001
,
0200
0000
0310
0000
0100
0000
1000
0100
,
0020
0000
0130
0000
0001
0000
0100
0010
,
2000
3100
1000
0001
,
2000
0000
0100
0000
,
0010
0000
3100
1000
,
0002
0000
0010
0000
,
1003
0001
0100
0010
,
2000
0100
0100
0100
,
3002
0100
0100
0103
,
0001
0000
1000
0000
0100
0010
0100
0000
,
1000
0002
2000
0000
3003
0000
0000
0000
,
0001
0101
1000
1100
,
1000
0000
0001
0000
0100
0010
1000
0000
,
0001
0000
1000
0000
0100
0010
0001
0000
,
1000
0000
0100
0000
0010
0010
0100
0000
,
1000
1010
0001
0011
,
0001
0000
1000
0000
0010
0100
0001
0000
,
1000
0000
0001
0000
0010
0100
1000
0000
,
0001
0010
0000
0110
,
0011
0000
0100
0000
0100
1000
0001
0000
,
0100
0000
1000
0000
0100
0001
1000
0000
,
0100
0000
0011
0000
0100
1000
0010
0000
,
0110
0000
0001
1000
,
1100
0000
0010
0000
0010
0001
1000
0000
,
0010
0000
0001
0000
0010
1000
0001
0000
,
0010
0100
0010
0000
0001
0000
1000
0000
,
0010
0100
0010
0000
1000
0000
0002
0000
,
0103
0000
0000
0000
;

//---------------dance-single - ----------------
#NOTEDATA:;
#CHARTNAME:;
#STEPSTYPE:dance-single;
#DESCRIPTION:;
#CHARTSTYLE:;
#DIFFICULTY:Hard;
#METER:10;
#RADARVALUES:0.355366,0.427619,0.363228,0.242152,0.159600,226.000000,193.000000,33.000000,22.000000,0.000000,0.000000,0.000000,0.000000,0.000000,0.355366,0.427619,0.363228,0.242152,0.159600,226.000000,193.000000,33.000000,22.000000,0.000000,0.000000,0.000000,0.000000,0.000000;
#CREDIT:led_light;
#NOTES:
0000
0000
0000
0000
,
0000
0000
0000
0000
,
0000
0000
0000
0000
,
0000
0000
0000
0000
,
0000
0000
0000
0000
,
1000
0100
0001
0100
1000
0000
1100
0000
,
0001
0010
1000
0010
0001
0000
0011
0000
,
1000
0010
0100
0000
0010
1000
0100
0000
,
0001
0100
1000
0000
0010
0100
0001
0000
,
1000
0000
1100
0000
0001
0000
0101
0001
,
2000
0000
0000
0000
3100
0000
0010
0000
0100
0000
1000
0100
0000
0010
0000
0001
,
1000
0000
0000
0000
1100
0000
1000
0000
0001
0000
0100
0010
0000
1000
0000
0001
,
0100
0000
0000
0000
0110
0000
0100
0000
0001
0020
0000
0030
0100
2000
0000
3000
,
2002
0003
0200
0300
,
0001
0000
0100
0000
3010
0010
0100
0010
,
2000
0000
0002
0003
,
0100
0000
0100
0000
3001
0000
0010
0100
,
0020
0000
0100
0000
0130
1000
0001
0000
,
1000
0100
0100
0000
0001
0100
1000
0000
,
0021
0000
0000
0000
0100
0000
0000
0000
0031
0000
1000
0010
0000
0020
0000
0030
,
1000
0000
0100
0010
0000
0020
0000
0000
0030
0000
0000
0000
0100
0000
0000
0000
,
1100
0000
0000
0000
0101
0000
0000
0000
1100
0000
0000
0000
0120
0000
0000
0031
,
0100
0000
0000
0000
0110
0000
0000
0000
0010
0000
1000
0000
0100
0000
1000
0001
,
0100
0000
0000
0000
0110
0000
0000
0000
0010
0000
1000
0000
0100
0000
0001
1000
,
0010
0000
0011
0000
1000
0010
0020
0030
,
0011
0000
0000
0000
1010
0000
0000
0000
0011
0000
0000
0000
0210
0000
0000
1300
,
0010
0000
0000
0000
0110
0000
0000
0000
0100
0000
0001
0000
0010
0000
0001
1000
,
0010
0000
0000
0000
0110
0000
0000
0000
0100
0000
0001
0000
0010
0000
1000
0001
,
0100
0000
1100
0000
0001
0000
0202
0303
,
0110
0000
0000
0000
1000
0000
0010
0000
0001
0000
0010
0000
1000
0000
0001
0010
,
0100
0000
0000
0000
1000
0000
0100
0000
0001
0000
0100
1000
0000
0001
0000
0100
,
0010
0000
0110
0000
1000
0100
0110
0001
,
1000
0000
1001
0000
0001
0000
2020
3030
,
0110
0000
0000
0000
0001
0000
0010
0000
1000
0000
0010
0000
0001
0000
1000
0100
,
0010
0000
0000
0000
0001
0000
0100
0000
1000
0000
0100
0001
0000
0200
0000
0310
,
1000
0000
1000
0000
0011
0000
0000
0000
1000
0000
0100
0001
0000
0200
0000
1300
,
0001
0100
0110
0010
1010
0000
2001
0000
,
3100
0000
0000
0000
;

//---------------dance-double - ----------------
#NOTEDATA:;
#CHARTNAME:;
#STEPSTYPE:dance-double;
#DESCRIPTION:;
#CHARTSTYLE:;
#DIFFICULTY:Easy;
#METER:3;
#RADARVALUES:0.127366,0.162902,0.000000,0.055035,0.000000,81.000000,81.000000,0.000000,5.000000,0.000000,0.000000,0.000000,0.000000,0.000000,0.127366,0.162902,0.000000,0.055035,0.000000,81.000000,81.000000,0.000000,5.000000,0.000000,0.000000,0.000000,0.000000,0.000000;
#CREDIT:led_light;
#NOTES:
00000000
00000000
00000000
00000000
,
00000000
00000000
00000000
00000000
,
00000000
00000000
00000000
00000000
,
00000000
00000000
00000000
00000000
,
00000000
00000000
00000000
00000000
,
00001000
00010000
00001000
00000000
,
00001000
00010000
00001000
00000000
,
00100000
00010000
00000000
00010000
,
10000000
01000000
00000000
01000000
,
10000000
00000000
10000000
00100000
,
01000000
00000000
01000000
00001000
,
00010000
00000000
00010000
00001000
,
00010000
00000000
00000100
00000010
,
00000002
00000000
00000000
00000000
,
00001000
00000000
00000003
00000000
,
00002000
00000000
00000000
00000000
,
00010000
00000000
00003000
00000000
,
00020000
00000000
10000000
00000000
,
10000000
00000000
10000000
00030000
,
20000000
00000000
00010000
00000000
,
00020000
00000000
30030000
00000000
,
10000000
00000000
10000000
00000000
,
00010000
00000000
00100000
00100000
,
00001000
00000000
00010000
00010000
,
00001000
00000000
00000100
00000010
,
00001000
00000000
00001000
00000000
,
00000001
00000000
00000010
00000010
,
00001000
00000000
00010000
00010000
,
00001000
00000000
00000000
00000000
,
00001000
00000000
00010000
01000000
,
10000000
00000000
10000000
00010000
,
01000000
01000000
00001000
00010000
,
00001000
00000000
00100000
01000000
,
00010000
00000000
00001000
00000010
,
00000001
00000000
00000001
00001000
,
00000010
00000000
00000010
00000100
,
00000010
00000000
00001000
00000100
,
00010000
00000000
00000000
00000000
;

//---------------dance-double - ----------------
#NOTEDATA:;
#CHARTNAME:;
#STEPSTYPE:dance-double;
#DESCRIPTION:;
#CHARTSTYLE:;
#DIFFICULTY:Medium;
#METER:6;
#RADARVALUES:0.226428,0.305442,0.099062,0.110069,0.000000,144.000000,135.000000,9.000000,10.000000,0.000000,0.000000,0.000000,0.000000,0.000000,0.226428,0.305442,0.099062,0.110069,0.000000,144.000000,135.000000,9.000000,10.000000,0.000000,0.000000,0.000000,0.000000,0.000000;
#CREDIT:led_light;
#NOTES:
// measure 0
00000000
00000000
00000000
00000000
,  // measure 1
00000000
00000000
00000000
00000000
,  // measure 2
00000000
00000000
00000000
00000000
,  // measure 3
00000000
00000000
00000000
00000000
,  // measure 4
00000000
00000000
00000000
00000000
,  // measure 5
00001000
00010000
00001000
00000000
00010000
00000000
00000000
00000000
,  // measure 6
00001000
00010000
00001000
00000000
00010000
00000000
00000000
00000000
,  // measure 7
00000100
00001000
00000010
00000000
00000000
00000000
00000010
00000000
,  // measure 8
01000000
00010000
00100000
00000000
00000000
00000000
00100000
00000000
,  // measure 9
00001000
00000000
00001000
00000000
00010000
00000000
00010000
00000010
,  // measure 10
00002000
00000000
00003000
00000000
00000001
00000000
00000100
00000010
,  // measure 11
00002000
00000000
00003100
00000000
00010000
00000000
00001000
00010000
,  // measure 12
00200000
01300000
00100000
10000000
,  // measure 13
00020000
00000000
01000000
00000000
,  // measure 14
00100000
00000000
10030000
00010000
,  // measure 15
00002000
00000000
00000100
00000000
,  // measure 16
00003001
00000010
00000100
00001000
,  // measure 17
00020000
01000000
01000000
01030000
,  // measure 18
00002000
00010000
00010000
00013000
,  // measure 19
00000010
00000000
00001000
00000000
00000100
00000010
00000100
00000000
,  // measure 20
00010000
00002000
00020000
00000000
00033000
00000000
00000000
00000000
,  // measure 21
00001000
00110000
10000000
01010000
,  // measure 22
00001000
00000000
00000000
00000000
00001000
00010000
00001000
00000000
,  // measure 23
00010000
00000000
00000000
00000000
00000100
00001000
00000010
00000000
,  // measure 24
00000100
00000000
00000000
00000000
00000001
00000100
00001000
00000000
,  // measure 25
00010000
00001010
00000001
00001100
,  // measure 26
00010000
00000000
00000000
00000000
00010000
00001000
00010000
00000000
,  // measure 27
00001000
00000000
00000000
00000000
01000000
00010000
00100000
00000000
,  // measure 28
01000000
00000000
10000000
11000000
,  // measure 29
00110000
00000000
10000000
01000000
00010000
01000000
10000000
00000000
,  // measure 30
00100000
00000000
01000000
00100000
00010000
00100000
01000000
00000000
,  // measure 31
00001000
00000000
00011000
00000000
00010000
00000100
00000010
00000000
,  // measure 32
00000110
00000000
00000001
00001000
,  // measure 33
00001100
00000000
00000001
00000010
00001000
00000010
00000001
00000000
,  // measure 34
00000100
00000000
00000010
00000100
00001000
00000100
00000010
00000000
,  // measure 35
00010000
00001000
00010000
00000000
00001000
00000000
00100000
00000000
,  // measure 36
01000000
00100000
01000000
00000000
10000000
00000000
00020000
00000000
,  // measure 37
01030000
00000000
00000000
00000000
;

//---------------dance-double - ----------------
#NOTEDATA:;
#CHARTNAME:;
#STEPSTYPE:dance-double;
#DESCRIPTION:;
#CHARTSTYLE:;
#DIFFICULTY:Hard;
#METER:10;
#RADARVALUES:0.353794,0.427619,0.352221,0.231145,0.159600,225.000000,193.000000,32.000000,21.000000,0.000000,0.000000,0.000000,0.000000,0.000000,0.353794,0.427619,0.352221,0.231145,0.159600,225.000000,193.000000,32.000000,21.000000,0.000000,0.000000,0.000000,0.000000,0.000000;
#CREDIT:led_light;
#NOTES:
// measure 0
00000000
00000000
00000000
00000000
,  // measure 1
00000000
00000000
00000000
00000000
,  // measure 2
00000000
00000000
00000000
00000000
,  // measure 3
00000000
00000000
00000000
00000000
,  // measure 4
00000000
00000000
00000000
00000000
,  // measure 5
00001000
00010000
01000000
00010000
00001000
00000000
00011000
00000000
,  // measure 6
00010000
00001000
00000100
00001000
00010000
00000000
00011000
00000000
,  // measure 7
00010000
00001000
00000010
00000000
00001000
00000000
00011000
00000000
,  // measure 8
00010000
01000000
10000000
00000000
10000000
00000000
00010000
00000000
,  // measure 9
00100000
00000000
00110000
00000000
00001000
00000000
00011000
00010000
,  // measure 10
00000020
00000000
00000000
00000000
00001030
00000000
00000001
00000000
00000100
00000000
00000010
00001000
00000000
00000100
00000000
00010000
,  // measure 11
00001000
00000000
00000000
00000000
00011000
00000000
00001000
00000000
00100000
00000000
00010000
01000000
00000000
00100000
00000000
10000000
,  // measure 12
01000000
00000000
00000000
00000000
00110000
00000000
01000000
00000000
10000000
00200000
00000000
00300000
01000000
00020000
00000000
00030000
,  // measure 13
00021000
00000000
00000200
00000300
,  // measure 14
00031000
00010000
00000100
00010000
00001000
00000000
00000100
00000010
,  // measure 15
00002000
00000000
00003002
00000000
,  // measure 16
00000013
00000000
00000100
00000010
00001000
00000000
00010000
00001000
,  // measure 17
00020000
00001000
00001000
00031000
,  // measure 18
00100000
00010000
10000000
00000000
01000000
00100000
00010000
00000000
,  // measure 19
20000000
00000000
00000000
00000000
31000000
00000000
10000000
00000000
00100000
00000000
01000000
00010000
00000000
00020000
00000000
00030000
,  // measure 20
00100000
00000000
00001000
00010000
00000000
00020000
00000000
00000000
00030000
00000000
00000000
00000000
00001000
00000000
00000000
00000000
,  // measure 21
00011000
00000000
00000000
00000000
00001100
00000000
00000000
00000000
00011000
00000000
00000000
00000000
00002010
00000000
00000000
00003001
,  // measure 22
00000100
00000000
00000000
00000000
00000110
00000000
00000000
00000000
00001000
00000000
00000001
00000000
00000010
00000000
00000100
00010000
,  // measure 23
00001000
00000000
00000000
00000000
00011000
00000000
00000000
00000000
00010000
00000000
00001000
00000000
01000000
00000000
00100000
10000000
,  // measure 24
00010000
00000000
01010000
00000000
10000000
01000000
00020000
00030000
,  // measure 25
00011000
00000000
00000000
00000000
00110000
00000000
00000000
00000000
00011000
00000000
00000000
00000000
01020000
00000000
00000000
10030000
,  // measure 26
00100000
00000000
00000000
00000000
01100000
00000000
00000000
00000000
00010000
00000000
10000000
00000000
01000000
00000000
00100000
00001000
,  // measure 27
00010000
00000000
00000000
00000000
00011000
00000000
00000000
00000000
00001000
00000000
00010000
00000000
00000100
00000000
00000010
00000001
,  // measure 28
00001000
00000000
00000001
00000000
00000010
00000000
00002200
00003300
,  // measure 29
00011000
00000000
00000000
00000000
00001000
00000000
00000010
00000000
00000001
00000000
00001000
00000000
00000001
00000000
00000100
00001000
,  // measure 30
00010000
00000000
00000000
00000000
00010000
00000000
00001000
00000000
00010000
00000000
01000000
00100000
00000000
01000000
00000000
10000000
,  // measure 31
00100000
00000000
01010000
00000000
00001000
00010000
00001100
00010000
,  // measure 32
00001000
00000000
00101000
00000000
00010000
00000000
02020000
03030000
,  // measure 33
00011000
00000000
00000000
00000000
00010000
00000000
01000000
00000000
10000000
00000000
00100000
00000000
10000000
00000000
01000000
00010000
,  // measure 34
00001000
00000000
00000000
00000000
00001000
00000000
00010000
00000000
00001000
00000000
00000010
00000100
00000000
00000020
00000000
00000031
,  // measure 35
00001000
00000000
00000001
00000000
00001001
00000000
00000000
00000000
00000010
00000000
00000001
00000100
00000000
00000020
00000000
00001030
,  // measure 36
00000100
00000010
00000011
00000010
00001010
00000000
00021000
00000000
,  // measure 37
01030000
00000000
00000000
00000000
;
