#TITLE:Special One;
#SUBTITLE:;
#ARTIST:kors k feat. Suzuyo Miyamoto;
#TITLETRANSLIT:;
#SUBTITLETRANSLIT:;
#ARTISTTRANSLIT:;
#GENRE:BEMANI;
#CREDIT:;
#BANNER:Special One.png;
#BACKGROUND:Special One-bg.png;
#LYRICSPATH:;
#CDTITLE:../cdtitle.png;
#MUSIC:Special One.ogg;
#OFFSET:-0.345000;
#SAMPLESTART:63.620998;
#SAMPLELENGTH:15.000000;
#SELECTABLE:YES;
#BPMS:0.000000=128.000000
;
#STOPS:
;
#BGCHANGES:-99.000=../bg.avi=1.000=0=0=1=====,
99999=-nosongbg-=1.000=0=0=0 // don't automatically add -songbackground-
;
#KEYSOUNDS:;
#ATTACKS:;

//---------------dance-single - ----------------
#NOTES:
     dance-single:
     :
     Beginner:
     2:
     0.084715,0.125637,0.070357,0.040204,0.000000,59.000000,52.000000,7.000000,4.000000,0.000000,0.000000,0.084715,0.125637,0.070357,0.040204,0.000000,59.000000,52.000000,7.000000,4.000000,0.000000,0.000000:
0000
0000
0000
0000
,
0000
0000
0000
0000
,
0000
0000
0000
0000
,
0000
0000
0000
0000
,
0000
0000
0000
0000
,
0020
0000
0000
0000
,
0030
0000
0000
0000
,
0200
0000
0000
0000
,
0300
0000
0000
0000
,
0001
0000
0000
0000
,
0010
0000
0000
0000
,
1000
0000
0000
0000
,
0100
0000
0000
0000
,
0001
0000
0000
0000
,
0100
0000
0000
0000
,
1000
0000
0000
0000
,
0010
0000
0010
0000
,
1001
0000
0000
0000
,
0100
0000
0000
0000
,
0010
0000
0000
0000
,
0001
0000
0000
0000
,
0001
0000
0000
0000
,
0100
0000
0000
0000
,
0010
0000
0000
0000
,
1000
0000
0000
0000
,
0001
0000
0001
0000
,
0001
0000
0000
0000
,
1000
0000
1000
0000
,
1000
0000
0000
0000
,
0100
0000
0100
0000
,
0100
0000
0000
0000
,
0010
0000
0010
0000
,
0010
0000
0000
0000
,
0110
0000
0000
0000
,
1001
0000
0000
0000
,
0010
0000
0000
0000
,
0100
0000
0100
0000
,
0100
0000
0000
0000
,
0110
0000
0000
0000
,
1000
0000
0000
0000
,
0001
0000
0001
0000
,
0001
0000
0000
0000
,
2002
0000
0000
0000
,
3003
0000
0000
0000
,
0010
0000
0010
0000
,
0010
0000
0000
0000
,
0110
0000
0000
0000
,
0001
0000
0000
0000
,
1000
0000
0000
0000
,
0010
0000
0010
0000
,
1001
0000
0000
0000
;

//---------------dance-single - ----------------
#NOTES:
     dance-single:
     :
     Hard:
     11:
     0.466652,0.527675,0.432191,0.140713,0.085433,325.000000,282.000000,43.000000,14.000000,0.000000,0.000000,0.466652,0.527675,0.432191,0.140713,0.085433,325.000000,282.000000,43.000000,14.000000,0.000000,0.000000:
0000
0000
0000
0000
,
0000
0000
0000
0000
,
0000
0000
0000
0000
,
0000
0000
0000
0000
,
0000
0000
0000
0000
,
2001
0100
0000
0100
,
3002
0100
0000
0100
,
2003
0010
0000
0010
,
3001
0000
0010
0000
0100
0000
1000
0001
0000
0001
1000
0000
0010
0000
0100
0000
,
0101
0000
0011
0000
1000
0001
0100
0010
,
1010
0000
1100
0000
0001
1000
0010
0100
,
0001
0010
0011
0000
1000
0010
1010
0000
,
0001
0000
0010
0000
1000
0000
0001
0000
1000
0000
0010
0000
0001
0100
0000
0010
,
1000
0000
1001
0000
0001
0010
0100
1000
,
0020
0000
0100
0000
1030
0001
1000
0100
,
0020
0000
0100
0000
0031
0100
0010
1000
,
1100
0000
0000
0000
0011
0000
0000
1000
0010
0000
0100
0000
0001
0000
0010
0000
,
1001
0000
0010
0000
0100
0001
1000
0000
,
0001
0010
1000
0010
0002
0000
1003
0000
,
0001
0100
0010
0000
1000
0100
0010
0000
,
0001
0010
0100
1000
0020
0000
0130
0000
,
1001
0000
0100
0000
0010
0001
1000
0000
,
0001
0100
1000
0100
0002
0000
1003
0000
,
0001
0010
0100
0000
1000
0010
0100
0000
,
0001
0100
0010
1000
0100
0010
0100
1000
,
1001
0000
0000
0000
0011
0000
0000
0000
1100
0000
0000
0001
0000
0000
0110
0000
,
0000
1000
0001
0100
0010
0100
0001
1000
,
1001
0000
0000
0000
1100
0000
0000
0000
0011
0000
0000
1000
0000
0000
0110
0000
,
0000
0001
1000
0010
0100
0010
1000
0001
,
0011
0000
0000
0000
1100
0000
0000
0000
1010
0000
0000
0110
0000
0000
1001
0000
,
0000
0001
0010
0100
0100
0010
0001
1000
,
0010
0000
0100
0000
0001
0000
1000
0001
0000
0001
1000
0000
0100
0000
0010
0000
,
0011
0000
0000
1001
0000
0000
1010
0000
0120
0000
0000
0000
0130
0000
0000
0000
,
2002
0000
0000
0000
3003
0000
1000
0100
,
0011
1000
0010
0001
0010
0000
1000
0010
,
0101
1000
0100
0001
0100
0000
1000
0001
,
0100
0000
0000
0010
0100
0000
0001
0000
1000
0000
0000
0100
0010
0000
0100
0000
,
1000
0001
0100
0010
0010
1000
0001
0010
,
1100
0001
0100
1000
0100
0000
0001
0100
,
1010
0001
0010
1000
0010
0000
0001
1000
,
0010
0000
0000
0100
0010
0000
1000
0000
0001
0000
0010
0000
0100
0000
0010
0000
,
0001
1000
0010
0100
0100
0001
1000
0001
,
2001
0000
0100
0000
3001
0100
0010
0000
,
1010
0000
1100
0000
1000
0100
0010
0000
,
0001
0100
0101
0000
1000
0100
1100
0000
,
0001
0000
0100
0000
1000
0000
0001
0000
1000
0000
0100
0000
0001
0010
0000
0100
,
1000
0000
1001
0000
0001
0100
0010
1000
,
0200
0000
0010
0000
1300
0001
1000
0010
,
0200
0000
0010
0000
0301
0010
0100
1000
,
1010
0000
0000
0000
0101
0000
0000
1000
0100
0000
0010
0000
0001
0000
0100
0000
,
1001
0000
0000
0000
;

//---------------dance-single - ----------------
#NOTES:
     dance-single:
     :
     Easy:
     5:
     0.203891,0.251274,0.180917,0.070357,0.000000,142.000000,124.000000,18.000000,7.000000,0.000000,0.000000,0.203891,0.251274,0.180917,0.070357,0.000000,142.000000,124.000000,18.000000,7.000000,0.000000,0.000000:
0000
0000
0000
0000
,
0000
0000
0000
0000
,
0000
0000
0000
0000
,
0000
0000
0000
0000
,
0000
0000
0000
0000
,
2000
0000
0000
3000
,
0002
0000
0000
0003
,
0020
0000
0000
0030
,
0100
1000
0001
0010
,
1001
0010
0100
0000
,
0001
0010
0100
0000
,
1000
0010
0001
0000
,
1000
0100
0001
0010
,
1001
0010
0001
0000
,
0001
0010
1000
0000
,
1000
0100
0001
0000
,
0100
1000
0010
0001
,
1001
0000
0100
0000
,
0001
1000
0010
0000
,
1000
0001
0010
0000
,
0100
1000
0001
1000
,
1001
0000
0010
0000
,
1000
0001
0100
0000
,
0001
1000
0100
0000
,
0010
0001
1000
0001
,
1001
0000
1100
0000
,
0011
0000
0000
0000
,
1001
0000
0101
0000
,
1010
0000
0000
0000
,
1001
0000
0110
0000
,
1001
0000
0000
0000
,
0100
0000
0010
0000
,
0001
1000
2002
3003
,
0110
0000
0000
0000
,
0100
0001
0010
0000
,
0100
1000
0010
0000
,
0100
0001
0010
1000
,
0010
0010
0100
0000
,
0010
0001
0100
0000
,
0010
1000
0100
0000
,
0010
0001
0100
1000
,
0100
0100
0010
0100
,
2002
0000
0000
3003
,
0001
0010
0100
0000
,
1000
0010
0001
0000
,
1000
0100
0001
0010
,
1001
0010
0001
0000
,
0001
0010
1000
0000
,
1000
0100
0001
0000
,
0100
1000
0010
0001
,
1001
0000
0000
0000
;

//---------------dance-single - ----------------
#NOTES:
     dance-single:
     :
     Medium:
     8:
     0.320195,0.376911,0.281427,0.170866,0.020102,223.000000,195.000000,28.000000,17.000000,0.000000,0.000000,0.320195,0.376911,0.281427,0.170866,0.020102,223.000000,195.000000,28.000000,17.000000,0.000000,0.000000:
0000
0000
0000
0000
,
0000
0000
0000
0000
,
0000
0000
0000
0000
,
0000
0000
0000
0000
,
0000
0000
0000
0000
,
2000
0000
0010
0000
,
3002
0000
0010
0000
,
2003
0000
0100
0000
,
3001
0100
0010
1000
,
1001
0100
0010
0001
,
0110
0100
1000
0001
,
1000
0010
0001
0010
,
1000
0100
0001
0100
,
1001
0010
0100
0001
,
0110
0010
1000
0001
,
1000
0100
0010
0001
,
0101
1100
1010
0011
,
1001
0000
0010
0000
0100
0001
0010
0000
,
0100
1000
0010
0000
0002
0000
0013
0000
,
1000
0001
0010
0000
1000
0010
0001
0000
,
1000
0010
0001
0000
0020
0000
1030
0000
,
1001
0000
0010
0000
0100
1000
0010
0000
,
0100
0001
0010
0000
2000
0000
3010
0000
,
0001
1000
0010
0000
0001
0010
1000
0000
,
0001
0010
1000
0000
0020
0000
0031
0000
,
1001
0000
0000
0000
0010
0000
0000
0000
1001
0000
0000
0100
0000
0000
0010
0000
,
0000
0000
0100
0000
1000
0010
0001
0000
,
0110
0000
0000
0000
0001
0000
0000
0000
0110
0000
0000
1000
0000
0000
0001
0000
,
0000
0000
0010
0000
0100
1000
0001
0000
,
1001
0000
0000
0000
0100
0000
0000
0000
1001
0000
0000
0010
0000
0000
0110
0000
,
0000
0000
0001
0000
1000
0100
0010
0000
,
0001
0100
1000
0000
1000
0100
0001
0000
,
1000
0000
0000
0001
0000
0000
1000
0000
2002
0000
0000
0000
3003
0000
0000
0000
,
0110
0000
0000
0010
,
0001
0100
1000
0000
0200
0000
0310
0000
,
1000
0100
0001
0000
0200
0000
0310
0000
,
0001
1000
0010
0000
1000
0001
0010
0000
,
0100
1000
0010
0000
0200
0000
0310
0000
,
1000
0100
0001
0000
0200
0000
0310
0000
,
0001
0100
1000
0000
0200
0000
0310
0000
,
1000
0001
0010
0000
0001
1000
0010
0000
,
0100
0001
0010
0000
0200
0000
0310
0000
,
2002
0000
0000
3003
,
0110
0100
0001
1000
,
0001
0010
1000
0010
,
0001
0100
1000
0100
,
1001
0010
0100
1000
,
0110
0010
0001
1000
,
0001
0100
0010
1000
,
1100
0101
0011
1010
,
1001
0000
0000
0000
;

//---------------dance-single - ----------------
#NOTES:
     dance-single:
     :
     Challenge:
     14:
     0.680593,0.703567,0.502548,0.160815,0.598032,474.000000,424.000000,50.000000,16.000000,0.000000,0.000000,0.680593,0.703567,0.502548,0.160815,0.598032,474.000000,424.000000,50.000000,16.000000,0.000000,0.000000:
0000
0000
0000
0000
,
0000
0000
0000
0000
,
0000
0000
0000
0000
,
0000
0000
0000
0000
,
0000
0000
0000
0000
0000
0000
0000
0100
,
2001
0000
0100
0000
3010
0100
0001
0020
,
1000
0000
0100
0000
0031
1000
0010
0100
,
0002
1000
0100
0010
,
1003
0010
0100
0010
1000
0000
0001
0010
0000
0100
0010
0001
1000
0010
0100
0000
,
0101
0000
0010
0000
1010
0000
0001
0000
1001
0000
1000
0100
0010
0000
0001
0000
,
0011
0000
0100
0000
1100
0000
0001
0000
1001
0000
1000
0010
0100
0000
0001
0000
,
1000
0100
1100
0010
0001
0100
0101
0010
,
1000
0100
0010
0100
1000
0001
0010
0100
0010
0001
1000
0010
0100
0001
0000
0001
,
2000
0000
3001
0000
1001
0000
0100
0010
0001
1000
0000
1000
0010
0100
0000
0100
,
0002
0000
1000
0000
1003
0000
0010
0000
0100
0001
1000
0100
0010
0001
0010
0100
,
2000
0000
0001
0000
3001
0000
1000
0010
0100
0000
0001
0000
0010
0000
0100
0000
,
1100
0000
0001
0000
0101
0000
0010
1000
0001
0010
0100
0000
0011
1000
0010
0000
,
1001
0000
0100
0000
0110
0000
0001
0000
1000
0000
0100
0010
0000
0010
0001
0100
,
0010
0000
0100
0001
0000
1000
0000
0001
1000
0000
0100
0000
1100
0000
1000
0000
,
0001
0000
1000
0010
0000
0100
0000
0100
0001
0000
1000
0000
0100
0000
0001
0100
,
1000
0000
0001
0010
0000
1000
0000
0010
0002
0000
1000
0000
2003
0000
3001
0000
,
1001
0000
0100
0000
0110
0000
1000
0000
0001
0000
0100
0010
0000
0010
1000
0100
,
0010
0000
0100
1000
0000
0001
0000
1000
0001
0000
0100
0000
0101
0000
0001
0000
,
1000
0000
0001
0010
0000
0100
0000
0100
1000
0000
0001
0000
0100
0000
1000
0100
,
0001
0000
1000
0010
0000
0001
0000
0010
2000
0000
0001
0000
3002
0000
1003
0000
,
1010
0000
0100
0000
0101
0000
0001
0000
1001
0000
0000
1010
0000
0000
0011
0000
,
0000
0000
1000
0000
0100
0000
0010
0100
1000
0000
0010
0000
0100
0000
0001
0000
,
0101
0000
0010
0000
1010
0000
1000
0000
1001
0000
0000
0101
0000
0000
1100
0000
,
0000
0000
0001
0000
0010
0000
0100
0010
0001
0000
0100
0000
0010
0000
1000
0000
,
1001
0000
0100
0000
0110
0000
0010
0000
1001
0000
0000
0110
0000
0000
1001
0000
,
0000
0000
0001
0000
1000
0000
0100
0010
0001
0000
0010
0000
0100
0000
1000
0000
,
0001
0000
0100
0000
0010
0000
0100
0001
0000
0010
0100
0000
1000
0000
0001
0000
,
0011
0000
0000
1100
0000
0000
0110
0000
2001
0000
0001
0000
3001
0010
0100
0010
,
0001
1000
0000
1000
0000
1000
0000
0001
0100
0000
0010
0000
1001
0001
1000
0000
,
0110
0000
0001
1000
0000
0010
0000
1000
0001
0000
0010
0000
0100
0000
1000
0000
,
0010
0000
1000
0001
0000
0100
0000
0001
1000
0000
0100
0000
0010
0000
0001
0000
,
1000
0000
0010
0100
0000
0100
0001
0000
0010
0000
0100
1000
0000
1000
0001
0000
,
1000
0000
0010
0100
0000
0001
0000
0100
0010
0000
1000
0000
0001
0000
0010
0000
,
0110
0000
1000
0001
0000
0100
0000
0001
1000
0000
0100
0000
0010
0000
0001
0000
,
0100
0000
0001
1000
0000
0010
0000
1000
0001
0000
0010
0000
0100
0000
1000
0000
,
0001
0000
0100
0010
0000
0010
1000
0000
0100
0000
0010
0000
0001
0000
1000
0000
,
0001
0100
0010
0000
1000
0000
0010
0100
0001
1000
0100
0000
0010
0001
1000
0000
,
1020
0000
0100
0000
0100
0000
1000
0000
1030
0000
0001
0010
0100
0000
1000
0000
,
1200
0000
0010
0000
0010
0000
1000
0000
1300
0000
0001
0100
0010
0000
1000
0000
,
0001
0010
0011
0100
1000
0010
1010
0100
,
0001
0010
0100
0010
0001
1000
0100
0010
0100
1000
0001
0100
0010
1000
0000
1000
,
0002
0000
1003
0000
1001
0000
0010
0100
1000
0001
0000
0001
0100
0010
0000
0010
,
2000
0000
0001
0000
3001
0000
0100
0000
0010
1000
0001
0010
0100
1000
0100
0010
,
0002
0000
1000
0000
1003
0000
0001
0100
0010
0000
1000
0000
0100
0000
0010
0000
,
0011
0000
1000
0000
1010
0000
0100
0001
1000
0100
0010
0000
1100
0001
0100
0000
,
1001
0000
0000
0000
;

//---------------dance-single - DanceEvolution (Single)----------------
#NOTES:
     dance-single:
     :
     Edit:
     7:
     0.249838,0.376911,0.110561,0.391987,0.000000,174.000000,163.000000,11.000000,39.000000,56.000000,0.000000,0.249838,0.376911,0.110561,0.391987,0.000000,174.000000,163.000000,11.000000,39.000000,56.000000,0.000000:
// measure 0
0000
0000
0000
0000
,  // measure 1
0000
0000
0000
0000
,  // measure 2
0000
0000
0000
0000
,  // measure 3
0000
0000
0000
0000
,  // measure 4
0000
0000
0000
0000
,  // measure 5
0000
0001
0000
0001
,  // measure 6
0000
1000
0000
1000
,  // measure 7
0000
0001
0000
0001
,  // measure 8
2002
3003
MMMM
MMMM
,  // measure 9
0010
1000
0100
0000
0010
0001
0100
0000
,  // measure 10
0010
1000
0001
0000
0010
0001
1000
0000
,  // measure 11
0001
1000
0001
0001
,  // measure 12
1000
0001
1000
1000
,  // measure 13
0010
1000
0100
0000
0010
0001
0100
0000
,  // measure 14
0010
1000
0001
0000
0010
0001
1000
0000
,  // measure 15
2002
0000
0000
3003
,  // measure 16
0010
0001
0100
1000
,  // measure 17
0002
0000
0003
0000
0001
0010
2000
0000
,  // measure 18
0002
3003
MMMM
MMMM
,  // measure 19
0002
0100
2003
0100
,  // measure 20
3002
0000
1003
1000
,  // measure 21
0010
0010
0002
0000
0000
0003
0010
0000
,  // measure 22
1000
0100
2000
3000
,  // measure 23
0002
0010
2003
0100
,  // measure 24
3002
0000
0000
0000
1003
0001
1000
0000
,  // measure 25
0002
0103
2000
3100
,  // measure 26
MMMM
0100
0110
0000
MMMM
0100
0110
0000
,  // measure 27
0002
0103
2000
3100
,  // measure 28
MMMM
0001
0100
0000
MMMM
1000
0100
0000
,  // measure 29
0002
0003
2000
3000
,  // measure 30
0002
0103
2000
3100
,  // measure 31
0002
1003
0002
0103
,  // measure 32
1000
0001
2000
3000
,  // measure 33
0100
0100
0100
0100
0100
0000
1001
0000
,  // measure 34
0101
1100
0002
0103
,  // measure 35
1100
0101
2000
3100
,  // measure 36
0200
0001
0320
1000
,  // measure 37
0032
0003
MMMM
MMMM
,  // measure 38
1000
0020
0002
0000
0003
0000
1030
0000
,  // measure 39
0100
0100
2000
3000
,  // measure 40
0002
0100
2003
0100
,  // measure 41
3001
1000
0001
1000
,  // measure 42
0002
0000
0000
1003
,  // measure 43
0002
0000
0000
1003
,  // measure 44
0001
0000
0100
0001
1000
0000
0100
1000
,  // measure 45
0001
0000
0100
0001
1000
0000
0100
0000
,  // measure 46
2000
3000
1001
MMMM
,  // measure 47
0010
1000
0100
0000
0010
0001
0100
0000
,  // measure 48
1000
MMMM
0100
MMMM
,  // measure 49
0001
1000
1001
MMMM
,  // measure 50
0010
0000
0000
0000
;
