#TITLE:South;
#SUBTITLE:;
#ARTIST:Kawai Sprite;
#TITLETRANSLIT:;
#SUBTITLETRANSLIT:;
#ARTISTTRANSLIT:;
#GENRE:Friday Night Funkin';
#CREDIT:;
#BANNER:South.png;
#BACKGROUND:../bg.png;
#LYRICSPATH:;
#CDTITLE:../cdtitle.png;
#MUSIC:South.ogg;
#OFFSET:1.454000;
#SAMPLESTART:11.636000;
#SAMPLELENGTH:15.000000;
#LASTBEATHINT:1.248500;
#SELECTABLE:YES;
#BPMS:0.000000=165.000000
;
#STOPS:
;
#BGCHANGES: -1.000=South.avi=1.000=0=0=0=StretchNoLoop====,
99999=-nosongbg-=1.000=0=0=0 // don't automatically add -songbackground-
;
#KEYSOUNDS:;
#ATTACKS:;

//---------------dance-single - ----------------
#NOTES:
     dance-single:
     :
     Hard:
     13:
     0.563526,0.618752,0.135246,0.067623,0.078894,350.000000,338.000000,12.000000,6.000000,0.000000,0.000000,0.563526,0.618752,0.135246,0.067623,0.078894,350.000000,338.000000,12.000000,6.000000,0.000000,0.000000:
0000
0000
0000
0000
,
0000
0000
0000
0000
,
0000
0000
0000
0000
,
0000
0000
0000
0000
,
0000
0000
0000
0000
,
0000
0000
0000
0000
,
0000
0000
0000
0000
,
0000
0000
0000
0000
,
0000
0000
0000
0000
,
0100
0000
0100
0000
1001
1000
0100
0010
,
0001
0000
0001
0000
1000
0100
1000
0000
,
0001
0000
0001
0000
0100
0001
1000
0010
,
0100
0000
0100
0000
0110
0000
1000
0001
,
0010
0000
0010
0000
1001
0001
0100
0010
,
1000
0000
1000
0000
0001
0100
0001
0000
,
1000
0000
1000
0000
0100
1000
0001
0010
,
0100
0000
0100
0000
0110
0000
0001
1000
,
0010
0000
0100
0000
0001
0000
0100
0010
0100
0000
0010
0000
1000
0000
0001
0000
,
0010
0000
0010
0000
0110
0100
1000
0001
,
1000
0000
0000
0000
0001
0000
0001
0100
0001
0000
1000
0000
0010
0000
0100
0000
,
0010
0000
0010
0000
1001
0001
0010
0100
,
0010
0000
0100
0000
1000
0000
0100
0010
0100
0000
0010
0000
0001
0000
1000
0000
,
0010
0000
0010
0000
0110
0100
0001
1000
,
0001
0000
0000
0000
1000
0000
1000
0100
1000
0000
0001
0000
0010
0000
0100
0000
,
0010
0000
0010
0000
1001
1000
0010
0100
,
0001
0010
1000
0001
0100
1000
0001
0010
,
1000
0001
0100
1000
0100
0010
0100
0000
,
1000
0010
0001
1000
0100
0001
1000
0010
,
0001
0000
0010
0100
0010
0010
0010
0000
,
1000
0100
0001
1000
0010
0001
1000
0100
,
0001
1000
0010
0001
0010
0100
0010
0000
,
0001
0100
1000
0001
0010
1000
0001
0100
,
1000
0000
0100
0010
0100
0100
0100
0000
,
0001
0000
0000
0001
1000
0000
0001
0000
1000
0000
0100
0000
1000
0000
0001
0000
,
0100
0001
1000
0010
0100
0001
2000
0000
,
3100
0010
0001
0000
1000
0000
0001
0000
0010
0000
0001
0000
0010
0100
0010
0000
,
0001
0000
1000
0001
0100
0010
2000
3000
,
1000
0000
0000
1000
0001
0000
1000
0000
0001
0000
0010
0000
0001
0000
1000
0000
,
0010
1000
0001
0100
0010
1000
0002
0000
,
0013
0100
1000
0000
0001
0000
1000
0000
0100
0000
1000
0000
0100
0010
0100
0000
,
1000
0000
0001
1000
0010
0100
0001
0001
,
0010
0000
0010
0100
0010
0001
0100
0010
,
1000
0000
1000
0000
0011
0001
0001
0000
,
1000
0000
1000
0100
0001
0001
0100
1000
,
0010
0000
0010
0000
0110
0100
1000
0100
,
0010
0000
0010
0100
0010
1000
0100
0010
,
0001
0000
0001
0000
1010
1000
1000
0000
,
0001
0000
0001
0100
1000
1000
0100
0001
,
0010
0000
0010
0000
0210
0000
0301
0100
,
0010
0000
0100
0000
1000
0000
0100
0010
0100
0000
0010
0000
0001
0000
1000
0000
,
0010
0000
0010
0100
0010
0100
0001
1000
,
0001
0000
0000
0000
1000
0000
1000
0100
1000
0000
0001
0000
0010
0000
0100
0000
,
0010
1000
0010
0001
1000
0010
0001
0010
,
0100
0000
0010
0000
1000
0000
0010
0100
0010
0000
0100
0000
0001
0000
1000
0000
,
0100
0000
0100
0010
0100
0010
0001
1000
,
0001
0000
0000
0000
1000
0000
1000
0010
1000
0000
0001
0000
0100
0000
0010
0000
,
0100
1000
0100
0001
1000
0100
0001
0100
,
2000
0000
0000
0000
,
0000
0000
0000
3000
,
0020
0000
0000
0000
,
0000
0000
0000
0000
,
0030
0000
0000
0000
;

//---------------dance-single - ----------------
#NOTES:
     dance-single:
     :
     Medium:
     10:
     0.420230,0.481252,0.078894,0.022541,0.000000,261.000000,254.000000,7.000000,2.000000,0.000000,0.000000,0.420230,0.481252,0.078894,0.022541,0.000000,261.000000,254.000000,7.000000,2.000000,0.000000,0.000000:
0000
0000
0000
0000
,
0000
0000
0000
0000
,
0000
0000
0000
0000
,
0000
0000
0000
0000
,
0000
0000
0000
0000
,
0000
0000
0000
0000
,
0000
0000
0000
0000
,
0000
0000
0000
0000
,
0000
0000
0000
0000
,
1000
0000
1000
0000
0100
0001
0100
0000
,
1000
0000
1000
0000
0100
0001
0100
0000
,
1000
0000
1000
0000
0010
1000
0010
0000
,
0100
0000
0100
0000
1001
0000
0001
0010
,
0001
0000
0001
0000
0010
1000
0010
0000
,
0001
0000
0001
0000
0010
1000
0010
0000
,
0001
0000
0001
0000
0100
0001
0100
0000
,
0010
0000
0010
0000
1001
0000
1000
0100
,
0010
0010
0010
0000
0001
0100
0010
0000
,
1000
0000
1000
0000
0100
0010
0100
0000
,
1000
0000
1000
0000
0001
0100
0010
0000
,
1000
0000
1000
0000
0010
0100
0010
0000
,
0100
0100
0100
0000
0001
0010
0100
0000
,
1000
0000
1000
0000
0010
0100
0010
0000
,
1000
0000
1000
0000
0001
0010
0100
0000
,
1000
0000
1000
0000
0100
0010
0100
0000
,
1000
0000
0010
0100
0000
1000
0100
0000
,
0010
1000
0000
0100
0010
0000
0110
0000
,
0001
0000
0100
0010
0000
0001
0010
0000
,
0100
0000
0010
0100
0010
0000
0010
0000
,
1000
0000
0100
0010
0000
1000
0010
0000
,
0100
1000
0000
0010
0100
0000
0110
0000
,
0001
0000
0010
0100
0000
0001
0100
0000
,
0010
0000
0100
0010
0100
0000
0100
0000
,
1000
0000
1001
0000
0001
0100
0001
0000
,
0100
0010
0100
0000
0010
1000
0010
0000
,
1000
1000
0100
0000
0001
0001
0100
0000
,
1000
0000
1000
0000
0100
0010
0001
0000
,
1000
0000
1001
0000
0001
0010
0001
0000
,
0010
0100
0010
0000
0100
1000
0100
0000
,
1000
1000
0010
0000
0001
0001
0010
0000
,
1000
0000
1000
0000
0010
0100
0001
1000
,
0001
0000
0001
0000
0010
1000
0010
0000
,
0001
0000
0001
0000
0010
1000
0010
0000
,
0001
0000
0001
0000
0100
0001
0100
0000
,
0010
0000
0010
0000
0100
0001
1000
0100
,
1000
0000
1000
0000
0100
0001
0100
0000
,
1000
0000
1000
0000
0100
0001
0100
0000
,
1000
0000
1000
0000
0010
1000
0010
0000
,
0100
0000
0100
0000
1001
0000
0001
0010
,
0100
0100
0100
0000
1000
0100
0010
0000
,
0001
0000
0001
0000
0010
0100
0010
0000
,
0001
0000
0001
0000
0100
0010
1000
0000
,
0001
0001
0010
0000
0100
0100
1000
0000
,
0010
0010
0010
0000
1000
0010
0100
0000
,
0001
0000
0001
0000
0100
0010
0100
0000
,
0001
0000
0001
0000
0010
0100
1000
0000
,
0001
0001
0100
0000
0010
0010
1000
0000
,
0002
0000
0000
0000
,
0000
0000
0000
0003
,
2000
0000
0000
0000
,
0000
0000
0000
0000
,
3000
0000
0000
0000
;

//---------------dance-single - ----------------
#NOTES:
     dance-single:
     :
     Easy:
     6:
     0.317185,0.412501,0.315575,0.022541,0.000000,197.000000,169.000000,28.000000,2.000000,0.000000,0.000000,0.317185,0.412501,0.315575,0.022541,0.000000,197.000000,169.000000,28.000000,2.000000,0.000000,0.000000:
0000
0000
0000
0000
,
0000
0000
0000
0000
,
0000
0000
0000
0000
,
0000
0000
0000
0000
,
0000
0000
0000
0000
,
0000
0000
0000
0000
,
0000
0000
0000
0000
,
0000
0000
0000
0000
,
0000
0000
0000
0000
,
0100
0100
1001
0100
,
0010
0010
0110
0000
,
0001
0001
1100
0000
,
1000
1000
0011
0000
,
1000
1000
0110
1000
,
0001
0001
1001
0000
,
0100
0100
1010
0000
,
0010
0010
0101
0000
,
0001
0010
1000
0010
,
0001
0001
0011
0000
,
1000
0100
0001
0100
,
1000
1000
1100
0000
,
0010
0001
0100
0001
,
0010
0010
0011
0000
,
0100
1000
0010
1000
,
0100
0100
1100
0000
,
1000
0010
0100
0010
,
1000
0010
0100
0000
,
0001
0010
1000
0010
,
0001
0000
0010
0010
,
0001
0100
0010
0100
,
0001
0100
0010
0000
,
1000
0100
0001
0100
,
1000
0000
0100
0100
,
1000
1000
0001
0001
,
0100
0001
0100
1001
,
0010
0010
1000
1000
,
0001
0000
0001
1100
,
0001
0001
1000
1000
,
0010
1000
0010
1001
,
0100
0100
0001
0001
,
1000
0000
1000
0011
,
0100
0100
1001
0100
,
0010
0010
0110
0000
,
0001
0001
1100
0000
,
1000
1000
0011
0000
,
1000
1000
0110
1000
,
0001
0001
1001
0000
,
0100
0100
1010
0000
,
0010
0010
0101
0000
,
0001
0010
1000
0010
,
0001
0001
0011
0000
,
1000
0100
0001
0100
,
1000
1000
1100
0000
,
0010
0001
0100
0001
,
0010
0010
0011
0000
,
0100
1000
0010
1000
,
0100
0100
1100
0001
,
2000
0000
0000
0000
,
0000
0000
0000
3000
,
0020
0000
0000
0000
,
0000
0000
0000
0000
,
0030
0000
0000
0000
;

//---------------dance-single - ----------------
#NOTES:
     dance-single:
     :
     Beginner:
     2:
     0.106265,0.160605,0.056353,0.000000,0.000000,66.000000,61.000000,5.000000,0.000000,0.000000,0.000000,0.106265,0.160605,0.056353,0.000000,0.000000,66.000000,61.000000,5.000000,0.000000,0.000000,0.000000:
0000
0000
0000
0000
,
0000
0000
0000
0000
,
0000
0000
0000
0000
,
0000
0000
0000
0000
,
0000
0000
0000
0000
,
0000
0000
0000
0000
,
0000
0000
0000
0000
,
0000
0000
0000
0000
,
0000
0000
0000
0000
,
0110
0000
0000
0000
,
0000
0000
0000
0000
,
0100
0000
0000
0000
,
0100
0000
0000
0000
,
1001
0000
0000
0000
,
0000
0000
0000
0000
,
0010
0000
0000
0000
,
0010
0000
0000
0000
,
0001
0000
0010
0000
,
0001
0000
0000
0000
,
0001
0000
0100
0000
,
0001
0000
0000
0000
,
1000
0000
0100
0000
,
1000
0000
0000
0000
,
1000
0000
0010
0000
,
1000
0000
0000
0000
,
0001
0000
0001
0000
,
0001
0000
0001
0000
,
1000
0000
1000
0000
,
1000
0000
0010
0000
,
1000
0000
1000
0000
,
1000
0000
1000
0000
,
0001
0000
0001
0000
,
0001
0000
0010
0000
,
0100
0000
0000
0000
,
0100
0000
0000
0000
,
0010
0000
0000
0000
,
0010
0000
0000
0000
,
0001
0000
0000
0000
,
0001
0000
0000
0000
,
1000
0000
0000
0000
,
1000
0000
0000
0000
,
0110
0000
0000
0000
,
0000
0000
0000
0000
,
0100
0000
0000
0000
,
0100
0000
0000
0000
,
1001
0000
0000
0000
,
0000
0000
0000
0000
,
0010
0000
0000
0000
,
0010
0000
0000
0000
,
0001
0000
0010
0000
,
0001
0000
0000
0000
,
0001
0000
0100
0000
,
0001
0000
0000
0000
,
1000
0000
0100
0000
,
1000
0000
0000
0000
,
1000
0000
0010
0000
,
1000
0000
0000
0000
,
1001
0000
0000
0000
;

//---------------dance-single - FNF Hard----------------
#NOTES:
     dance-single:
     :
     Edit:
     13:
     0.553866,0.641011,0.000000,0.067623,0.101435,344.000000,344.000000,0.000000,6.000000,0.000000,0.000000,0.553866,0.641011,0.000000,0.067623,0.101435,344.000000,344.000000,0.000000,6.000000,0.000000,0.000000:
// measure 0
0000
0000
0000
0000
,  // measure 1
0000
0000
0000
0000
,  // measure 2
0000
0000
0000
0000
,  // measure 3
0000
0000
0000
0000
,  // measure 4
0000
0000
0000
0000
,  // measure 5
0000
0000
0000
0000
,  // measure 6
0000
0000
0000
0000
,  // measure 7
0000
0000
0000
0000
,  // measure 8
0000
0000
0000
0000
,  // measure 9
0001
0000
0001
0000
1000
0001
0010
0001
,  // measure 10
1000
0000
0000
0000
0000
0000
0000
0000
0100
0000
0000
0000
0000
0000
0000
0000
0001
0000
0000
0000
0001
0000
0000
0000
0002
0003
0000
0000
0000
0000
0000
0000
,  // measure 11
0001
0000
0001
0000
0001
0010
1000
0100
,  // measure 12
1000
0000
1000
0000
0010
0000
1000
0001
,  // measure 13
0001
0000
0001
0000
1000
0001
0010
0001
,  // measure 14
1000
0000
0000
0000
0000
0000
0000
0000
0100
0000
0000
0000
0000
0000
0000
0000
0001
0000
0000
0000
0001
0000
0000
0000
0002
0003
0000
0000
0000
0000
0000
0000
,  // measure 15
0001
0000
0001
0000
0001
0010
1000
0100
,  // measure 16
1000
0000
1000
0000
0010
0000
1000
0001
,  // measure 17
0010
0000
0100
0000
1000
0000
1000
0001
0010
0000
1000
0000
0010
0000
0100
0000
,  // measure 18
0010
0000
0010
0000
0010
0100
1000
0001
,  // measure 19
1000
0000
0000
0000
1000
0000
1000
0010
0001
0000
1000
0000
0100
0000
0001
0000
,  // measure 20
0010
0000
0010
0000
0010
0001
1000
0100
,  // measure 21
0010
0000
0100
0000
1000
0000
1000
0001
0010
0000
1000
0000
0010
0000
0100
0000
,  // measure 22
0010
0000
0010
0000
0010
0100
1000
0001
,  // measure 23
1000
0000
0000
0000
1000
0000
1000
0010
0001
0000
1000
0000
0100
0000
0001
0000
,  // measure 24
0010
0000
0010
0000
0010
0001
1000
0100
,  // measure 25
0010
0001
1000
0010
0001
1000
0010
0001
,  // measure 26
1000
0010
0001
1000
1000
0001
1000
0000
,  // measure 27
0010
0001
1000
0010
0001
1000
0010
0001
,  // measure 28
1000
0000
0100
0100
0001
0000
1000
0000
0001
0000
1000
0000
0001
0000
0000
0000
,  // measure 29
0010
0001
1000
0010
0001
1000
0010
0001
,  // measure 30
1000
0010
0001
1000
1000
0001
1000
0000
,  // measure 31
0010
0001
1000
0010
0001
1000
0010
0001
,  // measure 32
1000
0000
0100
0100
0001
0000
1000
0000
0001
0000
1000
0000
0001
0000
0000
0000
,  // measure 33
1000
0000
0000
0001
0100
0000
1000
0000
0001
0000
0100
0000
0010
0000
0001
0000
,  // measure 34
1000
0010
0001
1000
0001
0010
1000
0000
,  // measure 35
1000
0001
0010
0000
0001
0000
1000
0000
0010
0000
0001
0000
1000
0001
0010
0000
,  // measure 36
0100
0000
0100
0100
1000
0000
0001
0000
0010
0000
0001
0000
1000
0000
0000
0000
,  // measure 37
1000
0000
0000
0001
0100
0000
1000
0000
0001
0000
0100
0000
0010
0000
0001
0000
,  // measure 38
1000
0010
0001
1000
0001
0010
1000
0000
,  // measure 39
1000
0001
0010
0000
0001
0000
1000
0000
0010
0000
0001
0000
1000
0001
0010
0000
,  // measure 40
0100
0000
0100
0100
1000
0000
0001
0000
0010
0000
0001
0000
1000
0000
0001
0000
,  // measure 41
0001
0000
0001
0100
0010
1000
0100
0001
,  // measure 42
2000
0000
0000
0000
3000
0000
0000
0000
0010
0000
0000
0000
0000
0000
0000
0000
0010
0000
0000
0000
0010
0000
0000
0000
0020
0030
0000
0000
0000
0000
0000
0000
,  // measure 43
0010
0000
0010
0001
0100
1000
0001
1000
,  // measure 44
1000
0000
1000
0000
1000
0001
0100
0001
,  // measure 45
0001
0000
0001
0100
0010
1000
0100
0001
,  // measure 46
2000
0000
0000
0000
3000
0000
0000
0000
0010
0000
0000
0000
0000
0000
0000
0000
0010
0000
0000
0000
0010
0000
0000
0000
0020
0030
0000
0000
0000
0000
0000
0000
,  // measure 47
0010
0000
0010
0001
0100
1000
0001
1000
,  // measure 48
1000
0000
1000
0000
0010
0000
1000
0001
,  // measure 49
0010
0000
0001
0000
1000
0000
0001
0010
1000
0000
0001
0000
0010
0000
0001
0000
,  // measure 50
0010
0000
0010
1000
0010
0001
1000
0010
,  // measure 51
1000
0000
0000
0000
1000
0000
1000
0001
0010
0000
0001
0000
0010
0000
1000
0000
,  // measure 52
0010
0001
0010
1000
0100
0001
1000
0001
,  // measure 53
0010
0000
0001
0000
1000
0000
0001
0010
1000
0000
0001
0000
0010
0000
0001
0000
,  // measure 54
0010
0000
0010
1000
0010
0001
1000
0010
,  // measure 55
1000
0000
0000
0000
1000
0000
1000
0001
0010
0000
0001
0000
0010
0000
1000
0000
,  // measure 56
0010
0001
0010
1000
0100
0001
1000
0001
;
