#VERSION:0.83;
#TITLE:South;
#SUBTITLE:[B-Side Remix];
#ARTIST:Rozebud;
#TITLETRANSLIT:;
#SUBTITLETRANSLIT:;
#ARTISTTRANSLIT:;
#GENRE:Friday Night Funkin';
#ORIGIN:;
#CREDIT:;
#BANNER:South [B-Side Remix].png;
#BACKGROUND:../bg.png;
#PREVIEWVID:;
#JACKET:South [B-Side Remix]-jacket.png;
#CDIMAGE:;
#DISCIMAGE:;
#LYRICSPATH:;
#CDTITLE:../cdtitle.png;
#MUSIC:South [B-Side Remix].ogg;
#OFFSET:1.274000;
#SAMPLESTART:20.899000;
#SAMPLELENGTH:15.000000;
#SELECTABLE:YES;
#BPMS:0.000=184.000;
#STOPS:;
#DELAYS:;
#WARPS:;
#TIMESIGNATURES:0.000=4=4;
#TICKCOUNTS:0.000=4;
#COMBOS:0.000=1;
#SPEEDS:0.000=1.000=0.000=0;
#SCROLLS:0.000=1.000;
#FAKES:;
#LABELS:0.000=Song Start;
#BGCHANGES: -1.000=South [B-Side Remix].avi=1.000=0=0=0=StretchNoLoop====,
99999=-nosongbg-=1.000=0=0=0 // don't automatically add -songbackground-
;
#KEYSOUNDS:;
#ATTACKS:
;

//---------------dance-single - FNF Hard----------------
#NOTEDATA:;
#CHARTNAME:;
#STEPSTYPE:dance-single;
#DESCRIPTION:FNF Hard;
#CHARTSTYLE:;
#DIFFICULTY:Edit;
#METER:15;
#RADARVALUES:0.637493,0.816024,0.000000,0.479343,0.239671,391.000000,391.000000,0.000000,42.000000,0.000000,0.000000,0.000000,0.000000,0.000000,0.637493,0.816024,0.000000,0.479343,0.239671,391.000000,391.000000,0.000000,42.000000,0.000000,0.000000,0.000000,0.000000,0.000000;
#CREDIT:led_light (FNF Hard);
#NOTES:
0000
0000
0000
0000
,
0000
0000
0000
0000
,
0000
0000
0000
0000
,
0000
0000
0000
0000
,
0000
0000
0000
0000
,
0000
0000
0000
0000
,
0000
0000
0000
0000
,
0000
0000
0000
0000
,
0000
0000
0000
0000
,
0100
0100
0000
0000
,
0000
0000
0000
0000
,
0010
0010
0000
0000
,
0000
0000
0000
0000
,
0100
0100
0000
0000
,
0000
0000
0000
0000
,
0010
0010
0000
0000
,
0010
0000
0000
0010
0010
0000
0000
0010
,
0010
0000
0000
0000
0000
0000
0000
0000
0020
0030
0000
0000
1000
0000
0000
0000
1000
0000
0000
0000
0010
0000
0000
0000
0001
0000
0000
0000
0100
0000
0000
0000
,
0001
0000
0000
0000
0000
0000
1000
0000
0000
0000
0000
0000
0001
0000
0000
1000
0000
0000
2000
0000
0000
0000
3000
0000
,
1000
0000
0000
1000
0000
0000
1000
0000
0000
0000
0000
0000
2000
0000
0000
0000
0000
0000
0000
0000
3000
0000
0000
0000
0100
0000
0000
0000
0000
0000
0001
0000
0000
0000
0000
0000
1000
0000
0000
0000
0000
0000
0010
0000
0000
1000
0000
0000
,
0020
0000
0000
0000
0000
0000
0000
0000
0000
0000
0000
0000
0000
0000
0000
0000
0000
0000
0000
0000
0000
0000
0000
0000
0000
0000
0000
0000
0000
0000
0000
0000
0030
0000
0000
0000
0000
0000
0000
0000
0000
0000
0000
0000
0000
0000
0000
0000
0020
0000
0000
0000
0000
0000
0000
0000
0000
0000
0000
0000
0000
0000
0000
0000
0000
0000
0000
0000
0000
0000
0000
0000
0000
0000
0000
0000
0000
0000
0000
0000
0030
0000
0000
0000
0000
0000
0000
0000
0000
0000
0000
0000
0000
0000
0000
0000
0002
0000
0000
0000
0000
0000
0000
0000
0000
0000
0000
0000
0000
0000
0000
0000
0000
0000
0000
0000
0000
0000
0000
0000
0000
0000
0000
0000
0000
0000
0000
0000
0003
0000
0000
0000
0000
0000
0000
0000
0000
0000
0000
0000
0000
0000
0000
0000
0100
0000
0000
0000
0000
0000
0000
0000
0000
0000
0000
0000
0000
0000
0000
0000
0000
0000
0000
0000
0000
0000
0000
0000
2000
0000
0000
0000
0000
0000
3000
0000
0000
0000
0000
0000
0000
0000
0000
0000
0000
0000
0000
0000
0000
0000
0000
0000
,
0100
0000
0000
0000
0000
0000
0000
0000
0200
0300
0000
0000
0001
0000
0000
0000
0001
0000
0000
0000
0100
0000
0000
0000
1000
0000
0000
0000
0010
0000
0000
0000
,
1000
0000
0000
0000
0000
0000
0001
0000
0000
0000
0000
0000
1000
0000
0000
0001
0000
0000
0002
0000
0000
0000
0003
0000
,
0001
0000
0000
0001
0000
0000
0001
0000
0000
0000
0000
0000
0002
0000
0000
0000
0000
0000
0000
0000
0003
0000
0000
0000
0010
0000
0000
0000
0000
0000
1000
0000
0000
0000
0000
0000
0001
0000
0000
0000
0000
0000
0100
0000
0000
0001
0000
0000
,
0200
0000
0000
0000
0000
0000
0000
0000
0000
0000
0000
0000
0000
0000
0000
0000
0000
0000
0000
0000
0000
0000
0000
0000
0000
0000
0000
0000
0000
0000
0000
0000
0300
0000
0000
0000
0000
0000
0000
0000
0000
0000
0000
0000
0000
0000
0000
0000
0200
0000
0000
0000
0000
0000
0000
0000
0000
0000
0000
0000
0000
0000
0000
0000
0000
0000
0000
0000
0000
0000
0000
0000
0000
0000
0000
0000
0000
0000
0000
0000
0300
0000
0000
0000
0000
0000
0000
0000
0000
0000
0000
0000
0000
0000
0000
0000
2000
0000
0000
0000
0000
0000
0000
0000
0000
0000
0000
0000
0000
0000
0000
0000
0000
0000
0000
0000
0000
0000
0000
0000
0000
0000
0000
0000
0000
0000
0000
0000
3000
0000
0000
0000
0000
0000
0000
0000
0000
0000
0000
0000
0000
0000
0000
0000
0010
0000
0000
0000
0000
0000
0000
0000
0000
0000
0000
0000
0000
0000
0000
0000
0000
0000
0000
0000
0000
0000
0000
0000
0002
0000
0000
0000
0000
0000
0003
0000
0000
0000
0000
0000
0000
0000
0000
0000
0000
0000
0000
0000
0000
0000
0000
0000
,
0001
0000
0010
0000
1000
0000
1000
0100
0010
0000
0001
0000
0010
0000
1000
0000
,
0001
0000
0000
0000
0001
0000
0000
0000
0001
1000
0001
0000
0001
0000
0000
0000
,
1000
0000
0100
0000
0010
0000
1000
0010
0001
0000
0010
0000
0100
0000
1000
0000
,
0100
0000
0000
0000
0100
0000
0000
0000
0100
0000
0000
0000
0002
0003
0000
0000
0010
0000
0000
0000
1000
0000
1000
0000
0010
0000
0000
0000
0100
0000
0000
0000
,
1000
0000
0100
0000
0001
0000
0001
0010
0100
0000
1000
0000
0100
0000
0001
0000
,
1000
0000
0000
0000
1000
0000
0000
0000
1000
0001
1000
0000
1000
0000
0000
0000
,
0001
0000
0010
0000
0100
0000
0001
0100
1000
0000
0100
0000
0010
0000
0001
0000
,
0010
0000
0000
0000
0010
0000
0000
0000
0010
0000
0000
0000
2000
3000
0000
0000
0100
0000
0000
0000
0001
0000
0001
0000
0100
0000
0000
0000
0010
0000
0000
0000
,
0010
0001
1000
0010
0001
1000
0010
0001
,
1000
0000
0000
0010
0000
0000
0001
0000
0000
1000
0000
0000
1000
0000
0000
0001
0000
0000
2000
0000
0000
0000
3000
0000
,
0010
0001
1000
0010
0001
1000
0010
0001
,
1000
0000
0000
0000
1000
0000
0100
0000
0001
0000
0000
0000
1000
0000
0000
0000
0010
0000
0000
0000
0001
0000
0000
0000
0200
0300
0000
0000
1000
0000
0000
0000
,
0100
1000
0001
0100
1000
0001
0100
1000
,
0001
0000
0000
0100
0000
0000
1000
0000
0000
0001
0000
0000
0001
0000
0000
1000
0000
0000
0002
0000
0000
0000
0003
0000
,
0100
1000
0001
0100
1000
0001
0100
1000
,
0001
0000
0000
0000
0001
0000
0010
0000
1000
0000
0000
0000
0001
0000
0000
0000
0100
0000
0000
0000
1000
0000
0000
0000
0020
0030
0000
0000
0001
0000
0000
0000
,
2000
0000
0000
0000
0000
0000
0000
0000
3000
0001
0000
0000
1000
0000
0000
0000
0000
0000
0010
0000
0000
0000
0000
0000
0010
0000
0000
0000
0000
0000
0100
0000
0000
0000
0000
0000
1000
0000
0000
0001
0000
0000
0100
0000
0000
0000
0000
0000
,
0010
0000
0000
0000
1000
0000
0000
0000
0100
0000
0100
0000
0010
0000
0000
0000
0010
0000
0000
0000
0001
0000
0000
0000
2000
3000
0000
0000
0100
0000
0000
0000
,
0010
0001
1000
0000
0100
0000
0001
0000
0010
0001
1000
0000
0010
0001
1000
0000
,
1000
0000
0000
0000
1000
0000
0010
0000
0100
0000
0010
0000
0001
0000
0000
0000
0010
0000
0000
0000
0010
0000
0000
0000
2000
3000
0000
0000
0001
0000
0000
0000
,
0002
0000
0000
0000
0000
0000
0000
0000
0003
1000
0000
0000
0001
0000
0000
0000
0000
0000
0100
0000
0000
0000
0000
0000
0100
0000
0000
0000
0000
0000
0010
0000
0000
0000
0000
0000
0001
0000
0000
1000
0000
0000
0010
0000
0000
0000
0000
0000
,
0100
0000
0000
0000
0001
0000
0000
0000
0010
0000
0010
0000
0100
0000
0000
0000
0100
0000
0000
0000
1000
0000
0000
0000
0002
0003
0000
0000
0010
0000
0000
0000
,
0100
1000
0001
0000
0010
0000
1000
0000
0100
1000
0001
0000
0100
1000
0001
0000
,
0001
0000
0000
0000
0001
0000
0100
0000
0010
0000
0100
0000
1000
0000
0000
0000
0100
0000
0000
0000
0100
0000
0000
0000
0002
0003
0000
0000
1000
0000
0000
0000
,
0010
0000
0000
0000
0000
0000
0000
0000
0020
0030
0000
0000
1000
0000
0000
0000
1000
0000
0000
0000
0010
0000
0000
0000
0001
0000
0000
0000
0100
0000
0000
0000
,
0001
0000
0000
0000
0000
0000
1000
0000
0000
0000
0000
0000
0001
0000
0000
1000
0000
0000
2000
0000
0000
0000
3000
0000
,
1000
0000
0000
1000
0000
0000
1000
0000
0000
0000
0000
0000
2000
0000
0000
0000
0000
0000
0000
0000
3000
0000
0000
0000
0100
0000
0000
0000
0000
0000
0001
0000
0000
0000
0000
0000
1000
0000
0000
0000
0000
0000
0010
0000
0000
1000
0000
0000
,
0020
0000
0000
0000
0000
0000
0000
0000
0000
0000
0000
0000
0000
0000
0000
0000
0000
0000
0000
0000
0000
0000
0000
0000
0000
0000
0000
0000
0000
0000
0000
0000
0030
0000
0000
0000
0000
0000
0000
0000
0000
0000
0000
0000
0000
0000
0000
0000
0020
0000
0000
0000
0000
0000
0000
0000
0000
0000
0000
0000
0000
0000
0000
0000
0000
0000
0000
0000
0000
0000
0000
0000
0000
0000
0000
0000
0000
0000
0000
0000
0030
0000
0000
0000
0000
0000
0000
0000
0000
0000
0000
0000
0000
0000
0000
0000
0002
0000
0000
0000
0000
0000
0000
0000
0000
0000
0000
0000
0000
0000
0000
0000
0000
0000
0000
0000
0000
0000
0000
0000
0000
0000
0000
0000
0000
0000
0000
0000
0003
0000
0000
0000
0000
0000
0000
0000
0000
0000
0000
0000
0000
0000
0000
0000
0100
0000
0000
0000
0000
0000
0000
0000
0000
0000
0000
0000
0000
0000
0000
0000
0000
0000
0000
0000
0000
0000
0000
0000
2000
0000
0000
0000
0000
0000
3000
0000
0000
0000
0000
0000
0000
0000
0000
0000
0000
0000
0000
0000
0000
0000
0000
0000
,
0100
0000
0000
0000
0000
0000
0000
0000
0200
0300
0000
0000
0001
0000
0000
0000
0001
0000
0000
0000
0100
0000
0000
0000
1000
0000
0000
0000
0010
0000
0000
0000
,
1000
0000
0000
0000
0000
0000
0001
0000
0000
0000
0000
0000
1000
0000
0000
0001
0000
0000
0002
0000
0000
0000
0003
0000
,
0001
0000
0000
0001
0000
0000
0001
0000
0000
0000
0000
0000
0002
0000
0000
0000
0000
0000
0000
0000
0003
0000
0000
0000
0010
0000
0000
0000
0000
0000
1000
0000
0000
0000
0000
0000
0001
0000
0000
0000
0000
0000
0100
0000
0000
0001
0000
0000
,
0200
0000
0000
0000
0000
0000
0000
0000
0000
0000
0000
0000
0000
0000
0000
0000
0000
0000
0000
0000
0000
0000
0000
0000
0000
0000
0000
0000
0000
0000
0000
0000
0300
0000
0000
0000
0000
0000
0000
0000
0000
0000
0000
0000
0000
0000
0000
0000
0200
0000
0000
0000
0000
0000
0000
0000
0000
0000
0000
0000
0000
0000
0000
0000
0000
0000
0000
0000
0000
0000
0000
0000
0000
0000
0000
0000
0000
0000
0000
0000
0300
0000
0000
0000
0000
0000
0000
0000
0000
0000
0000
0000
0000
0000
0000
0000
2000
0000
0000
0000
0000
0000
0000
0000
0000
0000
0000
0000
0000
0000
0000
0000
0000
0000
0000
0000
0000
0000
0000
0000
0000
0000
0000
0000
0000
0000
0000
0000
3000
0000
0000
0000
0000
0000
0000
0000
0000
0000
0000
0000
0000
0000
0000
0000
0010
0000
0000
0000
0000
0000
0000
0000
0000
0000
0000
0000
0000
0000
0000
0000
0000
0000
0000
0000
0000
0000
0000
0000
0002
0000
0000
0000
0000
0000
0003
0000
0000
0000
0000
0000
0000
0000
0000
0000
0000
0000
0000
0000
0000
0000
0000
0000
,
0001
0000
0010
0000
1000
0000
1000
0100
0010
0000
0001
0000
0010
0000
1000
0000
,
0001
0000
0000
0000
0001
0000
0000
0000
0001
1000
0001
0000
0001
0000
0000
0000
,
1000
0000
0100
0000
0010
0000
1000
0010
0001
0000
0010
0000
0100
0000
1000
0000
,
0100
0000
0000
0000
0100
0000
0000
0000
0100
0000
0000
0000
0002
0003
0000
0000
0010
0000
0000
0000
1000
0000
1000
0000
0010
0000
0000
0000
0100
0000
0000
0000
,
1000
0000
0100
0000
0001
0000
0001
0010
0100
0000
1000
0000
0100
0000
0001
0000
,
1000
0000
0000
0000
1000
0000
0000
0000
1000
0001
1000
0000
1000
0000
0000
0000
,
0001
0000
0010
0000
0100
0000
0001
0100
1000
0000
0100
0000
0010
0000
0001
0000
,
0010
0000
0000
0000
0010
0000
0000
0000
0010
0000
0000
0000
2000
3000
0000
0000
0100
0000
0000
0000
0001
0000
0001
0000
0100
0000
0000
0000
0010
0000
0000
0000
,
0001
0000
0000
0000
;

//---------------dance-single - ----------------
#NOTEDATA:;
#CHARTNAME:;
#STEPSTYPE:dance-single;
#DESCRIPTION:;
#CHARTSTYLE:;
#DIFFICULTY:Hard;
#METER:13;
#RADARVALUES:0.533146,0.667656,0.159781,0.114129,0.034239,327.000000,313.000000,14.000000,10.000000,0.000000,0.000000,0.000000,0.000000,0.000000,0.533146,0.667656,0.159781,0.114129,0.034239,327.000000,313.000000,14.000000,10.000000,0.000000,0.000000,0.000000,0.000000,0.000000;
#CREDIT:led_light;
#NOTES:
0000
0000
0000
0000
,
0000
0000
0000
0000
,
0000
0000
0000
0000
,
0000
0000
0000
0000
,
0000
0000
0000
0000
,
0000
0000
0000
0000
,
0000
0000
0000
0000
,
0000
0000
0000
0000
,
0000
0000
0000
0000
,
0110
0100
0000
0000
,
0000
0000
0000
0000
,
0011
0001
0000
0000
,
0000
0000
0000
0000
,
1100
1000
0000
0000
,
0000
0000
0000
0000
,
0110
0010
0000
0000
,
1000
0000
0000
0100
0010
0000
0000
0100
,
0010
0000
0010
0100
0001
0100
1000
0001
,
1000
0000
1000
0000
1010
1000
0010
0000
,
0100
0100
0100
0000
0010
0010
1000
0001
,
0100
0000
0100
0000
0110
0000
1000
0001
,
0010
0000
0010
0000
1000
0010
0001
1000
,
0001
0000
0001
0000
0101
0001
0100
0000
,
0010
0010
0010
0000
0100
0100
0001
1000
,
0010
0000
0010
0000
0110
0000
1000
0001
,
0010
0100
0010
0100
1000
0100
0010
0001
,
0100
0000
0100
0000
0110
0001
0010
0000
,
0001
0100
0001
0100
0010
1000
0100
0010
,
0100
1000
0100
1000
0001
0010
0100
1000
,
0010
0100
0010
0100
0001
0100
0010
1000
,
0100
0000
0100
0000
0110
1000
0010
0000
,
1000
0100
1000
0100
0010
0001
0100
0010
,
0100
0001
0100
0001
1000
0010
0100
0001
,
1000
0100
0001
0100
1000
0010
1000
0100
,
0001
0100
1000
0010
0100
0010
2000
0000
,
3001
0010
1000
0010
0001
1000
0001
0010
,
1000
0000
0010
0100
0010
0100
0020
0000
,
0031
0100
1000
0100
0001
0010
0001
0100
,
1000
0100
0001
0010
0100
0010
0002
0000
,
1003
0010
0001
0010
1000
0001
1000
0010
,
0001
0000
0010
0100
0010
0100
0020
0000
,
1030
0000
0000
0100
0010
0000
0100
0000
0010
0000
0001
0000
0010
0000
0001
0000
,
1000
0010
1000
0010
0100
0010
2000
3000
,
0001
0010
0001
0000
0010
0000
0100
0000
1000
0000
0100
0000
1000
0001
1000
0000
,
0001
0000
0001
0100
0010
0001
0010
0100
,
0001
0000
0000
0010
0100
0000
0010
0000
0100
0000
1000
0000
0100
0000
1000
0000
,
0001
0100
0001
0100
0010
0100
0002
0003
,
1000
0100
1000
0000
0100
0000
0010
0000
0001
0000
0010
0000
0001
1000
0001
0000
,
1000
0000
1000
0010
0100
1000
0100
0010
,
2000
0000
0100
0000
,
0000
0000
0100
3000
,
0102
0000
0010
0000
,
0000
0000
0000
0000
0013
0100
1000
0001
,
2000
0000
0010
0000
,
0000
0000
0010
3000
,
0012
0000
0100
0000
,
0000
0000
0103
0000
,
0010
0100
0010
0100
0001
0100
0010
1000
,
0100
0000
0100
0000
0110
1000
0010
0000
,
1000
0100
1000
0100
0010
0001
0100
0010
,
0100
0001
0100
0001
1000
0010
0100
0001
,
0010
0100
0010
0100
1000
0100
0010
0001
,
0100
0000
0100
0000
0110
0001
0010
0000
,
0001
0100
0001
0100
0010
1000
0100
0010
,
0100
1000
0100
1000
0001
0010
0100
1000
,
0001
0000
0000
0000
;

//---------------dance-single - ----------------
#NOTEDATA:;
#CHARTNAME:;
#STEPSTYPE:dance-single;
#DESCRIPTION:;
#CHARTSTYLE:;
#DIFFICULTY:Medium;
#METER:10;
#RADARVALUES:0.399452,0.519288,0.136955,0.045652,0.000000,245.000000,233.000000,12.000000,4.000000,0.000000,0.000000,0.000000,0.000000,0.000000,0.399452,0.519288,0.136955,0.045652,0.000000,245.000000,233.000000,12.000000,4.000000,0.000000,0.000000,0.000000,0.000000,0.000000;
#CREDIT:led_light;
#NOTES:
0000
0000
0000
0000
,
0000
0000
0000
0000
,
0000
0000
0000
0000
,
0000
0000
0000
0000
,
0000
0000
0000
0000
,
0000
0000
0000
0000
,
0000
0000
0000
0000
,
0000
0000
0000
0000
,
0000
0000
0000
0000
,
0010
0010
0000
0000
,
0000
0000
0000
0000
,
0001
0001
0000
0000
,
0000
0000
0000
0000
,
0010
0010
0000
0000
,
0000
0000
0000
0000
,
1000
1000
0000
0000
,
0001
0000
0000
0100
0010
0000
0000
0100
,
0010
0000
1000
0010
1000
0000
0100
0000
,
0001
0000
0001
0000
0100
0010
0100
0000
,
1000
0100
1000
0000
0010
0100
0010
0000
,
1000
0000
1000
0000
0011
0000
0010
0100
,
0010
0000
0010
0000
0001
0100
0001
0000
,
0100
0000
0100
0000
0010
0100
0010
0000
,
1000
0010
1000
0000
0100
0010
0100
0000
,
1000
0000
1000
0000
0101
0000
0100
0010
,
1000
0010
1000
0000
0100
0010
0001
0000
,
0010
0000
0010
0000
0100
1000
0001
0000
,
1000
0100
0010
0000
0001
0010
0001
0000
,
0100
0010
0100
0000
0110
0000
0000
0000
,
0001
0100
0001
0000
0010
0100
1000
0000
,
0100
0000
0100
0000
0010
0001
1000
0000
,
0001
0010
0100
0000
1000
0100
1000
0000
,
0010
0100
0010
0000
0110
0000
0001
0000
,
1000
0000
0100
0010
0000
0100
1000
0000
,
0010
0100
0000
0010
1000
0000
1001
0000
,
0001
0000
0010
0100
0000
0010
0001
0000
,
1000
0000
0001
0100
0001
0000
0100
0000
,
0001
0000
0010
0100
0000
0010
0001
0000
,
0100
0010
0000
0100
0001
0000
1001
0000
,
1000
0000
0100
0010
0000
0100
1000
0000
,
0001
0000
1000
0010
1000
0000
0010
0000
,
0110
0000
0000
0000
0001
1000
0100
0000
,
1000
0001
0010
0000
0110
0000
0000
0000
,
0100
1000
0100
0000
0010
0001
0100
0000
,
0001
0100
1010
0000
,
0110
0000
0000
0000
1000
0001
0010
0000
,
0001
1000
0100
0000
0110
0000
0000
0000
,
0010
0001
0010
0000
0100
1000
0010
0000
,
1000
0000
0010
0000
0100
0001
1000
0100
,
2000
0000
0001
0000
,
0000
0000
3001
0000
,
0002
0000
0100
0000
,
0000
0000
0000
0000
0013
0100
0010
0000
,
0002
0000
1000
0000
,
0000
0000
1003
0000
,
2000
0000
0100
0000
,
0000
0000
3010
0000
,
1000
0100
1000
0000
0010
0100
0001
0000
,
0100
0000
0100
0000
0010
1000
0001
0000
,
1000
0010
0100
0000
0001
0100
0001
0000
,
0010
0100
0010
0000
0110
0000
0000
0000
,
0001
0010
0001
0000
0100
0010
1000
0000
,
0010
0000
0010
0000
0100
0001
1000
0000
,
0001
0100
0010
0000
1000
0010
1000
0000
,
0100
0010
0100
0000
0100
0010
0001
0000
,
1000
0000
0000
0000
;

//---------------dance-single - ----------------
#NOTEDATA:;
#CHARTNAME:;
#STEPSTYPE:dance-single;
#DESCRIPTION:;
#CHARTSTYLE:;
#DIFFICULTY:Easy;
#METER:6;
#RADARVALUES:0.288584,0.408012,0.251084,0.045652,0.000000,177.000000,155.000000,22.000000,4.000000,0.000000,0.000000,0.000000,0.000000,0.000000,0.288584,0.408012,0.251084,0.045652,0.000000,177.000000,155.000000,22.000000,4.000000,0.000000,0.000000,0.000000,0.000000,0.000000;
#CREDIT:led_light;
#NOTES:
0000
0000
0000
0000
,
0000
0000
0000
0000
,
0000
0000
0000
0000
,
0000
0000
0000
0000
,
0000
0000
0000
0000
,
0000
0000
0000
0000
,
0000
0000
0000
0000
,
0000
0000
0000
0000
,
0000
0000
0000
0000
,
0100
0100
0000
0000
,
0000
0000
0000
0000
,
0010
0010
0000
0000
,
0000
0000
0000
0000
,
0100
0100
0000
0000
,
0000
0000
0000
0000
,
0010
0010
0000
0000
,
0010
0000
0010
0000
,
0010
0000
0110
0000
,
0001
0100
1010
0000
,
0010
0000
0011
0000
,
0001
0001
0110
1000
,
0100
0000
0110
0000
,
1000
0010
0101
0000
,
0100
0000
1100
0000
,
1000
1000
0110
0001
,
0010
1000
0001
1000
,
0010
0010
0011
0000
,
0001
0001
0100
1000
,
0001
1000
1100
0000
,
0100
1000
0001
1000
,
0100
0100
0101
0000
,
0001
0001
0010
1000
,
0001
1000
1010
0001
,
1000
0100
0001
0100
,
1000
0100
0001
0000
,
1000
0010
0001
0010
,
1000
0000
0110
0000
,
0001
0010
1000
0010
,
0001
0010
1000
0000
,
0001
0100
1000
0100
,
0001
0000
0110
0000
,
0001
0000
1000
1000
,
0001
0100
0011
0000
,
0010
0100
0010
0100
,
0001
0000
1100
0000
,
1000
0000
0001
0001
,
1000
0010
1100
0000
,
0100
0010
0100
0010
,
1000
0010
0010
0001
,
2000
0000
0010
0000
,
0000
0000
3010
0000
,
0002
0000
0100
0000
,
0000
0000
0103
0000
,
0002
0000
0010
0000
,
0000
0000
0013
0000
,
2000
0000
0100
0000
,
0000
0000
3100
0000
,
0100
1000
0001
1000
,
0100
0100
0101
0000
,
0001
0001
0010
1000
,
0001
1000
1010
0000
,
0010
1000
0001
1000
,
0010
0010
0011
0000
,
0001
0001
0100
1000
,
0001
1000
1100
0001
,
0101
0000
0000
0000
;

//---------------dance-single - ----------------
#NOTEDATA:;
#CHARTNAME:;
#STEPSTYPE:dance-single;
#DESCRIPTION:;
#CHARTSTYLE:;
#DIFFICULTY:Beginner;
#METER:2;
#RADARVALUES:0.104347,0.185460,0.000000,0.045652,0.000000,64.000000,64.000000,0.000000,4.000000,0.000000,0.000000,0.000000,0.000000,0.000000,0.104347,0.185460,0.000000,0.045652,0.000000,64.000000,64.000000,0.000000,4.000000,0.000000,0.000000,0.000000,0.000000,0.000000;
#CREDIT:led_light;
#NOTES:
// measure 0
0000
0000
0000
0000
,  // measure 1
0000
0000
0000
0000
,  // measure 2
0000
0000
0000
0000
,  // measure 3
0000
0000
0000
0000
,  // measure 4
0000
0000
0000
0000
,  // measure 5
0000
0000
0000
0000
,  // measure 6
0000
0000
0000
0000
,  // measure 7
0000
0000
0000
0000
,  // measure 8
0000
0000
0000
0000
,  // measure 9
0100
0000
0000
0000
,  // measure 10
0000
0000
0000
0000
,  // measure 11
0010
0000
0000
0000
,  // measure 12
0000
0000
0000
0000
,  // measure 13
0100
0000
0000
0000
,  // measure 14
0000
0000
0000
0000
,  // measure 15
0010
0000
0000
0000
,  // measure 16
0010
0000
0010
0000
,  // measure 17
0010
0000
0000
0000
,  // measure 18
0010
0000
0000
0000
,  // measure 19
1000
0000
0000
0000
,  // measure 20
0001
0000
0000
0000
,  // measure 21
0100
0000
0000
0000
,  // measure 22
0100
0000
0000
0000
,  // measure 23
1000
0000
0000
0000
,  // measure 24
0001
0000
0000
0000
,  // measure 25
1000
0000
0010
0000
,  // measure 26
1000
0000
0000
0000
,  // measure 27
0001
0000
0010
0000
,  // measure 28
0001
0000
0000
0000
,  // measure 29
1000
0000
0100
0000
,  // measure 30
1000
0000
0000
0000
,  // measure 31
0001
0000
0100
0000
,  // measure 32
0001
0000
0000
0000
,  // measure 33
1000
0000
0000
0000
,  // measure 34
0100
0000
0000
0000
,  // measure 35
0001
0000
0000
0000
,  // measure 36
0010
0000
0000
0000
,  // measure 37
0001
0000
0000
0000
,  // measure 38
0100
0000
0000
0000
,  // measure 39
1000
0000
0000
0000
,  // measure 40
0010
0000
0000
0000
,  // measure 41
1000
0000
1000
0000
,  // measure 42
1000
0000
0000
0000
,  // measure 43
0001
0000
0001
0000
,  // measure 44
0001
0000
0000
0000
,  // measure 45
0100
0000
0100
0000
,  // measure 46
0100
0000
0000
0000
,  // measure 47
0010
0000
0010
0000
,  // measure 48
0010
0000
0000
0000
,  // measure 49
2000
0000
0000
0000
,  // measure 50
0000
0000
3000
0000
,  // measure 51
0200
0000
0000
0000
,  // measure 52
0000
0000
0300
0000
,  // measure 53
0002
0000
0000
0000
,  // measure 54
0000
0000
0003
0000
,  // measure 55
0020
0000
0000
0000
,  // measure 56
0000
0000
0030
0000
,  // measure 57
1000
0000
0010
0000
,  // measure 58
1000
0000
0000
0000
,  // measure 59
0001
0000
0010
0000
,  // measure 60
0001
0000
0000
0000
,  // measure 61
1000
0000
0100
0000
,  // measure 62
1000
0000
0000
0000
,  // measure 63
0001
0000
0100
0000
,  // measure 64
0001
0000
1000
0000
,  // measure 65
0010
0000
0000
0000
;
