#VERSION:0.83;
#TITLE:未来(ソラ)の歌;
#SUBTITLE:;
#ARTIST:Questy;
#TITLETRANSLIT:Sora no Uta;
#SUBTITLETRANSLIT:;
#ARTISTTRANSLIT:;
#GENRE:Anime/Game;
#ORIGIN:;
#CREDIT:;
#BANNER:Sora no Uta.png;
#BACKGROUND:Sora no Uta-bg.png;
#PREVIEWVID:;
#JACKET:Sora no Uta-jacket.png;
#CDIMAGE:;
#DISCIMAGE:;
#LYRICSPATH:;
#CDTITLE:../cdtitle.png;
#MUSIC:Sora no Uta.ogg;
#OFFSET:-0.043000;
#SAMPLESTART:39.258686;
#SAMPLELENGTH:15.000000;
#SELECTABLE:YES;
#BPMS:0.000=153.000;
#STOPS:;
#DELAYS:;
#WARPS:;
#TIMESIGNATURES:0.000=4=4;
#TICKCOUNTS:0.000=4;
#COMBOS:0.000=1;
#SPEEDS:0.000=1.000=0.000=0;
#SCROLLS:0.000=1.000;
#FAKES:;
#LABELS:0.000=Song Start;
#BGCHANGES:-99.000=../bg.avi=1.000=0=0=1=====,
99999=-nosongbg-=1.000=0=0=0 // don't automatically add -songbackground-
;
#KEYSOUNDS:;
#ATTACKS:
;

//---------------dance-single - ----------------
#NOTEDATA:;
#CHARTNAME:;
#STEPSTYPE:dance-single;
#DESCRIPTION:;
#CHARTSTYLE:;
#DIFFICULTY:Beginner;
#METER:3;
#RADARVALUES:0.116936,0.246601,0.072530,0.155421,0.000000,79.000000,72.000000,7.000000,15.000000,0.000000,0.000000,0.000000,0.000000,0.000000,0.116936,0.246601,0.072530,0.155421,0.000000,79.000000,72.000000,7.000000,15.000000,0.000000,0.000000,0.000000,0.000000,0.000000;
#CREDIT:led_light;
#NOTES:
0000
0000
0000
0000
,
0000
0000
0000
0000
,
0000
0000
0000
0000
,
0000
0000
0000
0000
,
0000
0000
0000
0000
,
1001
0000
0000
0000
,
0110
0000
0000
0000
,
1001
0000
0110
0000
,
0010
0010
0010
0000
,
2000
0000
0000
3000
,
1000
0000
0000
0000
,
0002
0000
0000
0003
,
0001
0000
1000
0000
,
0001
0000
0001
0000
,
0010
0000
0100
0000
,
1000
0000
0002
0000
,
0000
0000
0003
0000
,
0001
0000
0000
0000
,
0010
0000
0000
0000
,
1000
0000
0000
0000
,
0100
0000
0000
0000
,
0001
0000
0000
0000
,
1000
0000
0000
0000
,
0100
0000
0000
0000
,
0010
0000
0100
0000
,
1000
0000
0000
0000
,
0010
0000
0000
0000
,
0001
0000
0000
0000
,
0100
0000
0000
0000
,
1000
0000
0000
0000
,
0001
0000
0000
0000
,
0010
0000
0200
0000
,
0300
0000
0000
0000
,
2000
0000
0000
0000
,
3000
0000
0000
0000
,
0020
0000
0000
0000
,
0030
0000
0000
0000
,
0200
0000
0300
0000
,
0002
0000
0003
0000
,
1000
0000
0001
0000
,
1001
0000
0000
0000
,
0010
0010
0010
0000
,
2000
0000
0000
3000
,
1000
0000
0000
0000
,
0002
0000
0000
0003
,
0001
0000
1000
0000
,
0001
0000
0001
0000
,
0010
0000
0100
0000
,
0100
0000
0020
0000
,
0000
0030
0000
0000
,
0002
0000
0000
0003
,
0001
0000
0000
0000
,
2000
0000
0000
3000
,
1000
0000
0010
0000
,
0002
0000
0003
0000
,
0010
0000
1000
0000
,
0200
0000
0000
0300
,
0010
0000
0100
0000
,
1001
0000
0110
0000
,
0001
0001
0001
0000
;

//---------------dance-single - ----------------
#NOTEDATA:;
#CHARTNAME:;
#STEPSTYPE:dance-single;
#DESCRIPTION:;
#CHARTSTYLE:;
#DIFFICULTY:Hard;
#METER:12;
#RADARVALUES:0.522511,0.647329,0.331565,0.445540,0.093253,353.000000,321.000000,32.000000,43.000000,0.000000,0.000000,0.000000,0.000000,0.000000,0.522511,0.647329,0.331565,0.445540,0.093253,353.000000,321.000000,32.000000,43.000000,0.000000,0.000000,0.000000,0.000000,0.000000;
#CREDIT:led_light;
#NOTES:
// measure 0
0000
0000
0000
0000
,  // measure 1
0000
0000
0000
0000
,  // measure 2
0000
0000
0000
0000
,  // measure 3
0000
0000
0000
0000
,  // measure 4
0000
0000
0000
0000
,  // measure 5
1100
1000
0010
0100
0001
1000
0001
0000
,  // measure 6
0101
0001
0010
0100
1000
0001
1000
0000
,  // measure 7
1001
0001
0100
0010
0110
1000
0100
0010
,  // measure 8
0100
1000
0010
0100
0001
0010
0100
0000
0000
0110
0000
0000
,  // measure 9
2001
0000
0100
0000
3001
0100
0010
1000
,  // measure 10
0001
0020
0100
0000
1000
0000
0031
0000
,  // measure 11
1002
0000
0100
0000
1003
0100
0010
0001
,  // measure 12
2000
0000
3020
0000
0032
0000
0203
0300
,  // measure 13
0110
1000
0100
1000
0001
0100
0010
1000
,  // measure 14
0002
0000
0023
0000
2030
0000
3100
0001
,  // measure 15
0200
0000
0310
1000
0002
0000
0100
0000
,  // measure 16
1003
0100
1000
0001
0010
0100
0010
0000
,  // measure 17
0011
0000
0100
1000
0001
0000
0001
0000
,  // measure 18
1000
0000
0010
0200
0001
0000
0301
0000
,  // measure 19
1000
0000
0100
0010
0100
0000
1000
0000
,  // measure 20
0020
0031
0010
2000
,  // measure 21
3001
0000
0100
0001
1000
0000
0001
1000
,  // measure 22
0010
0100
0001
1000
0000
0100
0010
0100
,  // measure 23
1000
0001
1000
0001
0010
0100
1000
0001
,  // measure 24
0101
1010
1001
0110
,  // measure 25
1100
0000
0010
0001
1000
0000
1000
0000
,  // measure 26
0002
0000
0103
0010
0000
0010
1000
0001
,  // measure 27
0010
0000
0200
0000
0310
0000
0001
1000
,  // measure 28
0020
0031
0001
0020
,  // measure 29
1030
0000
0001
0100
0010
0100
0001
0000
,  // measure 30
0101
0000
1010
0000
0001
0010
0100
0010
,  // measure 31
0002
0000
0013
0100
2000
0000
0100
0000
,  // measure 32
3001
0100
0001
0010
0100
1000
0001
0000
,  // measure 33
1020
0100
1000
1000
,  // measure 34
0001
0100
1000
1030
,  // measure 35
0002
0100
1000
0010
,  // measure 36
0023
0000
0130
2000
0010
0000
3010
0000
,  // measure 37
0210
0000
1000
0000
0301
0100
0010
1000
,  // measure 38
0001
0000
0100
0001
0000
0001
0010
0100
,  // measure 39
1100
0000
0010
0001
0101
0000
0010
1000
,  // measure 40
0100
0010
0000
0100
0010
0000
0001
0000
1000
0000
0100
0000
0010
0000
0000
0000
,  // measure 41
0100
1000
0010
0100
0001
0010
0100
0000
0000
0110
0000
0000
,  // measure 42
2001
0000
0100
0000
3001
0100
0010
1000
,  // measure 43
0001
0020
0100
0000
1000
0000
0031
0000
,  // measure 44
1002
0000
0100
0000
1003
0100
0010
0001
,  // measure 45
2000
0000
3020
0000
0032
0000
0203
0300
,  // measure 46
0110
1000
0100
1000
0001
0100
0010
1000
,  // measure 47
0002
0000
0023
0000
2030
0000
3100
0001
,  // measure 48
0200
0000
0310
1000
0002
0000
0100
0000
,  // measure 49
1003
0100
0010
0100
1000
0001
0010
0000
,  // measure 50
1002
0000
0100
0000
1003
0100
0010
0001
,  // measure 51
1000
0020
0100
0000
0001
0000
1030
0000
,  // measure 52
2001
0000
0100
0000
3001
0100
0010
1000
,  // measure 53
0011
0000
1100
0000
0101
0000
1010
1000
,  // measure 54
0002
0000
0100
0000
1003
0000
0100
0010
,  // measure 55
0100
1000
0001
0000
0101
0000
0001
1000
,  // measure 56
0200
0000
0010
0000
0001
0000
0010
0300
,  // measure 57
1000
0001
0010
0100
1000
0001
0100
0010
,  // measure 58
1000
0100
1000
0100
0000
0000
0001
0100
0001
0100
0000
0000
,  // measure 59
1000
0100
0010
0001
0100
0010
0110
0000
0000
0000
0000
0000
;

//---------------dance-single - ----------------
#NOTEDATA:;
#CHARTNAME:;
#STEPSTYPE:dance-single;
#DESCRIPTION:;
#CHARTSTYLE:;
#DIFFICULTY:Easy;
#METER:7;
#RADARVALUES:0.307882,0.369902,0.248674,0.393733,0.000000,208.000000,184.000000,24.000000,38.000000,0.000000,0.000000,0.000000,0.000000,0.000000,0.307882,0.369902,0.248674,0.393733,0.000000,208.000000,184.000000,24.000000,38.000000,0.000000,0.000000,0.000000,0.000000,0.000000;
#CREDIT:led_light;
#NOTES:
0000
0000
0000
0000
,
0000
0000
0000
0000
,
0000
0000
0000
0000
,
0000
0000
0000
0000
,
0000
0000
0000
0000
,
1001
0100
0100
0000
,
1001
0010
0010
0000
,
1001
0100
1001
0010
,
0100
0100
0100
0010
,
1002
0000
0103
0001
,
0010
0200
0000
0310
,
2001
0000
3010
0001
,
0020
0230
0302
1003
,
0010
0010
0100
0100
,
0001
0010
0100
0010
,
0002
0003
2000
0000
,
0010
3010
0100
0001
,
1001
0000
0001
0001
,
0010
0100
0200
0300
,
0010
0000
0001
1000
,
0002
0013
0100
2000
,
3010
0100
0001
0001
,
1000
0001
0000
1000
,
0001
0001
0010
0100
,
1100
0010
1100
0001
,
1001
0100
0001
0001
,
0020
0130
0000
0100
,
0001
0100
1000
1000
,
0002
0013
0100
2000
,
3001
0100
0010
0010
,
1000
1100
0001
0101
,
2000
3000
0002
0000
,
1000
0100
1003
0100
,
0020
0000
0100
0000
,
0031
1000
0002
0003
,
1000
1000
0010
0010
,
0001
0010
2000
3000
,
1002
0000
0013
0010
,
1001
0000
0100
0100
,
0220
0330
2002
3003
,
0110
0001
1000
0010
,
0100
0100
0100
0010
,
1002
0000
0103
0001
,
0010
0200
0000
0310
,
2001
0000
3010
0001
,
0020
0230
0302
1003
,
0010
0010
0100
0100
,
0001
0010
0100
0010
,
0002
0003
2000
0000
,
0010
3010
0001
0010
,
0120
0000
1030
0100
,
0001
2000
0000
3010
,
0210
0000
1300
0010
,
0001
0001
1000
0100
,
0002
0003
1000
0010
,
0001
0001
0010
1000
,
0002
0003
0200
0300
,
0001
0001
0010
0100
,
1100
0000
0101
0000
,
0110
1000
0001
0000
;

//---------------dance-single - ----------------
#NOTEDATA:;
#CHARTNAME:;
#STEPSTYPE:dance-single;
#DESCRIPTION:;
#CHARTSTYLE:;
#DIFFICULTY:Medium;
#METER:9;
#RADARVALUES:0.395214,0.462378,0.186505,0.435179,0.000000,267.000000,249.000000,18.000000,42.000000,0.000000,0.000000,0.000000,0.000000,0.000000,0.395214,0.462378,0.186505,0.435179,0.000000,267.000000,249.000000,18.000000,42.000000,0.000000,0.000000,0.000000,0.000000,0.000000;
#CREDIT:led_light;
#NOTES:
0000
0000
0000
0000
,
0000
0000
0000
0000
,
0000
0000
0000
0000
,
0000
0000
0000
0000
,
0000
0000
0000
0000
,
0110
0000
0001
0000
1000
0100
1000
0000
,
0110
0000
1000
0000
0001
0100
0001
0000
,
1001
0000
0001
0010
0110
0000
1000
0000
,
0010
0100
0010
0100
0010
0000
0110
0000
,
0002
0000
0100
0000
0103
0001
1000
0000
,
0100
0020
0001
0000
0100
0000
0031
0000
,
2000
0000
0100
0000
3010
1000
0001
0000
,
0020
0230
2300
3001
,
1000
0000
1000
0000
0001
0100
0001
0000
,
0020
2030
3200
0301
,
2000
0000
3000
0100
0020
0000
0000
0000
,
1000
0100
0031
1000
,
1001
0000
0001
1000
0001
0000
0001
0000
,
0010
0000
0100
2000
0002
0000
3003
0000
,
1000
0000
0001
0100
0010
0000
0100
0000
,
0002
0013
1000
0020
,
0031
0000
1000
0001
1000
0000
0001
0010
,
0100
0000
1000
0001
0000
0100
0001
0000
,
1000
0100
0001
0000
0001
0100
1000
0000
,
1001
0010
0100
0010
,
1001
0000
1000
0100
1000
0000
0001
0000
,
0020
0000
0130
1000
0000
0001
1000
0000
,
0010
0000
0001
0000
0010
0000
1000
0001
,
0020
1030
0010
0002
,
1003
0000
0010
0100
0001
0100
0001
0000
,
1000
0000
0110
0000
0001
0100
0001
0000
,
0020
0000
0200
0000
,
0330
0000
0000
0000
,
2000
0001
0001
0001
,
3010
0100
0002
0003
,
1000
1000
0001
0001
,
0010
0100
2000
3000
,
2002
3003
0010
0100
,
0110
0000
0001
1000
0000
0100
1000
0000
,
0101
0010
1100
0010
,
1001
0000
0010
0001
0010
0000
1000
0000
,
0010
0100
0010
0100
0010
0000
0110
0000
,
0002
0000
0100
0000
0103
0001
1000
0000
,
0100
0020
0001
0000
0100
0000
0031
0000
,
2000
0000
0100
0000
3010
1000
0001
0000
,
0020
0230
2300
3001
,
1000
0000
1000
0000
0001
0100
0001
0000
,
0020
2030
3200
0301
,
2000
0000
3000
0100
0020
0000
0000
0000
,
1000
0100
0031
1000
,
2000
0000
0100
0000
3100
1000
0001
0000
,
0100
0020
1000
0000
0100
0000
1030
0000
,
0002
0000
0100
0000
0013
0001
1000
0000
,
0110
0000
1001
0000
0110
0000
0001
1000
,
0002
0100
0100
0013
,
0100
0010
0100
0000
1000
0000
0001
1000
,
0002
0010
2003
0100
,
3001
0000
0010
0000
0100
1000
0010
0000
,
1000
0100
1000
0000
0001
0100
0001
0000
,
0010
0100
0010
0100
0010
0000
0000
0000
;
