#TITLE:忍恋花;
#SUBTITLE:;
#ARTIST:黒脛;
#TITLETRANSLIT:Shinobi renka;
#SUBTITLETRANSLIT:;
#ARTISTTRANSLIT:Kurosune;
#GENRE:BEMANI;
#CREDIT:;
#BANNER:Shinobi renka.png;
#BACKGROUND:Shinobi renka-bg.png;
#LYRICSPATH:;
#CDTITLE:../cdtitle.png;
#MUSIC:Shinobi renka.ogg;
#OFFSET:0.249000;
#SAMPLESTART:44.194000;
#SAMPLELENGTH:15.000000;
#SELECTABLE:YES;
#BPMS:0.000000=189.000000
;
#STOPS:
;
#BGCHANGES:1.250=Shinobi renka.avi=1.000=0=0=0=StretchNoLoop====,
99999=-nosongbg-=1.000=0=0=0 // don't automatically add -songbackground-
;
#KEYSOUNDS:;
#ATTACKS:;

//---------------dance-single - ----------------
#NOTES:
     dance-single:
     :
     Challenge:
     18:
     0.970606,1.206217,0.445673,0.409292,0.686701,747.000000,698.000000,49.000000,45.000000,16.000000,0.000000,0.970606,1.206217,0.445673,0.409292,0.686701,747.000000,698.000000,49.000000,45.000000,16.000000,0.000000:
0000
0000
0000
0000
,
1000
0100
1000
0100
1000
0000
0110
0000
0000
0000
0110
0000
0000
0000
0000
0000
,
0001
0100
0001
0100
0001
0000
0110
0000
0000
0000
0110
0000
0000
0000
0000
0000
,
1000
0010
1000
0010
1000
0000
0110
0000
0000
0000
0110
0000
0000
0000
0000
0000
,
0001
0010
0001
0010
0001
0000
0110
0000
0100
0000
0110
0000
1000
0000
0001
0000
,
1000
0100
1000
0100
0010
0100
0010
0100
0001
0100
0001
0100
0010
0001
0010
0001
,
1000
0100
1000
0100
0010
0001
0010
0001
1000
0010
1000
0010
0100
0001
0100
0001
,
1000
0010
1000
0010
0100
0010
0100
0010
0001
0010
0001
0010
0100
0001
0100
0001
,
1000
0100
0010
0001
1000
0000
1001
0000
0000
0000
0000
0000
MMMM
0000
0000
0000
,
0101
0001
0100
1000
1100
1000
0100
0001
,
1000
0001
0010
0100
1000
0100
0100
0100
,
1100
1000
0100
0001
0101
0001
0100
1000
,
0001
1000
0100
0010
0001
1000
1000
1000
,
1010
1000
0010
0001
0011
0001
0010
1000
,
0001
1000
0100
0010
0001
0010
0010
0010
,
0011
0001
0100
0010
1010
1000
0010
0100
,
0101
0001
0010
0100
1100
1000
1000
1000
,
1001
0001
0100
0010
0100
1000
0100
0010
,
1000
1000
0001
0010
0100
1000
1000
1000
,
1001
1000
0010
0100
0010
0001
0010
0100
,
0001
0000
0001
0000
1000
0000
0100
0000
0010
0000
0001
0000
0001
0000
1000
0001
,
1000
0001
0010
0100
0010
1000
0010
0100
,
1000
1000
0001
0100
0010
1000
1000
1000
,
1010
1000
0001
0010
0011
0001
1000
0010
,
0100
0001
0100
0001
1000
0010
1000
0010
0100
0001
0010
0100
1000
0001
0010
0100
,
2000
3200
0302
0023
,
2030
3200
0320
0032
,
0203
2300
3002
0023
,
2030
0000
0002
3003
,
2001
3020
0032
0203
,
2300
3020
0230
0301
,
2001
3200
0302
2003
,
3020
0032
2003
3100
,
2002
0000
0000
0000
,
3003
0000
0000
0000
,
1100
1000
0010
0100
0101
0001
0010
0100
,
1000
0000
0001
0000
1000
0000
0010
0000
0100
0000
0001
0100
0001
0000
1000
0000
,
1010
1000
0100
0010
0011
0001
0100
0010
,
1000
0000
0001
0000
1000
0000
0100
0000
0010
0000
0001
0010
0001
0000
1000
0000
,
0100
0020
0001
0031
1000
0020
0100
0130
,
0001
0000
0200
0000
0010
0000
0310
0000
1000
0000
0001
0010
0100
0000
1000
0000
,
1100
1000
0010
0100
0101
0001
0100
0010
,
1000
0100
1000
0100
1000
0100
1000
0100
0010
0001
0010
0001
0010
0001
0010
0001
,
1000
0100
0010
0010
0100
1000
0001
0001
,
1000
0010
0100
0001
0010
0100
1000
0001
,
1000
0010
0100
0100
0010
1000
0001
0001
,
1000
1000
0100
0100
0010
0010
0001
0001
,
1000
0100
1000
0001
0010
0001
1000
0010
,
0100
1000
0100
1000
0100
0001
0100
0001
1000
0010
1000
0010
0100
0001
0010
0100
,
1000
0000
1100
0000
1000
0000
0001
0000
0011
0000
0001
0000
1000
0000
0010
0100
,
0002
0000
2000
3003
,
0011
0001
0100
0010
1010
1000
0100
0010
,
0001
0000
1000
0000
0001
0000
0100
0000
0010
0000
1000
0010
1000
0000
0001
0000
,
0101
0001
0010
0100
1100
1000
0010
0100
,
0001
0000
1000
0000
0001
0000
0010
0000
0100
0000
1000
0100
1000
0000
0001
0000
,
0010
0200
1000
1300
0001
0200
0010
0310
,
1000
1000
0010
0010
0100
0100
0001
0001
,
0010
0000
0000
0100
0000
0000
1000
0000
0000
0001
0000
0000
1000
0000
0100
0000
0010
0000
0001
0000
0100
0000
0010
0000
,
1000
0010
0100
0001
0010
0100
1000
0100
0001
0100
0010
0001
,
1000
1000
0010
0010
0001
0001
0100
0100
,
1000
0001
1000
0010
0100
0010
1000
0001
,
1000
1000
0100
0100
0001
0001
0010
0010
,
1000
0001
1000
0100
0010
0100
1000
0001
,
1000
1000
0010
0010
0100
0100
0001
0001
,
0010
0000
0100
0000
1000
0000
0001
0000
1000
0000
0100
0000
0010
0001
1000
0000
,
1001
0001
0100
0010
1010
0010
0100
0001
,
0010
0100
0010
0100
1000
0001
1000
0001
0100
0010
1000
0010
0100
0001
0010
0100
,
1000
0100
1000
0100
1000
0000
0110
0000
0000
0000
0110
0000
0000
0000
0000
0000
,
0001
0100
0001
0100
0001
0000
0110
0000
0000
0000
0110
0000
0000
0000
0000
0000
,
1000
0010
1000
0010
1000
0000
0110
0000
0000
0000
0110
0000
0000
0000
0000
0000
,
0001
0010
0001
0010
0001
0000
0110
0000
0100
0000
0110
0000
1000
0000
0001
0000
,
1000
0100
1000
0100
0010
0100
0010
0100
0001
0100
0001
0100
0010
0001
0010
0001
,
1000
0100
1000
0100
0010
0001
0010
0001
1000
0010
1000
0010
0100
0001
0100
0001
,
1000
0010
1000
0010
0100
0010
0100
0010
0001
0010
0001
0010
0100
0001
0100
0001
,
1000
0100
1000
0100
0010
0001
0010
0001
0010
0100
0010
0000
MMMM
0000
0000
0000
,
1000
0010
1000
0010
0100
0001
0100
0001
0100
0010
0100
0000
MMMM
0000
0000
0000
,
1000
0100
1000
0100
0010
0001
0010
0001
0010
0100
0010
0000
MMMM
0000
0000
0000
,
1000
0010
1000
0010
0100
0010
0100
0010
0001
0010
0001
0010
0100
0001
0100
0001
,
1000
0010
1000
0010
0100
0001
0100
0001
1000
0100
1000
0100
0010
0001
0010
0001
,
2000
3200
0302
0203
2300
3020
0230
0302
,
1003
0100
0010
0001
1000
0000
1001
0000
0000
0000
0000
0000
0000
0000
0000
0000
;

//---------------dance-single - ----------------
#NOTES:
     dance-single:
     :
     Hard:
     17:
     0.873156,0.986905,0.345624,0.400196,0.413840,672.000000,634.000000,38.000000,44.000000,0.000000,0.000000,0.873156,0.986905,0.345624,0.400196,0.413840,672.000000,634.000000,38.000000,44.000000,0.000000,0.000000:
// measure 0
0000
0000
0000
0000
,  // measure 1
1000
0100
1000
0000
0100
0000
0110
0000
0000
0000
0110
0000
0000
0000
0000
0000
,  // measure 2
0001
0100
0001
0000
0100
0000
0110
0000
0000
0000
0110
0000
0000
0000
0000
0000
,  // measure 3
1000
0010
1000
0000
0010
0000
0110
0000
0000
0000
0110
0000
0000
0000
0000
0000
,  // measure 4
0001
0010
0001
0000
0010
0000
0110
0000
0100
0000
0110
0000
1000
0000
0001
0000
,  // measure 5
1000
0100
1000
0000
0100
0001
0100
0000
1000
0001
1000
0000
0010
0100
0010
0000
,  // measure 6
1000
0010
1000
0000
0010
0001
0010
0000
1000
0001
1000
0000
0100
0010
0100
0000
,  // measure 7
1000
0100
1000
0000
0100
0001
0100
0000
1000
0001
1000
0000
0010
0100
0010
0000
,  // measure 8
1000
0100
0010
0000
0001
0000
1001
0000
0000
0000
0000
0000
0000
0000
0000
0000
,  // measure 9
1001
0001
1000
0010
0100
0100
0010
1000
,  // measure 10
0001
0001
0010
0100
1000
0001
0001
0001
,  // measure 11
1001
1000
0001
0100
0010
0010
0100
0001
,  // measure 12
1000
1000
0100
0010
0001
1000
1000
1000
,  // measure 13
1001
0001
1000
0010
0100
0100
0010
1000
,  // measure 14
0001
0001
0010
0100
1000
0001
0001
0001
,  // measure 15
1001
1000
0100
0000
0110
0010
0001
0000
,  // measure 16
1001
0001
0100
0000
0110
0010
0010
0010
,  // measure 17
1000
0001
0010
0001
1000
0010
0100
0010
,  // measure 18
1000
0001
0010
0100
1000
0100
0100
0100
,  // measure 19
0010
1000
0010
0001
1000
0100
0010
0001
,  // measure 20
1000
0001
0100
0010
1000
0001
0001
0001
,  // measure 21
1000
0001
0100
0001
1000
0100
0010
0100
,  // measure 22
1000
0001
0100
0010
1000
0010
0010
0010
,  // measure 23
1000
1000
0001
0001
0010
0010
0100
0100
,  // measure 24
1000
0100
1000
0000
0001
0010
0001
0000
1000
0100
1000
0100
0010
0001
0100
0010
,  // measure 25
2000
3020
0230
0302
,  // measure 26
0023
0230
2300
3002
,  // measure 27
2003
3020
0032
0023
,  // measure 28
2030
0000
0002
3003
,  // measure 29
2001
3200
0320
0032
,  // measure 30
0203
0320
2030
3001
,  // measure 31
2001
3200
0302
0203
,  // measure 32
2300
3020
0230
0301
,  // measure 33
2002
0000
0000
0000
,  // measure 34
3003
0000
0000
0000
,  // measure 35
0101
0001
0100
0010
1000
1000
0100
0010
,  // measure 36
0001
0100
0001
1000
0100
0010
0001
1000
,  // measure 37
1010
1000
0010
0100
0001
0001
0010
0100
,  // measure 38
1000
0010
1000
0001
0010
0100
1000
0001
,  // measure 39
0010
0100
1000
1000
0010
0100
0001
0001
,  // measure 40
0010
0100
0001
0001
0100
0010
0001
0001
,  // measure 41
1000
1000
0010
0100
0001
0001
0010
0100
,  // measure 42
1000
0100
1000
0100
1000
0100
1000
0000
0001
0010
0001
0010
0001
0010
0001
0000
,  // measure 43
0011
0001
0100
0010
1000
1000
0100
0010
,  // measure 44
0001
0100
0001
1000
0100
0010
0001
1000
,  // measure 45
1010
1000
0010
0100
0001
0001
0010
0100
,  // measure 46
1000
0010
1000
0001
0010
0100
1000
0001
,  // measure 47
0100
0010
1000
1000
0100
0010
0001
0001
,  // measure 48
1000
0010
1000
0010
1000
0000
0001
0000
0010
0100
0010
0100
1000
0001
1000
0001
,  // measure 49
0010
0000
2100
0000
0000
0000
3010
0000
0102
0000
0000
0000
0013
0000
0100
1000
,  // measure 50
0002
0000
2000
3003
,  // measure 51
1100
1000
0100
0010
0001
0001
0100
0010
,  // measure 52
1000
0100
1000
0001
0100
0010
1000
0001
,  // measure 53
0011
0001
0010
0100
1000
1000
0010
0100
,  // measure 54
0001
0010
0001
1000
0010
0100
0001
1000
,  // measure 55
0100
0010
0001
0001
0100
0010
1000
1000
,  // measure 56
0001
0001
0010
0010
0100
0100
1000
1000
,  // measure 57
0001
0000
0000
0100
0000
0000
0010
0000
0000
1000
0000
0000
0001
0000
0010
0000
0100
0000
1000
0000
0100
0000
0010
0000
,  // measure 58
0001
1000
0010
0100
1000
0100
0010
1000
0001
0010
0100
1000
,  // measure 59
0001
0010
0100
1000
0001
0010
0100
1000
,  // measure 60
0001
0100
0010
1000
0001
0100
0010
1000
,  // measure 61
0100
0010
0001
1000
0100
0010
0001
1000
,  // measure 62
0010
0100
0001
1000
0010
0100
0001
1000
,  // measure 63
0001
0010
0100
1000
0001
0010
0100
1000
,  // measure 64
0010
0000
0100
0000
0001
0000
1000
0000
0100
0000
0010
0000
0001
0010
0001
0000
,  // measure 65
0021
0000
0130
1000
1020
0000
0130
0001
,  // measure 66
1000
0100
1000
0100
0010
0001
0010
0001
1000
0010
1000
0010
0100
0001
0100
0001
,  // measure 67
1000
0100
1000
0000
0100
0000
0110
0000
0000
0000
0110
0000
0000
0000
0000
0000
,  // measure 68
0001
0100
0001
0000
0100
0000
0110
0000
0000
0000
0110
0000
0000
0000
0000
0000
,  // measure 69
1000
0010
1000
0000
0010
0000
0110
0000
0000
0000
0110
0000
0000
0000
0000
0000
,  // measure 70
0001
0010
0001
0000
0010
0000
0110
0000
0100
0000
0110
0000
1000
0000
0001
0000
,  // measure 71
1000
0100
1000
0000
0100
0001
0100
0000
1000
0001
1000
0000
0010
0100
0010
0000
,  // measure 72
1000
0010
1000
0000
0010
0001
0010
0000
1000
0001
1000
0000
0100
0010
0100
0000
,  // measure 73
1000
0100
1000
0000
0100
0001
0100
0000
1000
0001
1000
0000
0010
0100
0010
0000
,  // measure 74
0100
0001
0100
0000
0010
1000
0010
0000
1000
0001
1000
0000
0100
0000
0000
0000
,  // measure 75
0010
0001
0010
0000
0100
1000
0100
0000
1000
0001
1000
0000
0010
0000
0000
0000
,  // measure 76
0100
0001
0100
0000
0010
1000
0010
0000
1000
0001
1000
0000
0100
0000
0000
0000
,  // measure 77
1000
0010
1000
0000
0010
0001
0010
0000
1000
0001
1000
0000
0100
0010
0100
0000
,  // measure 78
1000
0100
1000
0000
0100
0001
0100
0000
1000
0001
1000
0000
0010
0100
0010
0000
,  // measure 79
2000
3200
0320
0032
0203
0320
2030
3002
,  // measure 80
1003
0100
0010
0000
0001
0000
1001
0000
0000
0000
0000
0000
0000
0000
0000
0000
;

//---------------dance-single - ----------------
#NOTES:
     dance-single:
     :
     Beginner:
     4:
     0.189704,0.291961,0.090954,0.127335,0.000000,146.000000,136.000000,10.000000,14.000000,0.000000,0.000000,0.189704,0.291961,0.090954,0.127335,0.000000,146.000000,136.000000,10.000000,14.000000,0.000000,0.000000:
0000
0000
0000
0000
,
0000
0000
0000
0000
,
0000
0000
0000
0000
,
0000
0000
0000
0000
,
0000
0000
0000
0000
,
1000
0000
1000
0000
,
0100
0000
0100
0000
,
0001
0000
0001
0000
,
0010
0010
0000
0000
,
1001
0000
0001
0000
,
1000
1000
1000
0000
,
0100
0000
0010
0000
,
0001
0001
0001
0000
,
0100
0000
0010
0000
,
1000
1000
1000
0000
,
0001
0000
0001
0000
,
1000
0000
1000
0000
,
0001
0000
0010
0000
,
1000
0000
0010
0000
,
0001
0000
0100
0000
,
1000
0000
0100
0000
,
0001
0000
0010
0000
,
1000
0000
0010
0000
,
0001
0001
0001
0000
,
1000
1000
1000
0000
,
2002
0000
0000
0000
,
0000
0000
0000
0000
,
0000
0000
0000
0000
,
3003
0000
0000
0000
,
0220
0000
0000
0000
,
0000
0000
0000
0000
,
0000
0000
0000
0000
,
0330
0000
0000
0000
,
2002
0000
0000
0000
,
3003
0000
0000
0000
,
1000
1000
1000
0000
,
0100
0100
0100
0000
,
0001
0001
0001
0000
,
0010
0010
0010
0000
,
2000
0000
3000
0000
,
0002
0000
0003
0000
,
1000
0000
1000
0000
,
0001
0000
0001
0000
,
0010
0000
0010
0000
,
1000
0000
1000
0000
,
0100
0000
0100
0000
,
0002
0000
0003
0000
,
1000
1000
1000
0000
,
0001
0001
0001
0000
,
2000
0000
0000
0000
,
3000
0000
0000
0000
,
0001
0001
0001
0000
,
0100
0100
0100
0000
,
1000
1000
1000
0000
,
0010
0010
0010
0000
,
0002
0000
0003
0000
,
2000
0000
3000
0000
,
0001
0000
0001
0000
,
1000
0000
1000
0000
,
0001
0000
0010
0000
,
0100
0000
1000
0000
,
1000
0000
0010
0000
,
0100
0000
0001
0000
,
0002
0000
0003
0000
,
2000
0000
3000
0000
,
1001
0000
0000
0000
,
0110
0000
0000
0000
,
1001
0000
0000
0000
,
1001
0000
0000
0000
,
0110
0000
0000
0000
,
0110
0000
0000
0000
,
1000
0000
1000
0000
,
0100
0000
0100
0000
,
0001
0000
0001
0000
,
0010
0000
0010
0000
,
1000
1000
1000
0000
,
0001
0001
0001
0000
,
1000
0000
1000
0000
,
0010
0000
0010
0000
,
0001
0000
0001
0000
,
1000
1000
0000
0000
;

//---------------dance-single - ----------------
#NOTES:
     dance-single:
     :
     Easy:
     9:
     0.443075,0.511728,0.372910,0.663962,0.000000,341.000000,300.000000,41.000000,73.000000,0.000000,0.000000,0.443075,0.511728,0.372910,0.663962,0.000000,341.000000,300.000000,41.000000,73.000000,0.000000,0.000000:
0000
0000
0000
0000
,
0100
0000
0000
0100
0000
1001
0000
0000
,
0010
0000
0000
0010
0000
1001
0000
0000
,
0100
0000
0000
0100
0000
1001
0000
0000
,
0010
0000
0000
0010
0000
1001
0000
0001
,
2000
3200
0302
0023
,
2030
3200
0302
0023
,
2030
3020
0032
0203
,
2300
0000
3001
1001
0000
0000
0000
0000
,
1001
0100
1000
0010
,
0001
0001
0010
0000
,
1000
0100
0001
0100
,
1000
1000
0001
0001
,
1000
0100
1000
0010
,
0001
0001
0010
1000
,
2002
3003
0202
0303
,
2200
3300
0220
0330
,
1001
1000
0010
0010
,
0001
0001
2000
3000
,
0001
0001
0100
0100
,
1000
1000
0002
0003
,
1000
1000
0010
0010
,
0100
0100
0001
1000
,
0001
0001
1000
1000
,
0001
0010
0100
1000
,
2002
0000
0000
0000
,
0000
0000
0000
0000
,
0000
0000
0000
0000
,
3003
0000
0100
0000
,
0220
0000
0000
0000
,
0000
0000
0000
0330
,
2002
0000
0000
0000
,
0000
0000
0000
3003
,
0220
0000
0000
0000
,
0330
0000
0000
0000
,
1100
0001
1100
0001
,
0001
0100
1000
0000
0100
0000
0100
0000
,
1010
0001
1010
0001
,
0001
0010
1000
0000
0010
0000
0010
0000
,
0100
1000
0001
0000
0100
0010
1000
0000
,
0001
0100
0010
0000
1000
0001
0010
0000
,
1100
0010
0101
0010
,
1000
0010
1000
0000
0001
0100
0001
0000
,
0101
1000
1100
0001
,
0011
1000
1010
0001
,
0101
1000
1100
0001
,
2000
3020
0230
0302
,
1003
0100
1000
0000
0001
0010
0001
0000
,
1000
0010
1000
0000
0001
0000
0100
0000
,
2020
3030
0022
0033
,
2002
0000
3003
0000
,
0011
1000
0011
1000
,
1000
0010
0001
0000
0010
0000
0010
0000
,
0101
1000
0101
1000
,
1000
0100
0001
0000
0100
0000
0100
0000
,
0010
0001
1000
0000
0010
0100
0001
0000
,
1000
0010
0100
0000
0001
1000
0100
0000
,
0100
0001
1000
0000
0100
0010
0001
0000
,
1000
0100
0010
0000
0001
1000
0010
0000
,
1000
0000
1010
0000
0001
0100
0010
0000
,
0100
0001
1000
0000
0001
0010
0100
0000
,
1000
0000
1100
0000
0001
0010
0100
0000
,
0010
0001
1000
0000
0001
0100
0010
0000
,
0100
0001
0100
0000
0010
1000
0010
0000
,
1000
0100
1000
0000
0001
0010
0001
0000
,
2000
3100
0002
0103
,
1000
0010
1000
0010
0001
0010
0001
0010
,
0100
0000
0000
0100
0000
1001
0000
0000
,
0010
0000
0000
0010
0000
1001
0000
0000
,
0100
0000
0000
0100
0000
1001
0000
0000
,
0010
0000
0000
0010
0000
1001
0000
0001
,
2000
3200
0302
0023
,
2030
3200
0302
0023
,
2030
3020
0032
0203
,
2300
3020
0032
0013
,
2000
3200
0302
0103
,
2000
3020
0032
0013
,
2000
3200
0302
0023
,
2030
3200
0302
0023
,
1030
0100
0010
0001
,
2000
0000
3001
1001
0000
0000
0000
0000
;

//---------------dance-single - ----------------
#NOTES:
     dance-single:
     :
     Medium:
     13:
     0.704242,0.694489,0.318338,0.482055,0.000000,542.000000,507.000000,35.000000,53.000000,0.000000,0.000000,0.704242,0.694489,0.318338,0.482055,0.000000,542.000000,507.000000,35.000000,53.000000,0.000000,0.000000:
0000
0000
0000
0000
,
1000
0100
1000
1100
0000
1100
0000
0000
,
0001
0100
0001
0101
0000
0101
0000
0000
,
1000
0010
1000
1010
0000
1010
0000
0000
,
0001
0010
0001
0011
0001
0011
0010
0001
,
1000
1000
0100
0100
0001
0001
0010
0010
,
1000
1000
0010
0010
0001
0001
0100
0100
,
1000
1000
0100
0100
0001
0001
0010
0010
,
1000
0100
0010
0001
0000
0000
1001
0000
,
0001
0100
1000
0000
1000
0100
0001
0000
,
1000
0100
0001
0001
0100
1000
0001
0000
,
1000
0010
0001
0000
0001
0010
1000
0000
,
0001
0010
1000
1000
0010
0001
0000
0001
,
1000
0100
0001
0000
0001
0100
1000
0000
,
0001
0100
1000
1000
0100
0001
0010
0100
,
2000
3010
0002
0013
,
2000
0000
3100
0000
0002
0100
0103
0100
,
1000
0000
0010
0010
0001
0000
0010
0010
,
1000
0000
0001
0001
0010
0100
0100
0100
,
1000
0000
0100
0100
0001
0000
0100
0100
,
1000
0000
0001
0001
0100
0010
0010
0010
,
1000
0000
0010
0010
0001
0000
0010
0010
,
1000
0000
0001
0001
0010
0100
0100
0000
,
1000
0100
1000
0000
0001
0010
0001
0000
,
1000
0100
1000
0010
0100
0001
0010
0100
,
2000
3002
0023
0230
,
2300
3020
0230
0302
,
0023
2030
3002
0203
,
2300
0000
0002
3003
,
2001
3002
0203
0320
,
2030
3200
0320
0032
,
0203
2300
3002
0023
,
2030
3200
0320
0031
,
2002
0000
0000
0000
,
3003
0000
0000
0000
,
1010
1000
0100
0000
0011
0001
0100
0000
,
1010
1000
0100
0010
0001
0010
0100
1000
,
1001
0001
0010
0000
1001
1000
0010
0000
,
1001
0001
0010
0100
1000
0001
1000
0010
,
0100
0010
1000
0000
0100
0010
0001
0000
,
1000
0100
0010
0100
1000
0010
0100
0001
,
1000
0100
1000
0100
0010
0001
0010
0001
,
1000
1000
1000
1000
0001
0001
0001
0001
,
1001
0000
1000
0010
0100
0000
0100
0010
,
1000
0000
0001
0010
0100
0000
0100
0010
,
0001
0000
1000
0010
0100
0000
0100
0010
,
2000
3002
0023
0230
,
1300
0100
1000
0001
1000
0010
0100
0001
,
0100
0010
1000
0001
0010
0100
1000
0001
,
1000
2000
0000
3010
0020
0000
0130
0001
,
2000
0000
0002
3003
,
1100
1000
0010
0000
0101
0001
0010
0000
,
1100
1000
0010
0100
0001
0100
0010
1000
,
1001
0001
0100
0000
1001
1000
0100
0000
,
1001
0001
0100
0010
1000
0100
0010
0001
,
1000
0100
1000
0001
0010
0001
0100
0010
,
1000
0010
0100
0010
1000
0001
0100
0010
,
1000
0100
1000
0100
0010
0001
0010
0001
,
1000
0100
0010
0001
1000
0010
0100
0001
,
1000
1000
0100
0100
0010
0010
0001
0001
,
1000
1000
0010
0010
0100
0100
0001
0001
,
1000
1000
0100
0100
0001
0001
0100
0100
,
1000
1000
0010
0010
0001
0001
0010
0010
,
1000
0001
1000
0100
1000
0001
0100
0010
,
1000
0001
0010
0100
0010
0001
1000
0100
,
2100
0000
3010
0100
0102
0000
0013
0100
,
1000
1000
0100
0010
0001
0001
0100
0010
,
1000
0100
1000
1100
0000
1100
0000
0000
,
0001
0100
0001
0101
0000
0101
0000
0000
,
1000
0010
1000
1010
0000
1010
0000
0000
,
0001
0010
0001
0011
0001
0011
0010
0001
,
1000
1000
0100
0100
0001
0001
0010
0010
,
1000
1000
0010
0010
0001
0001
0100
0100
,
1000
1000
0100
0100
0001
0001
0010
0010
,
1000
1000
0100
0100
0001
0001
0100
0000
,
1000
1000
0010
0010
0001
0001
0010
0000
,
1000
1000
0100
0100
0001
0001
0100
0000
,
1000
1000
0100
0100
0001
0001
0010
0010
,
1000
1000
0010
0010
0001
0001
0100
0100
,
2000
3020
0230
0320
2030
3002
0023
0230
,
1300
0001
1000
1001
0000
0000
0000
0000
;
