#TITLE:She saw a miracle;
#SUBTITLE:;
#ARTIST:OJ ENSEMBLE;
#TITLETRANSLIT:;
#SUBTITLETRANSLIT:;
#ARTISTTRANSLIT:;
#GENRE:BEMANI;
#CREDIT:;
#BANNER:She saw a miracle.png;
#BACKGROUND:She saw a miracle-bg.png;
#LYRICSPATH:;
#CDTITLE:../cdtitle.png;
#MUSIC:She saw a miracle.ogg;
#OFFSET:-0.020000;
#SAMPLESTART:6.720000;
#SAMPLELENGTH:15.000000;
#SELECTABLE:YES;
#BPMS:0.000000=180.000000
;
#STOPS:
;
#BGCHANGES:-99.000=../bg.avi=1.000=0=0=1=====,
99999=-nosongbg-=1.000=0=0=0 // don't automatically add -songbackground-
;
#KEYSOUNDS:;
#ATTACKS:;

//---------------dance-single - ----------------
#NOTES:
     dance-single:
     :
     Hard:
     14:
     0.695483,0.851966,0.470241,0.728413,0.027661,528.000000,477.000000,51.000000,79.000000,0.000000,0.000000,0.695483,0.851966,0.470241,0.728413,0.027661,528.000000,477.000000,51.000000,79.000000,0.000000,0.000000:
// measure 0
0000
0000
0000
0000
,  // measure 1
0000
0000
0000
0000
,  // measure 2
0000
0000
0000
0000
,  // measure 3
0000
0000
0000
0000
,  // measure 4
0000
0000
0000
0000
,  // measure 5
2000
3200
0302
0023
,  // measure 6
1030
0100
1000
0001
0100
0010
0100
0001
,  // measure 7
1000
0010
0100
1000
0100
0010
1000
0001
,  // measure 8
0000
0010
0100
0010
0000
0001
1000
0001
,  // measure 9
2000
3200
0320
0032
,  // measure 10
1003
0100
0010
0100
1000
0001
1000
0010
,  // measure 11
0200
0000
0301
0100
0010
1000
0001
1000
,  // measure 12
0100
0010
0010
0010
2001
0000
3010
0000
,  // measure 13
1000
0100
0010
0100
0001
0100
0010
0100
,  // measure 14
1000
0100
0010
0100
0001
0100
0010
0100
,  // measure 15
1000
0010
0100
0010
0001
0010
0100
0010
,  // measure 16
0000
1010
0010
1010
0000
0011
0010
0011
,  // measure 17
2001
3200
0302
0023
,  // measure 18
1030
0100
1000
0001
0100
0010
0100
0001
,  // measure 19
1000
0010
0100
1000
0100
0010
1000
0001
,  // measure 20
0000
0010
0100
0010
0000
0001
1000
0001
,  // measure 21
2000
3200
0320
0032
,  // measure 22
1003
0100
0010
0100
1000
0001
1000
0010
,  // measure 23
0200
0000
0301
0100
0010
1000
0001
1000
,  // measure 24
0100
0010
0010
0010
2001
0000
3010
0000
,  // measure 25
0210
0000
0301
1000
0010
1000
0100
0010
,  // measure 26
0002
0000
0100
0000
2003
0000
3100
0010
,  // measure 27
0001
1000
0001
0010
0100
0010
0001
1000
,  // measure 28
0000
1100
1100
1100
2001
0000
3001
0100
,  // measure 29
0201
0000
0310
0000
1002
0000
0013
0100
,  // measure 30
1000
0001
0010
0001
1000
0010
0200
0300
,  // measure 31
1020
0000
0130
0000
2001
0000
3100
0010
,  // measure 32
0001
1000
0100
1000
0001
0100
0010
1000
,  // measure 33
1200
0000
0310
0000
2001
0000
3010
0100
,  // measure 34
0001
1000
0010
1000
0001
0010
0200
0000
,  // measure 35
1300
0001
0010
0001
1000
0100
1000
0001
,  // measure 36
0100
0010
0100
0001
1000
0100
0001
0100
,  // measure 37
0110
0000
0110
0000
0110
0000
0000
0000
0001
0000
0000
1000
0001
0000
1000
0000
,  // measure 38
0001
0100
0010
0100
0001
0100
0010
1000
,  // measure 39
0001
1000
1000
0001
0000
1000
1200
0000
,  // measure 40
1300
0000
0010
0000
0100
0000
0010
0000
1000
0000
0010
0000
0100
0000
0001
1000
,  // measure 41
0001
0000
1000
0000
0001
0000
0010
0100
0010
0000
0001
0000
0012
0000
0000
0000
,  // measure 42
2003
3020
0032
0203
,  // measure 43
1300
0010
1000
0001
0010
0100
0010
0001
,  // measure 44
1000
0100
0010
1000
0010
0100
1000
0001
,  // measure 45
0000
0100
0010
0100
0000
0001
1000
0001
,  // measure 46
2000
3020
0230
0302
,  // measure 47
1003
0010
0100
0010
1000
0001
1000
0100
,  // measure 48
0020
0000
0031
0010
0100
1000
0001
1000
,  // measure 49
0010
0100
0100
0100
2001
0000
3100
0010
,  // measure 50
0021
0000
0130
0000
1002
0000
0103
0010
,  // measure 51
1000
0001
0100
0001
1000
0100
0020
0030
,  // measure 52
1200
0000
0310
0000
2001
0000
3010
0100
,  // measure 53
0001
1000
0010
1000
0001
0010
0100
1000
,  // measure 54
1020
0000
0130
0000
2001
0000
3100
0010
,  // measure 55
0001
1000
0100
1000
0001
0100
0020
0000
,  // measure 56
1030
0001
0100
0001
1000
0010
1000
0001
,  // measure 57
0010
0100
0010
0001
1000
0010
0001
0010
,  // measure 58
0110
0000
0110
0000
0110
0000
0000
0000
0001
0000
1000
0001
1000
0001
1000
0000
,  // measure 59
1002
0000
1003
0100
0010
0001
0010
0100
,  // measure 60
2100
0000
3001
1000
0010
0100
0001
0010
,  // measure 61
0210
0000
1300
0010
0210
0000
0301
0010
,  // measure 62
0200
2300
3020
0032
,  // measure 63
2003
3200
0302
2003
,  // measure 64
3200
0302
2003
3002
,  // measure 65
0203
2300
3020
0230
,  // measure 66
0302
0023
0230
1300
,  // measure 67
1002
0000
1003
0010
0100
0001
0100
0010
,  // measure 68
2010
0000
3001
1000
0100
0010
0001
0100
,  // measure 69
0120
0000
1030
0100
0120
0000
0031
0100
,  // measure 70
0010
1000
0100
0001
1000
0010
0001
1000
,  // measure 71
0001
0001
1000
1000
0010
0010
0001
0001
,  // measure 72
0010
1000
0001
0010
1000
0001
1000
0010
,  // measure 73
0001
0001
1000
1000
0010
0010
0100
0100
,  // measure 74
0001
1000
0100
0010
0001
0010
0100
1000
,  // measure 75
1100
1100
1100
0000
0010
0000
0101
0101
,  // measure 76
0101
0000
0000
0000
0010
0000
0000
0100
0001
0000
0011
0000
0011
0000
1010
0000
,  // measure 77
1001
0000
0000
0000
;

//---------------dance-single - ----------------
#NOTES:
     dance-single:
     :
     Beginner:
     3:
     0.168602,0.212992,0.000000,0.165967,0.000000,128.000000,128.000000,0.000000,18.000000,0.000000,0.000000,0.168602,0.212992,0.000000,0.165967,0.000000,128.000000,128.000000,0.000000,18.000000,0.000000,0.000000:
0000
0000
0000
0000
,
0000
0000
0000
0000
,
0000
0000
0000
0000
,
0000
0000
0000
0000
,
0000
0000
0000
0000
,
0001
0000
0010
0000
,
0001
0000
0010
0000
,
0100
0000
1000
0000
,
0002
0000
0003
0000
,
1000
0000
0010
0000
,
1000
0000
0010
0000
,
0100
0000
0001
0000
,
2000
0000
3000
0000
,
0001
0000
0001
0000
,
0001
0000
0001
0000
,
1000
0000
1000
0000
,
0000
1000
0000
1000
,
1000
0000
0100
0000
,
1000
0000
0100
0000
,
0010
0000
0001
0000
,
2000
0000
3000
0000
,
0001
0000
0100
0000
,
0001
0000
0100
0000
,
0010
0000
1000
0000
,
0002
0000
0003
0000
,
1000
0000
1000
0000
,
1000
0000
1000
0000
,
0001
0000
0001
0000
,
0000
0001
0001
0000
,
0002
0000
0003
0000
,
0020
0000
0030
0000
,
2000
0000
3000
0000
,
0200
0000
0300
0000
,
0002
0000
0003
0000
,
0200
0000
0300
0000
,
1000
0000
1000
0000
,
0010
0000
0010
0000
,
0001
0001
0000
0000
,
1000
0000
1000
0000
,
0001
0001
0000
0000
,
0001
0000
0001
0000
,
1000
1000
0000
0000
,
1000
0000
0010
0000
,
1000
0000
0010
0000
,
0100
0000
0001
0000
,
2000
0000
3000
0000
,
0001
0000
0010
0000
,
0001
0000
0010
0000
,
0100
0000
1000
0000
,
0002
0000
0003
0000
,
2000
0000
3000
0000
,
0200
0000
0300
0000
,
0002
0000
0003
0000
,
0020
0000
0030
0000
,
2000
0000
3000
0000
,
0020
0000
0030
0000
,
0001
0000
0001
0000
,
0100
0000
0100
0000
,
1000
1000
0000
0000
,
1000
0000
0010
0000
,
0001
0000
0010
0000
,
1000
0000
1000
0000
,
0001
0000
0001
0000
,
1000
0000
0010
0000
,
0100
0000
0001
0000
,
1000
0000
0001
0000
,
0100
0000
0010
0000
,
1000
0000
0100
0000
,
0001
0000
0100
0000
,
1000
0000
1000
0000
,
0001
0000
0001
0000
,
1000
0000
0100
0000
,
0010
0000
0001
0000
,
1000
0000
0001
0000
,
0010
0000
0100
0000
,
0010
0010
0000
0010
,
0010
0000
0000
0100
,
0100
0000
0000
0000
;

//---------------dance-single - ----------------
#NOTES:
     dance-single:
     :
     Easy:
     7:
     0.346424,0.425983,0.147527,0.267392,0.000000,263.000000,247.000000,16.000000,29.000000,0.000000,0.000000,0.346424,0.425983,0.147527,0.267392,0.000000,263.000000,247.000000,16.000000,29.000000,0.000000,0.000000:
0000
0000
0000
0000
,
0000
0000
0000
0000
,
0000
0000
0000
0000
,
0000
0000
0000
0000
,
0000
0000
0000
0000
,
1000
0100
1000
0010
,
0100
0001
0010
0100
,
0010
0001
0100
0010
,
2000
0000
3001
0000
,
0001
0010
0001
0100
,
0010
1000
0100
0010
,
0100
1000
0010
0100
,
0001
1000
2000
3000
,
0001
0010
1000
0010
,
0001
0010
1000
0010
,
0001
0100
1000
0100
,
0000
1001
0000
1001
,
1000
0100
1000
0010
,
0100
0001
0010
0100
,
0010
0001
0100
0010
,
2000
0000
3001
0000
,
0001
0010
0001
0100
,
0010
1000
0100
0010
,
0100
1000
0010
0100
,
0001
1000
2000
3000
,
0001
0010
0100
1000
,
0001
0010
0200
0300
,
0010
0001
0100
0010
,
0000
1001
1001
0001
,
2000
3000
0002
0003
,
0010
0010
0020
0030
,
0200
0300
2000
3000
,
0001
0001
0001
1000
,
0002
0003
2000
3000
,
0010
0010
0020
0030
,
0100
0100
0001
0001
,
1000
0100
1000
0001
,
1001
1001
0000
0000
,
1000
0100
0010
0001
,
1000
0100
0000
0100
,
1000
0010
0100
0001
,
1000
0010
0000
0010
,
1000
0100
0010
0001
,
0100
0010
1000
0001
,
0010
1000
0010
0001
,
2000
0000
3001
0000
,
0001
0010
0100
1000
,
0001
0010
0001
0100
,
0010
1000
0100
0001
,
0100
1000
2000
3000
,
0002
0003
2000
3000
,
0100
0100
0200
0300
,
0020
0030
0002
0003
,
1000
1000
1000
0001
,
2000
3000
0002
0003
,
0100
0100
0200
0300
,
0010
0010
1000
1000
,
0001
0010
0001
1000
,
1001
1001
0000
0000
,
0001
0100
1000
1000
,
0100
0001
0010
0010
,
2000
3000
0002
0003
,
1000
0010
0001
1000
,
0001
0001
0010
0010
,
0100
0100
1000
1000
,
0010
0100
0001
1000
,
0010
0100
0001
1000
,
1000
0100
0001
0100
,
1000
0010
0001
0010
,
2020
3030
0202
0303
,
1000
0100
0010
0001
,
1000
1000
0010
0010
,
0001
0001
0100
0100
,
1000
0010
0100
0001
,
0010
0100
1000
0001
,
1001
1001
0000
0110
,
0110
0000
0000
1001
,
1001
0000
0000
0000
;

//---------------dance-single - ----------------
#NOTES:
     dance-single:
     :
     Medium:
     10:
     0.462338,0.496980,0.110645,0.848278,0.000000,351.000000,339.000000,12.000000,92.000000,0.000000,0.000000,0.462338,0.496980,0.110645,0.848278,0.000000,351.000000,339.000000,12.000000,92.000000,0.000000,0.000000:
0000
0000
0000
0000
,
0000
0000
0000
0000
,
0000
0000
0000
0000
,
0000
0000
0000
0000
,
0000
0000
0000
0000
,
2000
3200
0320
0032
,
1003
0000
0100
0000
0010
0001
1000
0000
,
0010
0100
0001
0000
0100
0010
1000
0000
,
0200
0000
0310
0000
,
0002
0023
0230
2300
,
3001
0000
0010
0000
0100
1000
0001
0000
,
0200
0000
0310
0000
1000
0100
0010
0000
,
0001
1000
0001
1000
0020
0000
0030
0000
,
0000
1000
0000
0100
0000
0001
0000
0010
,
0000
1000
0000
0100
0000
0001
0000
0010
,
0000
1000
0000
0010
0000
0001
0000
0100
,
0000
1000
0100
1000
0000
0001
0010
0001
,
2000
3020
0230
0302
,
1003
0000
0010
0000
0100
0001
1000
0000
,
0100
0010
0001
0000
0010
0100
1000
0000
,
0020
0000
0130
0000
,
0002
0203
0320
2030
,
3001
0000
0100
0000
0010
1000
0001
0000
,
0020
0000
0130
0000
1000
0010
0100
0000
,
0001
1000
0001
1000
0200
0000
0300
0000
,
2000
0000
3100
0010
0100
0010
0001
0000
,
2000
0000
3200
0000
0302
0000
0003
0100
,
1000
0100
1000
0000
0001
0100
0010
0100
,
0000
0001
1000
0001
2000
0000
3001
0000
,
0022
0033
2200
3300
,
0001
0000
0100
0000
0010
1000
0001
0000
,
0202
0303
2020
3030
,
1000
0000
0001
0000
0010
0100
1000
0000
,
2200
3300
0022
0033
,
1000
0000
0001
0000
0100
0010
1000
0000
,
0100
0010
0001
0000
0010
0100
1000
0000
,
0010
0100
0001
0000
0100
0010
1000
0000
,
0100
0010
0200
0000
0300
0000
0000
0000
,
2000
3100
0002
0103
,
1000
0010
1000
0010
0000
0100
0100
0000
,
0002
0013
2000
3010
,
0001
0100
0001
0100
0000
0010
0010
0000
,
2000
3200
0320
0032
,
1003
0000
0100
0000
0010
0001
1000
0000
,
0010
0100
0001
0000
0100
0010
1000
0000
,
0200
0000
0310
0000
,
0002
0023
0230
2300
,
3001
0000
0010
0000
0100
1000
0001
0000
,
0200
0000
0310
0000
1000
0100
0010
0000
,
0001
1000
0001
1000
0020
0000
0130
0000
,
0202
0303
2020
3030
,
0001
0000
0010
0000
0100
1000
0001
0000
,
0022
0033
2200
3300
,
1000
0000
0001
0000
0100
0010
1000
0000
,
2020
3030
0202
0303
,
1000
0000
0001
0000
0010
0100
1000
0000
,
0010
0100
0001
0000
0100
0010
1000
0000
,
0100
0010
0001
0000
0010
0100
1000
0000
,
0010
0100
0020
0000
0030
0000
0000
0000
,
2000
0000
3010
0010
0100
0100
0001
0000
,
2000
0000
3100
0100
0010
0010
0001
0000
,
2000
0000
3010
0010
0002
0000
0013
0010
,
2000
3200
0302
0203
,
2300
0100
3020
0100
,
2030
3002
0023
0230
,
2300
0010
3200
0010
,
2300
3002
0203
0320
,
2030
0000
3100
0100
0010
0010
0001
0000
,
2000
0000
3010
0010
0100
0100
0001
0000
,
2000
0000
3100
0100
0002
0000
0103
0100
,
1000
1000
0010
0000
0001
0001
0010
0000
,
1000
0010
1000
0000
0100
0010
0100
0000
,
1000
1000
0001
0001
0100
0100
0010
0000
,
1000
0100
1000
0000
0010
0100
0010
0000
,
1000
1000
0001
0001
0010
0010
0100
0000
,
1000
0100
1000
0000
0000
0000
0001
0100
,
0001
0000
0000
0000
0000
0010
0100
0010
,
0100
0000
0000
0000
;
