#VERSION:0.83;
#TITLE:Shadows;
#SUBTITLE:;
#ARTIST:Seventh Element;
#TITLETRANSLIT:;
#SUBTITLETRANSLIT:;
#ARTISTTRANSLIT:;
#GENRE:Variety;
#ORIGIN:;
#CREDIT:;
#BANNER:Shadows.png;
#BACKGROUND:Shadows-bg.png;
#PREVIEWVID:;
#JACKET:Shadows-jacket.png;
#CDIMAGE:;
#DISCIMAGE:;
#LYRICSPATH:;
#CDTITLE:../cdtitle.png;
#MUSIC:Shadows.ogg;
#OFFSET:1.253000;
#SAMPLESTART:20.200525;
#SAMPLELENGTH:15.000000;
#SELECTABLE:YES;
#BPMS:0.000=190.000;
#STOPS:;
#DELAYS:;
#WARPS:;
#TIMESIGNATURES:0.000=4=4;
#TICKCOUNTS:0.000=4;
#COMBOS:0.000=1;
#SPEEDS:0.000=1.000=0.000=0;
#SCROLLS:0.000=1.000;
#FAKES:;
#LABELS:0.000=Song Start;
#BGCHANGES:3.750=Shadows.avi=1.000=0=0=0=StretchNoLoop====,
99999=-nosongbg-=1.000=0=0=0 // don't automatically add -songbackground-
;
#KEYSOUNDS:;
#ATTACKS:
;

//---------------dance-single - ----------------
#NOTEDATA:;
#CHARTNAME:;
#STEPSTYPE:dance-single;
#DESCRIPTION:;
#CHARTSTYLE:;
#DIFFICULTY:Beginner;
#METER:2;
#RADARVALUES:0.083633,0.198013,0.000000,0.137748,0.000000,68.000000,68.000000,0.000000,16.000000,0.000000,0.000000,0.000000,0.000000,0.000000,0.083633,0.198013,0.000000,0.137748,0.000000,68.000000,68.000000,0.000000,16.000000,0.000000,0.000000,0.000000,0.000000,0.000000;
#CREDIT:led_light;
#NOTES:
// measure 0
0000
0000
0000
0000
,  // measure 1
0000
0000
0000
0000
,  // measure 2
0000
0000
0000
0000
,  // measure 3
0000
0000
0000
0000
,  // measure 4
0000
0000
0000
0000
,  // measure 5
0000
0000
0000
0000
,  // measure 6
0000
0000
0000
0000
,  // measure 7
0000
0000
0000
0000
,  // measure 8
0000
0000
0000
0000
,  // measure 9
2000
0000
0000
0000
,  // measure 10
0000
0000
0000
0000
,  // measure 11
0000
0000
0000
0000
,  // measure 12
3000
0000
0000
0000
,  // measure 13
0002
0000
0000
0000
,  // measure 14
0000
0000
0000
0000
,  // measure 15
0000
0000
0000
0000
,  // measure 16
0003
0000
0000
0000
,  // measure 17
1000
0000
0000
0000
,  // measure 18
1000
0000
0000
0000
,  // measure 19
0100
0000
0000
0000
,  // measure 20
0010
0000
0000
0000
,  // measure 21
0001
0000
0000
0000
,  // measure 22
0001
0000
0000
0000
,  // measure 23
0010
0000
0000
0000
,  // measure 24
0100
0000
0000
0000
,  // measure 25
1000
0000
0000
0000
,  // measure 26
1000
0000
0000
0000
,  // measure 27
1000
0000
0000
0000
,  // measure 28
1000
0000
0000
0000
,  // measure 29
0001
0000
0000
0000
,  // measure 30
0001
0000
0000
0000
,  // measure 31
0001
0000
0000
0000
,  // measure 32
0001
0000
0000
0000
,  // measure 33
2000
0000
0000
0000
,  // measure 34
3000
0000
0000
0000
,  // measure 35
0020
0000
0000
0000
,  // measure 36
0030
0000
0000
0000
,  // measure 37
0200
0000
0000
0000
,  // measure 38
0300
0000
0000
0000
,  // measure 39
0002
0000
0000
0000
,  // measure 40
0003
0000
0000
0000
,  // measure 41
2000
0000
0000
0000
,  // measure 42
3000
0000
0000
0000
,  // measure 43
0002
0000
0000
0000
,  // measure 44
0003
0000
0000
0000
,  // measure 45
0020
0000
0000
0000
,  // measure 46
0030
0000
0000
0000
,  // measure 47
0200
0000
0000
0000
,  // measure 48
0300
0000
0000
0000
,  // measure 49
1000
0000
0000
0000
,  // measure 50
1000
0000
0000
0000
,  // measure 51
0001
0000
0000
0000
,  // measure 52
0001
0000
0000
0000
,  // measure 53
2000
0000
0000
0000
,  // measure 54
0000
0000
0000
0000
,  // measure 55
3000
0000
0000
0000
,  // measure 56
0000
0000
0000
0000
,  // measure 57
0001
0000
0001
0000
,  // measure 58
0001
0000
0001
0000
,  // measure 59
1000
0000
1000
0000
,  // measure 60
1000
0000
1000
0000
,  // measure 61
0100
0000
0100
0000
,  // measure 62
0010
0000
0010
0000
,  // measure 63
0100
0000
0100
0000
,  // measure 64
0010
0000
0010
0000
,  // measure 65
0001
0000
0001
0000
,  // measure 66
1000
0000
1000
0000
,  // measure 67
0001
0000
0001
0000
,  // measure 68
1000
0000
0001
0000
,  // measure 69
1000
0000
0100
0000
,  // measure 70
0001
0000
0100
0000
,  // measure 71
1000
0000
0010
0000
,  // measure 72
0001
0000
0010
0000
,  // measure 73
2000
0000
0000
0000
,  // measure 74
0000
0000
0000
0000
,  // measure 75
0000
0000
0000
0000
,  // measure 76
3000
0000
0000
0000
,  // measure 77
0200
0000
0000
0000
,  // measure 78
0000
0000
0000
0000
,  // measure 79
0000
0000
0000
0000
,  // measure 80
0300
0000
0000
0000
,  // measure 81
0002
0000
0000
0000
,  // measure 82
0000
0000
0000
0000
,  // measure 83
0000
0000
0000
0000
,  // measure 84
0003
0000
0000
0000
,  // measure 85
0020
0000
0000
0000
,  // measure 86
0000
0000
0000
0000
,  // measure 87
0000
0000
0000
0000
,  // measure 88
0030
0000
0000
0000
,  // measure 89
0200
0000
0000
0000
,  // measure 90
0000
0000
0000
0000
,  // measure 91
0000
0000
0000
0000
,  // measure 92
0300
0000
0000
0000
;

//---------------dance-single - ----------------
#NOTEDATA:;
#CHARTNAME:;
#STEPSTYPE:dance-single;
#DESCRIPTION:;
#CHARTSTYLE:;
#DIFFICULTY:Easy;
#METER:5;
#RADARVALUES:0.199243,0.356423,0.017219,0.292715,0.008609,162.000000,160.000000,2.000000,34.000000,0.000000,0.000000,0.000000,0.000000,0.000000,0.199243,0.356423,0.017219,0.292715,0.008609,162.000000,160.000000,2.000000,34.000000,0.000000,0.000000,0.000000,0.000000,0.000000;
#CREDIT:led_light;
#NOTES:
// measure 0
0000
0000
0000
0000
,  // measure 1
0000
0000
0000
0000
,  // measure 2
0000
0000
0000
0000
,  // measure 3
0000
0000
0000
0000
,  // measure 4
0000
0000
0000
0000
,  // measure 5
0000
0000
0000
0000
,  // measure 6
0000
0000
0000
0000
,  // measure 7
0000
0000
0000
0000
,  // measure 8
0000
0000
0000
0000
,  // measure 9
2000
0000
0000
0000
,  // measure 10
0000
0000
0000
0000
,  // measure 11
0002
0000
0000
0000
,  // measure 12
0000
0000
3003
0000
,  // measure 13
0002
0000
0000
0000
,  // measure 14
0000
0000
0000
0000
,  // measure 15
2000
0000
0000
0000
,  // measure 16
0000
0000
3003
0000
,  // measure 17
1000
0001
0000
0001
,  // measure 18
1000
0100
0000
0100
,  // measure 19
0010
0001
0000
0001
,  // measure 20
0100
0010
0000
0010
,  // measure 21
1000
0100
1000
0001
,  // measure 22
1000
0100
1000
0010
,  // measure 23
0100
0001
2000
0000
,  // measure 24
3010
0100
0001
1000
,  // measure 25
0001
0010
1000
0010
,  // measure 26
0001
0010
1000
0010
,  // measure 27
0001
1000
0010
0001
,  // measure 28
0010
1000
0010
0010
,  // measure 29
1000
0100
0001
0100
,  // measure 30
1000
0100
0001
0100
,  // measure 31
1000
0001
0100
1000
,  // measure 32
0100
0001
0100
0100
,  // measure 33
0002
0000
0000
0000
,  // measure 34
2003
0000
0000
0000
,  // measure 35
3200
0000
0000
0000
,  // measure 36
0302
0000
0000
0000
,  // measure 37
2003
0000
0000
0000
,  // measure 38
3020
0000
0000
0000
,  // measure 39
0032
0000
0000
0000
,  // measure 40
2003
0000
0000
0000
,  // measure 41
3020
0000
0000
0000
,  // measure 42
0032
0000
0000
0000
,  // measure 43
2003
0000
0000
0000
,  // measure 44
3200
0000
0000
0000
,  // measure 45
0302
0000
0000
0000
,  // measure 46
2003
0000
0000
0000
,  // measure 47
3200
0000
0000
0000
,  // measure 48
0320
0000
0000
0030
,  // measure 49
2001
0000
0000
0000
,  // measure 50
0100
0000
0000
0100
0000
0000
0000
0000
0000
0000
0000
0000
3000
0000
0000
0000
,  // measure 51
1002
0000
0000
0000
,  // measure 52
0100
0000
0000
0100
0000
0000
0000
0000
0000
0000
0000
0000
0003
0000
0000
0000
,  // measure 53
2000
0000
0000
0000
,  // measure 54
0000
0000
0000
0000
,  // measure 55
0002
0000
0000
0000
,  // measure 56
0000
0000
3003
0000
,  // measure 57
0001
0100
1000
0100
,  // measure 58
0001
0010
1000
0010
,  // measure 59
0001
1000
0010
0100
,  // measure 60
0010
1000
0100
0010
,  // measure 61
0001
0001
1000
1000
,  // measure 62
0001
0100
0010
1000
,  // measure 63
0001
0001
1000
1000
,  // measure 64
0001
0010
0100
1000
,  // measure 65
0001
0010
1000
0010
,  // measure 66
0001
0100
1000
0100
,  // measure 67
0001
0001
1000
1000
,  // measure 68
0100
0100
0010
0010
,  // measure 69
0100
1000
0001
0010
,  // measure 70
0001
0100
0010
1000
,  // measure 71
0010
0100
0001
1000
,  // measure 72
0001
0010
0100
1000
,  // measure 73
0002
0000
0000
0000
,  // measure 74
0000
0000
0000
0000
,  // measure 75
2000
0000
0000
0000
,  // measure 76
0000
0000
3003
0000
,  // measure 77
0200
0000
0000
0000
,  // measure 78
0000
0000
0000
0000
,  // measure 79
0020
0000
0000
0000
,  // measure 80
0000
0000
0330
0000
,  // measure 81
2000
0000
0000
0000
,  // measure 82
0000
0000
0000
0000
,  // measure 83
0002
0000
0000
0000
,  // measure 84
0000
0000
3003
0000
,  // measure 85
0020
0000
0000
0000
,  // measure 86
0000
0000
0000
0000
,  // measure 87
0200
0000
0000
0000
,  // measure 88
0000
0000
0330
0000
,  // measure 89
0002
0000
0000
0000
,  // measure 90
0000
0000
0000
0000
,  // measure 91
0000
0000
0000
0000
,  // measure 92
0003
0000
0000
0000
;

//---------------dance-single - ----------------
#NOTEDATA:;
#CHARTNAME:;
#STEPSTYPE:dance-single;
#DESCRIPTION:;
#CHARTSTYLE:;
#DIFFICULTY:Challenge;
#METER:16;
#RADARVALUES:0.726868,1.188078,0.068874,0.542383,0.473509,591.000000,583.000000,8.000000,63.000000,0.000000,0.000000,0.000000,0.000000,0.000000,0.726868,1.188078,0.068874,0.542383,0.473509,591.000000,583.000000,8.000000,63.000000,0.000000,0.000000,0.000000,0.000000,0.000000;
#CREDIT:led_light;
#NOTES:
// measure 0
0000
0000
0000
0000
,  // measure 1
0000
0000
0000
0000
,  // measure 2
0000
0000
0000
0000
,  // measure 3
0000
0000
0000
0000
,  // measure 4
0000
0000
0000
0000
,  // measure 5
0000
0000
0000
0000
,  // measure 6
0000
0000
0000
0000
,  // measure 7
0000
0000
0000
0000
,  // measure 8
0000
0000
0000
0000
,  // measure 9
2000
0000
3200
0000
,  // measure 10
0320
0000
0032
0000
,  // measure 11
2003
0000
3200
0000
,  // measure 12
0320
0000
0032
0000
,  // measure 13
0203
0000
0320
0000
,  // measure 14
2030
0000
3002
0000
,  // measure 15
0203
0000
0320
0000
,  // measure 16
2030
0000
0000
0000
0000
0000
0000
0000
3001
0100
0001
0100
0001
0100
0001
0100
,  // measure 17
0010
0000
1000
0000
0001
0000
1000
0100
1000
0100
1000
0000
0001
0000
1000
0010
,  // measure 18
0100
0000
0010
0000
1000
0000
0001
0010
0001
0010
0001
0000
1000
0000
0100
0010
,  // measure 19
0001
0000
1000
0000
0100
0000
1000
0001
1000
0001
1000
0000
0001
0000
0100
0010
,  // measure 20
1000
0000
0010
0000
0100
0000
0001
0100
0001
0100
0001
0000
1000
0100
1000
0100
,  // measure 21
0010
0000
0001
1000
0100
1000
0100
1000
0001
0100
0001
0000
1000
0010
1000
0001
,  // measure 22
0100
0000
0100
0000
1000
0000
1000
0000
0100
0000
0100
0000
0001
0000
1000
0001
,  // measure 23
0010
0000
0010
0000
0100
0000
0100
0010
0002
0000
0000
0000
0000
0000
0000
0000
,  // measure 24
1003
0000
0010
0100
0010
0001
0010
0000
1000
0000
0001
0000
1000
0000
0001
0000
,  // measure 25
1001
0000
0000
0000
1000
0000
0001
0010
0001
1000
0100
0000
1000
0000
0001
1000
,  // measure 26
0001
0000
1000
0000
0010
0000
0100
0001
0100
0001
0100
0000
0010
0000
1000
0001
,  // measure 27
0100
0000
0001
0000
1000
0000
0001
1000
0100
0010
0001
0000
1000
0000
0001
0010
,  // measure 28
0001
0000
0010
0000
0100
1000
0100
1000
0001
1000
0001
0000
1000
0010
1000
0010
,  // measure 29
0100
0000
0001
0100
0001
0100
0001
1000
0100
1000
0100
0000
1000
0001
1000
0001
,  // measure 30
0010
0100
0010
0000
0001
1000
0100
1000
0001
0100
0001
0100
0010
1000
0010
0000
,  // measure 31
0100
0000
0100
0000
1000
0000
1000
0100
0020
0000
0000
0000
1000
0000
0000
0000
,  // measure 32
0031
0000
0010
0100
0010
0100
0010
0000
1000
0000
1000
0000
0001
0000
0001
0000
,  // measure 33
1000
0100
1000
0100
0001
0100
0001
0100
,  // measure 34
0010
1000
0010
1000
0010
0001
0010
0001
,  // measure 35
1000
0010
1000
0010
0001
0010
0001
0010
,  // measure 36
0100
1000
0100
1000
0100
0001
0100
0001
,  // measure 37
1000
0100
1000
0100
0010
1000
0010
1000
,  // measure 38
0001
0100
0001
0100
0010
0001
0010
0001
,  // measure 39
1000
0010
1000
0010
0100
1000
0100
1000
,  // measure 40
0001
0010
0001
0010
0100
0001
0100
0001
,  // measure 41
1000
0100
1000
0010
0100
0001
1000
0010
,  // measure 42
0100
0001
0100
0010
1000
0100
0010
0001
,  // measure 43
1000
0010
1000
0100
0010
0001
1000
0100
,  // measure 44
0010
0001
0010
0100
1000
0010
0100
0001
,  // measure 45
0010
0100
1000
0001
1000
0100
0010
0001
,  // measure 46
1000
0001
0010
0100
1000
0100
0010
0001
,  // measure 47
0100
0010
1000
0001
1000
0010
0100
0001
,  // measure 48
1000
0001
0100
0010
1000
0010
0100
0001
,  // measure 49
0101
0001
1000
0100
0010
0100
1000
0001
,  // measure 50
1001
0000
0000
0011
0000
0000
0001
0000
0100
0000
0010
0000
1000
0000
0100
0000
,  // measure 51
1100
1000
0001
0100
0010
0100
0001
1000
,  // measure 52
1001
0000
0000
1010
0000
0000
2100
0000
0000
0000
3001
0100
0010
1000
0010
1000
,  // measure 53
0002
0000
0203
0000
,  // measure 54
0320
0000
2030
0000
,  // measure 55
3200
0000
0320
0000
,  // measure 56
0032
0000
0000
0000
0000
0000
0000
0000
0103
0010
0100
0010
0100
0010
0100
0010
,  // measure 57
1000
0000
0001
0000
0010
0000
0100
1000
0001
0100
0001
0000
1000
0000
0010
0100
,  // measure 58
0001
1000
0010
0000
0100
0000
0001
1000
0001
1000
0001
0000
1000
0000
0100
0010
,  // measure 59
0001
0000
0010
0000
0100
0000
1000
0001
1000
0001
0010
0000
0001
1000
0010
0100
,  // measure 60
0001
0000
0100
0000
0010
0000
1000
0100
1000
0100
1000
0000
0001
0000
1000
0010
,  // measure 61
0100
0010
1000
1000
0001
0001
0020
0000
,  // measure 62
0130
0100
2000
0000
3001
1000
0010
0100
,  // measure 63
0001
0100
0001
0100
0020
0000
0000
1030
0100
1000
0000
0100
1000
0000
0001
0000
,  // measure 64
0100
0000
0010
0000
0100
0000
0001
0000
1000
0100
0000
1000
0100
0000
0010
0001
,  // measure 65
1000
0000
0001
0000
1000
0000
0010
0100
0001
0100
0001
0000
1000
0000
1000
0000
,  // measure 66
0100
0000
0100
0000
0010
0000
0001
1000
0100
1000
0100
0000
1000
0000
0001
1000
,  // measure 67
0010
0000
0100
0000
0010
0000
1000
0001
1000
0001
0100
0000
0001
0000
0001
1000
,  // measure 68
0100
0000
0100
0000
0001
0000
0100
0010
0100
0010
0000
0100
2000
0000
0000
0000
,  // measure 69
3001
0000
0010
0000
0100
0000
1000
0001
0010
0001
0000
0001
1000
0000
1000
0000
,  // measure 70
0010
0000
0010
0000
0100
0000
0100
0000
0001
1000
0010
0000
1000
0000
0001
0010
,  // measure 71
0001
0000
1000
0000
0010
0000
0100
0001
0100
0001
0000
0001
2000
0000
0000
0000
,  // measure 72
3010
0000
0100
0000
0010
0000
1000
0100
0010
0001
0000
0010
0001
0000
0010
0100
,  // measure 73
2000
0100
3200
0010
,  // measure 74
0320
0001
0032
1000
,  // measure 75
2003
0100
3200
0010
,  // measure 76
0320
0001
0032
1000
,  // measure 77
2003
0010
3020
0100
,  // measure 78
0230
0001
0302
1000
,  // measure 79
2003
0010
3020
0100
,  // measure 80
0230
0001
0302
1000
,  // measure 81
2003
0000
3200
0000
,  // measure 82
0320
0000
0032
0000
,  // measure 83
2003
0000
3200
0000
,  // measure 84
0320
0000
0032
0000
,  // measure 85
2003
0000
3020
0000
,  // measure 86
0230
0000
0302
0000
,  // measure 87
2003
0000
3020
0000
,  // measure 88
0230
0000
0302
0000
,  // measure 89
2000
0000
0000
0000
,  // measure 90
0000
0000
0000
0000
,  // measure 91
0000
0000
0000
0000
,  // measure 92
3003
0000
0000
0000
;

//---------------dance-single - ----------------
#NOTEDATA:;
#CHARTNAME:;
#STEPSTYPE:dance-single;
#DESCRIPTION:;
#CHARTSTYLE:;
#DIFFICULTY:Medium;
#METER:8;
#RADARVALUES:0.349290,0.554436,0.017219,0.860926,0.008609,284.000000,282.000000,2.000000,100.000000,0.000000,0.000000,0.000000,0.000000,0.000000,0.349290,0.554436,0.017219,0.860926,0.008609,284.000000,282.000000,2.000000,100.000000,0.000000,0.000000,0.000000,0.000000,0.000000;
#CREDIT:led_light;
#NOTES:
// measure 0
0000
0000
0000
0000
,  // measure 1
0000
0000
0000
0000
,  // measure 2
0000
0000
0000
0000
,  // measure 3
0000
0000
0000
0000
,  // measure 4
0000
0000
0000
0000
,  // measure 5
0000
0000
0000
0000
,  // measure 6
0000
0000
0000
0000
,  // measure 7
0000
0000
0000
0000
,  // measure 8
0000
0000
0000
0000
,  // measure 9
0002
0000
0000
0000
,  // measure 10
0023
0000
0000
0000
,  // measure 11
2030
0000
0000
0000
,  // measure 12
3200
0000
0000
0000
,  // measure 13
0302
0000
0000
0000
,  // measure 14
0203
0000
0000
0000
,  // measure 15
2300
0000
0000
0000
,  // measure 16
3020
0000
0000
0000
,  // measure 17
0031
0000
0100
0000
0010
0100
0001
0000
,  // measure 18
1000
0000
0100
0000
0010
0100
1000
0000
,  // measure 19
0100
0000
0010
0000
0001
1000
0010
0000
,  // measure 20
0100
0000
0010
0000
1000
0001
0100
0000
,  // measure 21
0001
1000
0001
0000
1000
0100
1000
0000
,  // measure 22
0001
0010
0001
0000
1000
0000
1000
0000
,  // measure 23
0001
0010
0100
0000
0200
0000
0000
0000
,  // measure 24
1300
0000
0001
0000
1000
0100
1000
0100
,  // measure 25
0010
0000
0000
0001
0100
0001
0100
0000
,  // measure 26
0000
1000
0100
1000
0100
0000
0001
0000
,  // measure 27
1000
0000
0000
0001
0010
0001
0010
0000
,  // measure 28
0000
1000
0010
1000
0010
0000
0001
0000
,  // measure 29
1000
0000
0100
0010
0001
0010
0001
0000
,  // measure 30
1000
0100
1000
0001
0100
0000
0010
0000
,  // measure 31
1000
0000
0010
0100
0002
0000
0100
0000
,  // measure 32
1003
0010
1000
0001
0010
0000
0100
0000
,  // measure 33
2000
3200
0320
0032
,  // measure 34
2003
3200
0320
0032
,  // measure 35
2003
3020
0230
0302
,  // measure 36
2003
3020
0230
0302
,  // measure 37
0023
0230
2300
3002
,  // measure 38
0023
0230
2300
3002
,  // measure 39
0203
0320
2030
3002
,  // measure 40
0203
0320
2030
3002
,  // measure 41
2003
3200
0302
0203
,  // measure 42
2300
3200
0302
0203
,  // measure 43
2300
3020
0032
0023
,  // measure 44
2030
3020
0032
0023
,  // measure 45
2030
3200
0302
2003
,  // measure 46
3020
0032
2003
3200
,  // measure 47
2300
3020
0032
2003
,  // measure 48
3200
0302
2003
3010
,  // measure 49
0210
0000
0000
0000
0000
0000
0300
0001
,  // measure 50
1000
0000
0000
1000
0000
0000
0000
0000
0001
0000
0000
0000
0010
0000
0000
0000
,  // measure 51
0210
0000
0000
0000
0000
0000
0300
1000
,  // measure 52
0001
0000
0000
0001
0000
0000
2000
0000
0000
0000
3001
0000
0100
0000
0010
0000
,  // measure 53
2000
0000
0000
0000
,  // measure 54
3200
0000
0000
0000
,  // measure 55
0320
0000
0000
0000
,  // measure 56
0032
0000
2003
0000
,  // measure 57
3001
0000
1000
0000
0010
0100
0100
0000
,  // measure 58
0001
1000
0001
0000
0010
0100
0010
0000
,  // measure 59
0001
0000
1000
0000
0010
0100
0001
1000
,  // measure 60
0010
0000
0100
0000
0001
1000
0100
0010
,  // measure 61
0010
0001
2000
0100
,  // measure 62
3010
0000
0010
0000
0100
0001
0100
0000
,  // measure 63
0001
0010
0001
0000
1000
0100
1000
0000
,  // measure 64
0001
0100
0010
0000
0100
0001
1000
0001
,  // measure 65
1000
0000
0001
0000
0010
0000
0100
1000
,  // measure 66
0100
1000
0001
0000
0010
0100
0010
0000
,  // measure 67
0001
0000
1000
0000
0010
0100
0010
0000
,  // measure 68
1000
0100
1000
0000
0001
1000
0020
0000
,  // measure 69
0130
0000
0001
0000
1000
0100
0100
0000
,  // measure 70
0001
0000
0100
0000
1000
0001
0001
0000
,  // measure 71
1000
0010
1000
0000
0001
0100
0001
0000
,  // measure 72
1000
0100
0010
0000
0100
1000
0001
1000
,  // measure 73
0002
0000
0000
0000
,  // measure 74
2003
0000
0000
0000
,  // measure 75
3020
0000
0000
0000
,  // measure 76
0032
0000
0000
0000
,  // measure 77
2003
0000
0000
0000
,  // measure 78
3200
0000
0000
0000
,  // measure 79
0320
0000
0000
0000
,  // measure 80
2030
0000
0000
0000
,  // measure 81
3002
0000
0000
0000
,  // measure 82
2003
0000
0000
0000
,  // measure 83
3200
0000
0000
0000
,  // measure 84
0302
0000
0000
0000
,  // measure 85
2003
0000
0000
0000
,  // measure 86
3020
0000
0000
0000
,  // measure 87
0230
0000
0000
0000
,  // measure 88
2300
0000
0000
0000
,  // measure 89
0002
0000
0000
0000
,  // measure 90
0000
0000
0000
0000
,  // measure 91
0000
0000
0000
0000
,  // measure 92
3003
0000
0000
0000
;

//---------------dance-single - ----------------
#NOTEDATA:;
#CHARTNAME:;
#STEPSTYPE:dance-single;
#DESCRIPTION:;
#CHARTSTYLE:;
#DIFFICULTY:Hard;
#METER:12;
#RADARVALUES:0.546073,0.712847,0.086093,0.430463,0.008609,444.000000,434.000000,10.000000,50.000000,0.000000,0.000000,0.000000,0.000000,0.000000,0.546073,0.712847,0.086093,0.430463,0.008609,444.000000,434.000000,10.000000,50.000000,0.000000,0.000000,0.000000,0.000000,0.000000;
#CREDIT:led_light;
#NOTES:
// measure 0
0000
0000
0000
0000
,  // measure 1
0000
0000
0000
0000
,  // measure 2
0000
0000
0000
0000
,  // measure 3
0000
0000
0000
0000
,  // measure 4
0000
0000
0000
0000
,  // measure 5
0000
0000
0000
0000
,  // measure 6
0000
0000
0000
0000
,  // measure 7
0000
0000
0000
0000
,  // measure 8
0000
0000
0000
0000
,  // measure 9
0002
0000
0023
0000
,  // measure 10
0230
0000
2300
0000
,  // measure 11
3002
0000
0023
0000
,  // measure 12
0230
0000
2300
0000
,  // measure 13
3020
0000
0230
0000
,  // measure 14
0302
0000
2003
0000
,  // measure 15
3020
0000
0230
0000
,  // measure 16
0302
0000
0000
0000
1003
0100
1000
0100
,  // measure 17
0010
0001
1000
0100
1000
1000
0001
0100
,  // measure 18
0010
0100
0001
1000
0100
0100
0010
0001
,  // measure 19
1000
0100
1000
0010
0100
0100
0001
1000
,  // measure 20
0100
0001
0100
1000
0001
0010
0200
0000
,  // measure 21
1300
0001
0020
0000
0031
1000
0020
0000
,  // measure 22
1030
0100
0010
0010
0001
0100
0010
1000
,  // measure 23
0001
0010
0100
0010
0002
0000
0000
0000
,  // measure 24
1003
0010
0100
1000
0100
0100
0010
0010
,  // measure 25
1010
0000
0001
0010
1000
0010
0001
0000
,  // measure 26
1000
0100
0001
0100
1000
0100
0001
0000
,  // measure 27
1100
0000
1000
0010
0001
0010
1000
0000
,  // measure 28
0001
0100
1000
0100
0001
1000
0010
0100
,  // measure 29
0101
0000
1000
0100
0001
0100
1000
0000
,  // measure 30
0001
0010
1000
0010
0001
0010
1000
0000
,  // measure 31
0011
0000
0001
0100
1000
0100
0001
0000
,  // measure 32
1000
0010
0001
0010
1000
0001
0100
0010
,  // measure 33
1000
0100
1000
0100
0010
0001
0010
0001
,  // measure 34
1000
0100
1000
0100
0010
0001
0010
0001
,  // measure 35
1000
0010
1000
0010
0100
0001
0100
0001
,  // measure 36
1000
0010
1000
0010
0100
0001
0100
0001
,  // measure 37
1000
0100
1000
0100
0001
0100
0001
0100
,  // measure 38
1000
0001
1000
0001
0100
0010
0100
0010
,  // measure 39
1000
0010
1000
0010
0001
0010
0001
0010
,  // measure 40
1000
0001
1000
0001
0010
0100
0010
0100
,  // measure 41
1000
0100
1000
0001
0010
0100
1000
0001
,  // measure 42
1000
0100
1000
0001
0010
0100
1000
0001
,  // measure 43
1000
0010
1000
0001
0100
0010
1000
0001
,  // measure 44
1000
0010
1000
0001
0100
0010
1000
0001
,  // measure 45
0010
0100
1000
0001
1000
0100
1000
0001
,  // measure 46
0010
0100
1000
0001
1000
0100
0010
0001
,  // measure 47
0100
0010
1000
0001
1000
0010
1000
0001
,  // measure 48
0100
0010
1000
0001
1000
0010
0100
0001
,  // measure 49
0021
0000
0130
1000
0001
1000
0010
0100
,  // measure 50
0101
0000
0000
0101
0000
0000
0001
0000
1000
0000
0100
0000
0010
0000
0000
0000
,  // measure 51
1200
0000
0310
0001
1000
0001
0100
0010
,  // measure 52
1010
0000
0000
1010
0000
0000
2000
0000
0000
0000
3001
0000
0010
0000
0100
0000
,  // measure 53
2000
0000
3002
0000
,  // measure 54
0023
0000
0230
0000
,  // measure 55
2300
0000
3020
0000
,  // measure 56
0230
0000
0000
0000
0301
1000
0001
1000
,  // measure 57
0001
0010
0100
0010
0001
0001
1000
0010
,  // measure 58
0100
0010
1000
0001
0010
0010
0100
1000
,  // measure 59
0001
0010
0001
1000
0100
0010
0001
0001
,  // measure 60
1000
0010
0100
0010
0001
0010
0100
0001
,  // measure 61
1000
0100
2000
0000
3001
0010
0002
0000
,  // measure 62
1003
0100
2000
0000
3001
0100
0002
0000
,  // measure 63
1003
1000
0010
0000
0001
0001
0010
0000
,  // measure 64
1000
0100
0010
0001
1000
0100
0010
0001
,  // measure 65
1000
0100
0010
0100
1000
0001
0100
0100
,  // measure 66
0010
0100
0001
1000
0100
0010
0001
0001
,  // measure 67
1000
0100
1000
0001
0010
0100
1000
1000
,  // measure 68
0001
0100
0010
0100
1000
0100
0010
1000
,  // measure 69
0001
0010
0001
0001
1000
0100
1000
1000
,  // measure 70
0001
0010
0001
0001
1000
0010
1000
1000
,  // measure 71
0001
0001
0100
0100
1000
1000
0100
0000
,  // measure 72
0001
0010
0100
1000
0001
0010
0100
1000
,  // measure 73
0002
0000
0000
0000
,  // measure 74
0023
0000
0000
0000
,  // measure 75
0230
0000
0000
0000
,  // measure 76
2300
0000
0000
0000
,  // measure 77
3020
0000
0000
0000
,  // measure 78
0032
0000
0000
0000
,  // measure 79
0203
0000
0000
0000
,  // measure 80
2300
0000
0000
0000
,  // measure 81
3002
0000
0000
0000
,  // measure 82
0203
0000
0000
0000
,  // measure 83
0320
0000
0000
0000
,  // measure 84
2030
0000
0000
0000
,  // measure 85
3200
0000
0000
0000
,  // measure 86
0302
0000
0000
0000
,  // measure 87
0023
0000
0000
0000
,  // measure 88
2030
0000
0000
0000
,  // measure 89
0002
0000
0000
0000
,  // measure 90
0000
0000
0000
0000
,  // measure 91
0000
0000
0000
0000
,  // measure 92
3003
0000
0000
0000
;
