#TITLE:Senpai;
#SUBTITLE:;
#ARTIST:Kawai Sprite;
#TITLETRANSLIT:;
#SUBTITLETRANSLIT:;
#ARTISTTRANSLIT:;
#GENRE:Friday Night Funkin';
#CREDIT:;
#BANNER:Senpai.png;
#BACKGROUND:../bg.png;
#LYRICSPATH:;
#CDTITLE:../cdtitle.png;
#MUSIC:Senpai.ogg;
#OFFSET:-0.002000;
#SAMPLESTART:1.668000;
#SAMPLELENGTH:15.000000;
#SELECTABLE:YES;
#BPMS:0.000000=144.000000
;
#STOPS:
;
#BGCHANGES: -1.000=Senpai.avi=1.000=0=0=0=StretchNoLoop====,
99999=-nosongbg-=1.000=0=0=0 // don't automatically add -songbackground-
;
#KEYSOUNDS:;
#ATTACKS:;

//---------------dance-single - ----------------
#NOTES:
     dance-single:
     :
     Hard:
     12:
     0.512728,0.520268,0.030160,0.412193,0.020107,357.000000,354.000000,3.000000,41.000000,0.000000,0.000000,0.512728,0.520268,0.030160,0.412193,0.020107,357.000000,354.000000,3.000000,41.000000,0.000000,0.000000:
0000
0000
0000
0000
,
0001
0000
0001
1000
0010
0000
0100
0000
,
0002
0000
0013
0200
0010
0000
0010
0000
,
1300
0000
1000
0001
0100
0000
0010
0000
,
2000
0000
3100
0010
0100
0010
0001
0000
,
1000
0000
1000
0001
0010
0000
0100
0000
,
1000
0000
1000
0010
0100
0010
1001
0000
,
0002
0000
0023
0000
0130
1000
0010
0000
,
1000
0100
0010
0001
0100
0010
1000
0001
,
1000
0100
0002
0103
,
2000
0000
3100
0010
0000
0010
0100
0000
,
2000
0000
3010
0200
0010
0000
0310
0000
,
1000
0000
0001
0010
0000
0100
0010
0000
,
0001
0100
2000
3100
,
0002
0000
0103
0010
0000
0010
0100
0000
,
0002
0000
0013
0200
0010
0000
0310
0000
,
0001
0000
1000
0010
0000
0100
0010
0000
,
1000
0001
1000
0100
1000
0010
1000
0001
,
0010
0100
0010
0001
0010
1000
0010
0001
,
2000
0000
3010
0002
0010
0000
0013
0000
,
1000
0000
0010
0100
0010
0100
0001
0000
,
1000
0001
1000
0010
1000
0100
0010
0001
,
0100
0000
0010
0000
1000
0001
0010
0000
,
0002
0000
0103
0020
1000
0000
1030
0000
,
0001
0000
0010
0100
0010
0100
1000
0000
,
1001
0000
0001
1000
0020
0000
1030
0001
,
0020
0000
0130
0010
0000
0010
0100
0010
,
0002
0000
0103
0010
1000
0001
0100
0010
,
1000
0001
1000
0100
0010
0001
0100
0010
,
1000
0000
0001
1000
0200
0000
1300
0001
,
0200
0000
0310
0100
0000
0100
0010
0100
,
0002
0000
0013
0100
1000
0001
0010
0100
,
1000
0001
1000
0010
0100
0001
0010
0100
,
1000
0000
1000
0001
0010
0000
0100
0000
,
2000
0000
3010
0200
0010
0000
0010
0000
,
0301
0000
0001
1000
0100
0000
0010
0000
,
0002
0000
0103
0010
0100
0010
1000
0000
,
0001
0000
0001
1000
0010
0000
0100
0000
,
0001
0000
0001
0010
0100
0010
1001
0000
,
2000
0000
3020
0000
0130
0001
0010
0000
,
0001
0100
0010
1000
0100
0010
0001
1000
,
0010
0010
0100
0010
1000
1000
0100
1000
,
0001
0001
0100
0001
1000
0100
0020
0000
,
0130
0100
0010
0100
1000
1000
0010
1000
,
0001
0001
0010
0001
1000
0010
0200
0000
,
0310
0000
1000
0000
0001
0000
0010
0001
0010
0000
0100
0000
1000
0000
0010
1000
,
0010
0100
0001
0010
0100
0010
0002
0000
,
0103
0000
0001
0000
1000
0000
0100
1000
0100
0000
0010
0000
0001
0000
0100
0001
,
0100
0010
1000
0100
0010
0100
2000
0000
,
3002
0000
0103
0100
0020
0000
0130
0100
,
0002
0000
0103
0010
1000
0010
1000
0001
,
2000
0000
3100
0010
0100
1000
0010
0001
,
0010
1000
0100
0100
0001
0100
1000
0001
,
2000
0000
3010
0010
0200
0000
0310
0010
,
2000
0000
3010
0100
0001
0100
0001
1000
,
0002
0000
0013
0100
0010
0001
0100
1000
,
0100
0001
0010
0010
1000
0010
0001
1000
,
0002
0000
0003
0000
;

//---------------dance-single - ----------------
#NOTES:
     dance-single:
     :
     Medium:
     9:
     0.420810,0.404653,0.010053,0.221177,0.000000,293.000000,292.000000,1.000000,22.000000,0.000000,0.000000,0.420810,0.404653,0.010053,0.221177,0.000000,293.000000,292.000000,1.000000,22.000000,0.000000,0.000000:
0000
0000
0000
0000
,
0001
0001
1000
0010
,
0200
0000
0301
0020
0100
0000
0130
0000
,
1000
1000
0001
0010
,
0100
0000
1000
0010
0000
0010
0100
0000
,
0001
0001
1000
0100
,
0010
0000
0001
0100
0000
0100
0001
0000
,
1000
0000
1000
0000
0100
0010
0001
0000
,
1000
0100
0010
0000
0001
0100
0010
0000
,
1000
0100
0001
0100
,
1000
0000
0100
0000
0010
0001
0010
0000
,
0001
0000
0100
0020
1000
0000
1030
0000
,
0001
0000
0100
0010
0000
1000
0001
0000
,
1000
0010
0001
0010
,
1000
0000
0010
0000
0100
0001
0100
0000
,
0001
0000
0010
0200
1000
0000
1300
0000
,
0001
0000
0010
0100
0000
1000
0001
0000
,
1000
0100
1000
0000
0001
0100
0001
0000
,
1000
0010
0100
0001
,
0010
0000
0100
0020
0100
0000
0130
0000
,
0010
0000
0001
0000
0100
0010
1000
0000
,
0001
0010
0001
0000
1000
0010
1000
0000
,
0001
0000
0100
0000
0010
1000
0100
0000
,
0010
0000
0100
0020
0100
0000
0130
0000
,
1000
0000
1000
0000
0010
0100
0001
0000
,
1000
0000
0010
0100
0010
0000
1000
0002
,
0000
0013
0000
2000
0000
3100
0000
0001
,
2000
0000
3100
0010
0000
0100
1000
0100
,
0010
0001
0100
0000
0010
1000
0100
0000
,
1000
0000
0100
0010
0100
0000
1000
0002
,
0000
0103
0000
2000
0000
3010
0000
0001
,
2000
0000
3010
0100
0000
0010
1000
0010
,
0100
0001
0010
0000
0100
1000
0010
0000
,
1000
1000
0001
0010
,
0200
0000
1300
0020
0100
0000
0130
0000
,
0001
0001
1000
0010
,
0100
0000
0001
0010
0000
0010
0100
0000
,
1000
1000
0001
0100
,
0010
0000
1000
0100
0000
0100
1000
0000
,
0001
0000
0001
0000
0100
0010
1000
0000
,
0001
0100
0010
0000
1000
0100
0010
0000
,
0001
0100
0001
0000
0001
0100
0001
0000
,
0100
0010
1000
0000
0100
0010
0100
0000
,
1000
0100
1000
0000
1000
0100
1000
0000
,
0100
0010
0001
0000
0100
0010
0100
0000
,
0001
0010
1000
0000
0001
0100
1000
0000
,
0001
0010
1000
0000
0010
0100
0010
0000
,
0001
0100
1000
0000
0001
0010
1000
0000
,
0001
0100
1000
0000
0100
0010
0100
0000
,
0001
0000
0010
0100
0010
0000
0001
2000
,
0000
3010
0000
0002
0000
0103
0000
1000
,
0020
0000
1030
0100
0000
0100
0001
0100
,
1000
0100
0010
0000
0001
0100
0010
0000
,
1000
0000
0010
0100
0010
0000
1000
0002
,
0000
0013
0000
2000
0000
3100
0000
0001
,
0020
0000
0031
0100
0000
0100
1000
0100
,
0001
0100
0010
0000
1000
0100
0010
0000
,
2002
0000
3003
0000
;

//---------------dance-single - ----------------
#NOTES:
     dance-single:
     :
     Easy:
     6:
     0.262827,0.260134,0.000000,0.271444,0.000000,183.000000,183.000000,0.000000,27.000000,0.000000,0.000000,0.262827,0.260134,0.000000,0.271444,0.000000,183.000000,183.000000,0.000000,27.000000,0.000000,0.000000:
0000
0000
0000
0000
,
0001
0001
1000
0010
,
0200
0300
0002
0003
,
1000
1000
0100
0010
,
0001
0001
1000
1000
,
0010
0010
0100
0001
,
1000
0010
0100
0010
,
1000
1000
0100
0100
,
0001
0100
1000
0010
,
0000
0100
0002
0003
,
2000
3000
0100
0010
,
0002
0003
2000
3000
,
0100
0000
1000
1000
,
0000
0010
2000
3000
,
0002
0003
0010
0100
,
2000
3000
0002
0003
,
0010
0000
0001
0001
,
1000
1000
0010
0010
,
0001
0001
0100
0100
,
1000
0001
2000
3000
,
0200
0300
0020
0030
,
0001
0001
0100
0100
,
1000
1000
0010
0010
,
0001
1000
0002
0003
,
0020
0030
0200
0300
,
1000
1000
1000
0000
,
0002
0003
0200
0300
,
0010
0010
0010
0000
,
1000
0100
1000
0000
,
0001
0001
0001
0000
,
2000
3000
0020
0030
,
0100
0100
0100
0000
,
0001
0010
0001
0000
,
1000
1000
0001
0100
,
0020
0030
2000
3000
,
0001
0001
0010
0100
,
1000
1000
0001
0001
,
0100
0100
0010
1000
,
0001
0100
0010
0100
,
0001
0001
0010
0010
,
1000
0010
0001
0100
,
0010
0010
1000
1000
,
0010
0010
1000
0100
,
0010
0010
0001
0001
,
0010
0010
0001
0100
,
0010
1000
0100
1000
,
0010
1000
0100
0010
,
0010
0001
0100
0001
,
0010
0001
0100
0010
,
1000
1000
1000
0000
,
0002
0003
0020
0030
,
0100
0100
0100
0000
,
1000
0010
1000
0000
,
0001
0001
0001
0000
,
2000
3000
0200
0300
,
0010
0010
0010
0000
,
0001
0100
0001
0000
,
2000
0000
3000
0000
;

//---------------dance-single - ----------------
#NOTES:
     dance-single:
     :
     Beginner:
     3:
     0.133568,0.202326,0.000000,0.050267,0.000000,93.000000,93.000000,0.000000,5.000000,0.000000,0.000000,0.133568,0.202326,0.000000,0.050267,0.000000,93.000000,93.000000,0.000000,5.000000,0.000000,0.000000:
0000
0000
0000
0000
,
1000
0000
0100
0000
,
1000
0000
0000
0000
,
0001
0000
0100
0000
,
0001
0000
0000
0000
,
1000
0000
0100
0000
,
1000
0000
0000
0000
,
0010
0000
0100
0000
,
0010
0010
0010
0000
,
1000
0000
0000
0000
,
1000
0000
0000
0000
,
0001
0000
0000
0000
,
0010
0000
0000
0000
,
0100
0000
0000
0000
,
0100
0000
0000
0000
,
1000
0000
0000
0000
,
0001
0000
0000
0000
,
0100
0100
0100
0000
,
0100
0100
0100
0000
,
0002
0000
0003
0000
,
2000
0000
3000
0000
,
0010
0010
0010
0000
,
0010
0010
0010
0000
,
2000
0000
3000
0000
,
0002
0000
0003
0000
,
0010
0000
0010
0000
,
0100
0000
0000
0000
,
1000
0000
0010
0000
,
1000
0000
0000
0000
,
0010
0000
0010
0000
,
0100
0000
0000
0000
,
0001
0000
0010
0000
,
0001
0000
0000
0000
,
1000
0000
0010
0000
,
1000
0000
0000
0000
,
0001
0000
0010
0000
,
0001
0000
0000
0000
,
1000
0000
0010
0000
,
1000
0000
0000
0000
,
0100
0000
0010
0000
,
0100
0100
0100
0000
,
1000
0000
1000
0000
,
1000
0000
1000
0000
,
0001
0000
0001
0000
,
0001
0000
0001
0000
,
0100
0000
0100
0000
,
0100
0000
0100
0000
,
0010
0000
0010
0000
,
0010
0000
0010
0000
,
0100
0000
0100
0000
,
0010
0000
0000
0000
,
1000
0000
0100
0000
,
1000
0000
0000
0000
,
0100
0000
0100
0000
,
0010
0000
0000
0000
,
0001
0000
0100
0000
,
0001
0000
0000
0000
,
2000
0000
3000
0000
;

//---------------dance-single - FNF Hard----------------
#NOTES:
     dance-single:
     :
     Edit:
     12:
     0.468205,0.520268,0.020107,0.683637,0.110588,326.000000,324.000000,2.000000,68.000000,0.000000,0.000000,0.468205,0.520268,0.020107,0.683637,0.110588,326.000000,324.000000,2.000000,68.000000,0.000000,0.000000:
// measure 0
0000
0000
0000
0000
,  // measure 1
0001
0000
0000
0000
0001
0000
1000
0000
0020
0000
0000
0030
0100
0000
0000
0000
,  // measure 2
0002
0000
0000
0003
0000
0000
0200
0000
0000
0000
0000
0000
0300
0000
0000
0000
,  // measure 3
0001
0000
0000
0000
0001
0000
1000
0000
0020
0000
0000
0030
0100
0000
0000
0000
,  // measure 4
0002
0000
0000
0003
0010
0000
0002
0000
0000
0003
0010
0000
0001
0000
0000
0000
,  // measure 5
0100
0000
0000
0000
0100
0000
1000
0000
0020
0000
0000
0030
0100
0000
0000
0000
,  // measure 6
0002
0000
0000
0003
0100
0000
2000
0000
0000
3000
0100
0000
1001
0000
0000
0000
,  // measure 7
1000
0000
0100
0000
0001
1000
0100
0000
,  // measure 8
0001
1000
0100
0001
0010
0001
1000
0010
,  // measure 9
0000
0000
0010
0000
0200
0000
0300
0002
,  // measure 10
0000
0000
0000
0000
0003
0000
1000
0010
0000
0000
0001
0000
0100
0000
0000
0000
,  // measure 11
0002
0000
0000
0003
0100
0000
2000
0000
0000
0000
0000
0000
0000
0000
3000
0000
,  // measure 12
0200
0000
0000
0300
0000
0000
2000
0000
0000
3000
0000
0000
0002
0000
0003
0000
,  // measure 13
0200
0300
0010
0000
0200
0000
0300
0002
,  // measure 14
0000
0000
0000
0000
0003
0000
1000
0010
0000
0000
0001
0000
0100
0000
0000
0000
,  // measure 15
0002
0000
0000
0003
0100
0000
2000
0000
0000
0000
0000
0000
0000
0000
3000
0000
,  // measure 16
0200
0000
0000
0300
0000
0000
2000
0000
0000
3000
0000
0000
0002
0000
0003
0000
,  // measure 17
1000
0001
0100
0001
1000
0000
0100
0000
0010
0000
1000
0000
0001
0000
1000
0000
,  // measure 18
0001
0000
0100
0000
0010
0001
2000
3000
,  // measure 19
0001
0000
0100
2000
0000
0000
3000
0002
,  // measure 20
0000
0003
0100
0001
0001
1000
0100
0000
,  // measure 21
1000
0001
0100
0001
1000
0000
0100
0000
0010
0000
1000
0000
0001
0000
1000
0000
,  // measure 22
0001
0000
0100
0000
0010
0001
2000
3000
,  // measure 23
0001
0000
0100
2000
0000
0000
3000
0002
,  // measure 24
0000
0003
0100
0001
0001
1000
0100
0000
,  // measure 25
0020
0000
0000
0030
1000
0100
1000
0100
0002
0000
0000
0003
0100
0000
2000
0000
,  // measure 26
0000
0000
0000
0000
3000
0000
0200
0000
0000
0300
0002
0000
0000
0003
1000
0000
,  // measure 27
0002
0000
0000
0003
1000
0000
0020
0000
0000
0030
1000
0000
0010
0000
1000
0000
,  // measure 28
0001
0000
0100
1000
0001
0000
0100
0000
0001
0000
0010
0000
0001
0000
1000
0000
,  // measure 29
0020
0000
0000
0030
1000
0100
1000
0100
0002
0000
0000
0003
0100
0000
2000
0000
,  // measure 30
0000
0000
0000
0000
3000
0000
0200
0000
0000
0300
0002
0000
0000
0003
1000
0000
,  // measure 31
0002
0000
0000
0003
1000
0000
0020
0000
0000
0030
1000
0000
0010
0000
1000
0000
,  // measure 32
0001
0000
0100
1000
0001
0000
0100
0000
0001
0000
0010
0000
0001
0000
1000
0000
,  // measure 33
0001
0000
0000
0000
0001
0000
1000
0000
0020
0000
0000
0030
0100
0000
0000
0000
,  // measure 34
0002
0000
0000
0003
0000
0000
0200
0000
0000
0000
0000
0000
0300
0000
0000
0000
,  // measure 35
0001
0000
0000
0000
0001
0000
1000
0000
0020
0000
0000
0030
0100
0000
0000
0000
,  // measure 36
0002
0000
0000
0003
0010
0000
0002
0000
0000
0003
0010
0000
0001
0000
0000
0000
,  // measure 37
0100
0000
0000
0000
0100
0000
1000
0000
0020
0000
0000
0030
0100
0000
0000
0000
,  // measure 38
0002
0000
0000
0003
0100
0000
2000
0000
0000
3000
0100
0000
1001
0000
0000
0000
,  // measure 39
1000
0000
0100
0000
0001
1000
0100
0000
,  // measure 40
0001
1000
0100
0001
0010
0001
1000
0010
,  // measure 41
0100
0001
1000
0001
0100
0001
1000
0001
,  // measure 42
0100
0001
1000
0001
0010
0001
1000
0000
,  // measure 43
0100
0001
1000
0001
0100
0001
1000
0001
,  // measure 44
0100
0001
1000
0001
0010
0001
1000
0000
,  // measure 45
1000
0000
0001
0000
0100
0000
0001
0010
1000
0000
0001
0000
0100
0000
0001
0010
,  // measure 46
1000
0001
0100
0001
0010
0001
1000
0000
,  // measure 47
1000
0000
0001
0000
0100
0000
0001
0010
1000
0000
0001
0000
0100
0000
0001
0010
,  // measure 48
1000
0001
0100
0001
0010
0001
1000
0000
,  // measure 49
0020
0000
0000
0030
1000
0100
1000
0100
0002
0000
0000
0003
0100
0000
2000
0000
,  // measure 50
0000
0000
0000
0000
3000
0000
0200
0000
0000
0300
0002
0000
0000
0003
1000
0000
,  // measure 51
0002
0000
0000
0003
1000
0000
0020
0000
0000
0030
1000
0000
0010
0000
1000
0000
,  // measure 52
0001
0000
0100
1000
0001
0000
0100
0000
0001
0000
0010
0000
0001
0000
1000
0000
,  // measure 53
0020
0000
0000
0030
1000
0100
1000
0100
0002
0000
0000
0003
0100
0000
2000
0000
,  // measure 54
0000
0000
0000
0000
3000
0000
0200
0000
0000
0300
0002
0000
0000
0003
1000
0000
,  // measure 55
0002
0000
0000
0003
1000
0000
0020
0000
0000
0030
1000
0000
0010
0000
1000
0000
,  // measure 56
0001
0000
0100
1000
0001
0000
0100
0000
0001
0000
0010
0000
0001
0000
1000
0000
,  // measure 57
0002
0000
0003
0000
;
