#TITLE:Senpai;
#SUBTITLE:[B-Side Remix];
#ARTIST:JADS;
#TITLETRANSLIT:;
#SUBTITLETRANSLIT:;
#ARTISTTRANSLIT:;
#GENRE:Friday Night Funkin';
#CREDIT:;
#BANNER:Senpai [B-Side Remix].png;
#BACKGROUND:../bg.png;
#LYRICSPATH:;
#CDTITLE:../cdtitle.png;
#MUSIC:Senpai [B-Side Remix].ogg;
#OFFSET:1.407000;
#SAMPLESTART:0.048000;
#SAMPLELENGTH:15.000000;
#LASTBEATHINT:1.119250;
#SELECTABLE:YES;
#BPMS:0.000000=165.000000
;
#STOPS:
;
#BGCHANGES:-99.000=Senpai [B-Side Remix].avi=1.000=0=0=1====#000000=,
-1.000=Senpai [B-Side Remix].avi=1.000=0=0=0=StretchNoLoop====,
99999=-nosongbg-=1.000=0=0=0 // don't automatically add -songbackground-
;
#KEYSOUNDS:;
#ATTACKS:;

//---------------dance-single - FNF Hard----------------
#NOTES:
     dance-single:
     :
     Edit:
     14:
     0.649366,0.833449,0.000000,0.927665,0.255108,392.000000,392.000000,0.000000,80.000000,0.000000,0.000000,0.649366,0.833449,0.000000,0.927665,0.255108,392.000000,392.000000,0.000000,80.000000,0.000000,0.000000:
// measure 0
0000
0000
0000
0000
,  // measure 1
0100
0000
0000
1000
0000
0000
0100
0000
0000
0010
0000
0000
0002
0000
0000
0000
0003
0000
2000
0000
0000
0000
3000
0000
,  // measure 2
0010
0000
0000
0001
0000
0000
0010
0000
0000
2000
0000
0000
0000
0000
0000
0000
0000
0000
0000
0000
3000
0000
0000
0000
,  // measure 3
0010
0000
0000
0001
0000
0000
0010
0000
0000
0100
0000
0000
2000
0000
0000
0000
3000
0000
0002
0000
0000
0000
0003
0000
,  // measure 4
0100
0000
0000
0000
0000
0000
1000
0000
0000
0000
0000
0000
0001
0000
0000
0000
0000
0000
0200
0000
0000
0000
0000
0000
0000
0000
0300
0000
0000
0000
0001
0000
0000
0001
0000
0000
0200
0000
0000
0000
0000
0000
0000
0000
0300
0000
0000
0000
,  // measure 5
0001
0000
0000
1000
0000
0000
0001
0000
0000
1000
0000
0000
0020
0000
0000
0000
0030
0000
0200
0000
0000
0000
0300
0000
,  // measure 6
0001
0000
0000
0001
0000
0000
1000
0000
0000
0020
0000
0000
0000
0030
0000
0100
0000
0000
2000
0000
0000
0000
3000
0000
,  // measure 7
0010
0000
0000
1000
0000
0000
1000
0000
0000
0001
0000
0000
1000
0000
0000
0001
0000
0000
0020
0000
0000
0000
0030
0000
,  // measure 8
0001
0001
0010
0000
1000
0000
0100
0000
0001
0000
1000
0000
0100
0000
0010
0000
,  // measure 9
0000
0000
0000
1000
0000
0000
0010
0000
0000
0000
0000
0000
0200
0000
0000
0000
0300
0000
0001
0000
0000
2000
0000
0000
,  // measure 10
0000
0000
0000
0000
0000
0000
0000
0000
0000
3000
0000
0000
0000
0000
0000
0000
0000
0000
1000
0000
0000
0020
0000
0000
0000
0000
0000
0030
0000
0000
0001
0000
0000
0000
0000
0000
0200
0000
0000
0000
0000
0000
0000
0000
0300
0000
0000
0000
,  // measure 11
1000
0000
0000
0000
0000
0000
1000
0000
0000
0000
0000
0000
0001
0000
0000
0000
0000
0000
0200
0000
0000
0000
0000
0000
0000
0000
0000
0000
0000
0000
0000
0000
0000
0300
0000
0000
0200
0000
0000
0000
0000
0000
0000
0000
0300
0000
0000
0000
,  // measure 12
0010
0000
0000
0001
0000
0000
1000
0000
0000
0020
0000
0000
0000
0000
0000
0000
0030
0000
0002
0000
0000
0000
0003
0000
,  // measure 13
0020
0000
0000
0001
0030
0000
0100
0000
0000
0000
0000
0000
0020
0000
0000
0000
0030
0000
0001
0000
0000
0200
0000
0000
,  // measure 14
0000
0000
0000
0000
0000
0000
0000
0000
0300
0000
0000
0000
0000
0000
0000
0000
0000
0000
0100
0000
0000
2000
0000
0000
0000
0000
0000
3000
0000
0000
0100
0000
0000
0000
0000
0000
0020
0000
0000
0000
0000
0000
0000
0000
0030
0000
0000
0000
,  // measure 15
1000
0000
0000
0000
0000
0000
1000
0000
0000
0000
0000
0000
0001
0000
0000
0000
0000
0000
0200
0000
0000
0000
0000
0000
0000
0000
0000
0000
0000
0000
0000
0000
0000
0300
0000
0000
0200
0000
0000
0000
0000
0000
0000
0000
0300
0000
0000
0000
,  // measure 16
0001
0000
0000
1000
0000
0000
0010
0000
0000
0002
0000
0000
0000
0000
0000
0000
0003
0000
0200
0000
0000
0000
0300
0000
,  // measure 17
0100
1000
0100
0001
0010
0000
1000
0000
0001
0000
0100
0000
0010
0000
1000
0000
,  // measure 18
0020
0000
0000
0000
0030
0000
0100
0000
0000
0000
0000
0000
0010
0000
0000
0001
0000
0000
0200
0000
0000
0000
0300
0000
,  // measure 19
2000
0000
0000
0000
3000
0000
0100
0000
0000
0002
0000
0000
0000
0000
0000
0000
0000
0000
0003
0000
0000
0020
0000
0000
,  // measure 20
0000
0000
0000
0000
0030
0000
1000
0000
0000
0001
0000
0000
0001
0000
0000
0100
0000
0000
2000
0000
0000
0000
3000
0000
,  // measure 21
0100
1000
0001
0010
0100
0000
0001
0000
1000
0000
0010
0000
0100
0000
0001
0000
,  // measure 22
0100
0000
0000
0100
0000
0000
0020
0000
0000
0000
0030
0000
1000
0000
0000
0100
0000
0000
0002
0000
0000
0000
0003
0000
,  // measure 23
0100
0000
0000
1000
0000
0000
0010
0000
0000
2000
0000
0000
0000
0000
0000
0000
3000
0000
0001
0000
0000
0200
0000
0000
,  // measure 24
0000
0000
0000
0000
0300
0000
0001
0000
0000
1000
0000
0000
1000
0000
0000
0001
0000
0000
0100
0000
0000
0010
0000
0000
,  // measure 25
2000
0000
0000
0000
0000
0000
0000
0000
3000
0000
0000
0000
0010
0000
0000
0100
0000
0000
0001
0000
0000
1000
0000
0000
0100
0000
0000
0000
0000
0000
0001
0000
0000
0000
0000
0000
1000
0000
0000
0000
0000
0000
0020
0000
0000
0000
0000
0000
,  // measure 26
0000
0030
0000
0020
0000
0000
0000
0030
0000
0200
0000
0000
0000
0300
0000
0002
0000
0000
0000
0003
0000
0100
0000
0000
,  // measure 27
0002
0000
0000
0000
0003
0000
1000
0000
0000
0020
0000
0000
0000
0030
0000
1000
0000
0000
0001
0000
0000
1000
0000
0000
,  // measure 28
0100
0000
1000
0100
0010
0000
1000
0000
0100
0000
0001
0000
0100
0000
0010
0000
,  // measure 29
0002
0000
0000
0000
0000
0000
0000
0000
0003
0000
0000
0000
0100
0000
0000
0010
0000
0000
1000
0000
0000
0001
0000
0000
0010
0000
0000
0000
0000
0000
1000
0000
0000
0000
0000
0000
0001
0000
0000
0000
0000
0000
0200
0000
0000
0000
0000
0000
,  // measure 30
0000
0300
0000
0200
0000
0000
0000
0300
0000
0020
0000
0000
0000
0030
0000
2000
0000
0000
0000
3000
0000
0010
0000
0000
,  // measure 31
2000
0000
0000
0000
3000
0000
0001
0000
0000
0200
0000
0000
0000
0300
0000
0001
0000
0000
1000
0000
0000
0001
0000
0000
,  // measure 32
0010
0000
0001
0010
0100
0000
0001
0000
0010
0000
1000
0000
0010
0000
0100
0000
,  // measure 33
0100
0000
0000
1000
0000
0000
0100
0000
0000
0010
0000
0000
0002
0000
0000
0000
0003
0000
2000
0000
0000
0000
3000
0000
,  // measure 34
0010
0000
0000
0001
0000
0000
0010
0000
0000
2000
0000
0000
0000
0000
0000
0000
0000
0000
0000
0000
3000
0000
0000
0000
,  // measure 35
0010
0000
0000
0001
0000
0000
0010
0000
0000
0100
0000
0000
2000
0000
0000
0000
3000
0000
0002
0000
0000
0000
0003
0000
,  // measure 36
0100
0000
0000
0000
0000
0000
1000
0000
0000
0000
0000
0000
0001
0000
0000
0000
0000
0000
0200
0000
0000
0000
0000
0000
0000
0000
0300
0000
0000
0000
0001
0000
0000
0001
0000
0000
0200
0000
0000
0000
0000
0000
0000
0000
0300
0000
0000
0000
,  // measure 37
0001
0000
0000
1000
0000
0000
0001
0000
0000
1000
0000
0000
0020
0000
0000
0000
0030
0000
0200
0000
0000
0000
0300
0000
,  // measure 38
0001
0000
0000
0001
0000
0000
1000
0000
0000
0020
0000
0000
0000
0030
0000
0100
0000
0000
2000
0000
0000
0000
3000
0000
,  // measure 39
0010
0000
0000
1000
0000
0000
1000
0000
0000
0001
0000
0000
1000
0000
0000
0001
0000
0000
0020
0000
0000
0000
0030
0000
,  // measure 40
0001
0001
0010
0000
1000
0000
0100
0000
0001
0000
1000
0000
0100
0000
0010
0000
,  // measure 41
1000
1000
0001
0000
0010
0000
0100
0000
1000
1000
0001
0000
0010
0000
0100
0000
,  // measure 42
1000
1000
0001
0000
0010
0000
0100
0000
0010
0001
0100
0000
0010
0000
1000
0000
,  // measure 43
0001
0001
1000
0000
0100
0000
0010
0000
0001
0001
1000
0000
0100
0000
0010
0000
,  // measure 44
0001
0001
1000
0000
0100
0000
0010
0000
0100
1000
0010
0000
0100
0000
0001
0000
,  // measure 45
0100
1000
0100
0000
0010
0000
1000
0001
0100
1000
0001
0010
0001
0000
1000
0001
,  // measure 46
0100
1000
0100
0000
0010
0000
1000
0001
0010
0000
0100
0000
0010
0000
0001
0000
,  // measure 47
0010
0001
0010
0000
0100
0000
0001
1000
0010
0001
1000
0100
1000
0000
0001
1000
,  // measure 48
0010
0001
0010
0000
0100
0000
0001
1000
0100
0000
0010
0000
0100
0000
1000
0000
,  // measure 49
2000
0000
0000
0000
0000
0000
0000
0000
3000
0000
0000
0000
0010
0000
0000
0100
0000
0000
0001
0000
0000
1000
0000
0000
0100
0000
0000
0000
0000
0000
0001
0000
0000
0000
0000
0000
1000
0000
0000
0000
0000
0000
0020
0000
0000
0000
0000
0000
,  // measure 50
0000
0030
0000
0020
0000
0000
0000
0030
0000
0200
0000
0000
0000
0300
0000
0002
0000
0000
0000
0003
0000
0100
0000
0000
,  // measure 51
0002
0000
0000
0000
0003
0000
1000
0000
0000
0020
0000
0000
0000
0030
0000
1000
0000
0000
0001
0000
0000
1000
0000
0000
,  // measure 52
0100
0000
1000
0100
0010
0000
1000
0000
0100
0000
0001
0000
0100
0000
0010
0000
,  // measure 53
0002
0000
0000
0000
0000
0000
0000
0000
0003
0000
0000
0000
0100
0000
0000
0010
0000
0000
1000
0000
0000
0001
0000
0000
0010
0000
0000
0000
0000
0000
1000
0000
0000
0000
0000
0000
0001
0000
0000
0000
0000
0000
0200
0000
0000
0000
0000
0000
,  // measure 54
0000
0300
0000
0200
0000
0000
0000
0300
0000
0020
0000
0000
0000
0030
0000
2000
0000
0000
0000
3000
0000
0010
0000
0000
,  // measure 55
2000
0000
0000
0000
3000
0000
0001
0000
0000
0200
0000
0000
0000
0300
0000
0001
0000
0000
1000
0000
0000
0001
0000
0000
,  // measure 56
0010
0000
0001
0010
0100
0000
0001
0000
0010
0000
1000
0000
0010
0000
0100
0000
,  // measure 57
2000
0000
3000
0000
;

//---------------dance-single - ----------------
#NOTES:
     dance-single:
     :
     Hard:
     14:
     0.720597,0.833449,0.069575,0.498620,0.237714,435.000000,429.000000,6.000000,43.000000,0.000000,0.000000,0.720597,0.833449,0.069575,0.498620,0.237714,435.000000,429.000000,6.000000,43.000000,0.000000,0.000000:
0000
0000
0000
0000
,
1000
0100
0001
0100
1000
0000
1100
0000
,
0001
0100
0010
2000
0000
3100
1000
0000
,
0001
0010
1000
0010
0001
0000
0011
0000
,
1000
0000
0001
0000
0100
0000
0020
0000
0000
0000
1030
0100
1000
0000
0000
0000
,
1000
0001
1000
0001
0010
0000
1100
0000
,
0001
0100
0001
0100
0010
1000
0001
0000
,
1000
0100
1000
0100
0001
0100
2000
0000
,
3001
0010
0001
0000
0010
0000
1000
0000
0001
0000
0100
0000
1000
0000
0010
0000
,
1000
0100
0010
0000
0002
0000
0103
0001
,
0100
0010
0100
0020
0000
1030
0002
0000
,
1003
0100
0010
0002
0000
1003
0002
0000
,
0103
0010
1000
0002
0003
0001
0200
0000
,
0301
0010
0100
0000
2000
0000
3010
1000
,
0010
0100
0010
0200
0000
0301
2000
0000
,
3001
0010
0100
2000
0000
3100
2000
0000
,
3010
0100
0001
2000
3000
1000
0020
0000
,
1030
0000
0100
1000
0100
0000
1000
0000
0001
0000
0010
0000
0100
0000
1000
0000
,
0020
0030
0010
0000
0100
0100
0001
0100
,
0002
0000
0103
0020
1000
0000
2030
0000
,
3002
0000
0103
0001
0010
0100
2000
0000
,
3001
0010
0001
0010
0001
0000
1000
0000
0100
0000
0010
0000
0001
0000
0100
0000
,
0001
0100
0020
0000
0031
0010
2000
0000
,
3010
0100
0010
2000
0000
3000
1000
0002
,
0000
0003
0001
0100
0001
1000
0100
0001
,
0200
0000
0000
0000
1300
0100
1000
0100
1000
0000
0010
0000
0100
0000
0002
0000
,
1003
0001
1000
0001
0100
0010
1000
0001
,
2000
0000
3100
1000
0100
0010
0100
1000
,
0001
0000
0100
0001
0100
0000
0001
0000
0010
0000
0100
0000
1000
0000
0100
0000
,
0020
0000
0000
0000
0031
0010
0001
0010
0001
0000
0100
0000
0010
0000
2000
0000
,
3001
1000
0001
1000
0010
0100
0001
1000
,
0002
0000
0013
0001
0010
0100
0010
0001
,
1000
0000
0010
1000
0010
0000
1000
0000
0100
0000
0010
0000
0001
0000
0010
0000
,
0001
0100
1000
0100
0001
0000
0101
0000
,
1000
0100
0010
0002
0000
0103
0001
0000
,
1000
0010
0001
0010
1000
0000
1010
0000
,
0001
0000
1000
0000
0100
0000
0020
0000
0000
0000
0031
0100
0001
0000
0000
0000
,
0001
1000
0001
1000
0010
0000
0101
0000
,
1000
0100
1000
0100
0010
0001
1000
0000
,
0001
0100
0001
0100
1000
0100
0002
0000
,
1003
0010
1000
0000
0010
0000
0001
0000
1000
0000
0100
0000
0001
0000
0010
0000
,
0100
1000
0100
0000
0010
0000
0001
0000
1000
0010
1000
0000
0100
0000
0010
0000
,
0001
0010
0001
0000
0100
0000
0010
0000
0100
0010
0100
0000
1000
0000
0100
0000
,
0010
1000
0010
0000
0100
0000
0001
0000
1000
0100
1000
0000
0010
0000
0100
0000
,
0001
0100
0001
0000
0010
0000
0100
0000
0010
0100
0010
0000
1000
0000
0010
0000
,
0001
0010
0001
0000
0100
0000
0010
1000
0100
1000
0100
0010
0100
0000
1000
0100
,
1000
0100
1000
0000
0001
0000
0010
0100
1000
0000
0100
0000
0010
0000
0001
0000
,
1000
0100
1000
0000
0010
0000
0100
0001
0010
0001
0010
0100
0010
0000
0001
0010
,
0001
0010
0001
0000
1000
0000
0100
0010
0001
0000
0010
0000
0100
0000
1000
0000
,
0200
0000
0000
0000
1300
0100
1000
0100
1000
0000
0010
0000
0100
0000
0002
0000
,
1003
0001
1000
0001
0100
0010
1000
0001
,
2000
0000
3100
1000
0100
0010
0100
1000
,
0001
0000
0100
0001
0100
0000
0001
0000
0010
0000
0100
0000
1000
0000
0100
0000
,
0020
0000
0000
0000
0031
0010
0001
0010
0001
0000
0100
0000
0010
0000
2000
0000
,
3001
1000
0001
1000
0010
0100
0001
1000
,
0002
0000
0013
0001
0010
0100
0010
0001
,
1000
0000
0010
1000
0010
0000
1000
0000
0100
0000
0010
0000
0001
0000
0010
0000
,
0200
0000
0300
0000
;

//---------------dance-single - ----------------
#NOTES:
     dance-single:
     :
     Beginner:
     2:
     0.129211,0.166690,0.000000,0.081171,0.000000,78.000000,78.000000,0.000000,7.000000,0.000000,0.000000,0.129211,0.166690,0.000000,0.081171,0.000000,78.000000,78.000000,0.000000,7.000000,0.000000,0.000000:
0000
0000
0000
0000
,
1000
0000
0000
0000
,
1000
0000
0000
0000
,
0001
0000
0000
0000
,
0001
0000
0000
0000
,
0100
0000
0100
0000
,
0100
0000
0000
0000
,
0010
0000
0010
0000
,
0010
0000
0000
0000
,
1000
0000
0000
0000
,
0100
0000
0000
0000
,
1000
0000
0000
0000
,
1000
0000
0000
0000
,
0001
0000
0000
0000
,
0100
0000
0000
0000
,
0001
0000
0000
0000
,
0001
0000
0000
0000
,
1000
0000
0001
0000
,
1000
0000
0001
0000
,
2000
0000
3000
0000
,
2000
0000
3000
0000
,
0100
0000
0010
0000
,
0100
0000
0010
0000
,
0200
0000
0300
0000
,
0200
0000
0300
0000
,
2000
0000
0000
0000
,
3000
0000
0000
0000
,
0001
0000
0000
0000
,
1000
0000
0001
0000
,
0020
0000
0000
0000
,
0030
0000
0000
0000
,
0100
0000
0000
0000
,
0010
0000
0100
0000
,
1000
0000
0000
0000
,
1000
0000
0000
0000
,
0001
0000
0000
0000
,
0001
0000
0000
0000
,
0100
0000
0100
0000
,
0100
0000
0000
0000
,
0010
0000
0010
0000
,
0010
0000
0000
0000
,
1000
0000
0100
0000
,
1000
0000
0100
0000
,
1000
0000
0001
0000
,
1000
0000
0001
0000
,
0100
0000
0001
0000
,
0100
0000
0001
0000
,
0100
0000
0010
0000
,
0100
0000
0010
0000
,
0100
0000
0000
0000
,
0100
0000
0000
0000
,
0010
0000
0000
0000
,
0100
0000
0010
0000
,
1000
0000
0001
0000
,
1000
0000
1000
0000
,
0001
0000
0001
0000
,
1000
0000
0001
0000
,
2000
0000
3000
0000
;

//---------------dance-single - ----------------
#NOTES:
     dance-single:
     :
     Easy:
     7:
     0.334622,0.366718,0.092767,0.347874,0.000000,202.000000,194.000000,8.000000,30.000000,0.000000,0.000000,0.334622,0.366718,0.092767,0.347874,0.000000,202.000000,194.000000,8.000000,30.000000,0.000000,0.000000:
0000
0000
0000
0000
,
0001
1000
0001
0000
,
0100
0000
0000
0200
0000
0000
0300
0000
,
0001
1000
0001
0000
,
0010
0000
0000
0020
0000
0000
0130
0000
,
1000
1000
0001
0001
,
0100
0010
1000
0001
,
0010
0100
0010
0100
,
1000
1000
0001
1001
,
0000
0001
2000
3000
,
0200
0300
1000
1000
,
0010
0100
0002
0003
,
0010
0100
0020
0030
,
0001
1000
0002
0003
,
0020
0030
0001
0001
,
0100
0010
2000
3000
,
0100
0010
0200
0300
,
1000
1000
0001
0001
,
0100
0010
0100
0010
,
1000
0100
0002
0003
,
0001
0100
2000
3000
,
0001
0001
1000
1000
,
0010
0100
0010
0100
,
0001
0010
2000
3000
,
0020
0030
0001
0001
,
0200
0010
0310
0000
,
2000
0100
3100
0000
,
0002
0000
0203
0000
,
1300
1000
0010
0100
,
0010
0010
0100
0100
,
0001
0010
0001
0010
,
2000
3010
0002
0013
,
0100
0010
0100
0110
,
0001
1000
0001
0000
,
0100
0000
0000
0200
0000
0000
0300
0000
,
0001
1000
0001
0000
,
0010
0000
0000
0020
0000
0000
0130
0000
,
1000
1000
0001
0001
,
0100
0010
1000
0001
,
0010
0100
0010
0100
,
1000
1000
0001
1001
,
0001
0100
1000
0100
,
0001
0100
1000
0110
,
1000
0010
0001
0010
,
1000
0010
0001
0110
,
1000
0100
0001
0010
,
0001
0100
1000
1001
,
0001
0100
1000
0010
,
1000
0100
0001
1001
,
0020
0100
0130
0000
,
2000
0010
3010
0000
,
0002
0000
0023
0000
,
1030
1000
0100
0010
,
0100
0100
0010
0010
,
0001
0100
0001
0100
,
2000
3100
0002
0103
,
0010
0100
0010
0010
,
2002
0000
3003
0000
;

//---------------dance-single - ----------------
#NOTES:
     dance-single:
     :
     Medium:
     10:
     0.501933,0.466732,0.000000,0.255108,0.000000,303.000000,303.000000,0.000000,22.000000,0.000000,0.000000,0.501933,0.466732,0.000000,0.255108,0.000000,303.000000,303.000000,0.000000,22.000000,0.000000,0.000000:
0000
0000
0000
0000
,
1000
0100
0001
0000
0100
0000
1000
0000
,
0100
0000
0000
0020
0000
0000
0130
0000
,
1000
0010
0001
0000
0010
0000
1000
0000
,
0010
0000
0100
0010
0000
0010
0100
0000
,
0001
0100
0001
0000
0010
0000
0010
0000
,
0100
1000
0010
0000
1000
0100
0010
0000
,
0001
0100
0001
0000
0100
0010
0100
0000
,
0001
0010
0100
1000
0100
0010
0001
0000
,
1000
0001
0100
0000
0001
0000
1000
0020
,
0000
0000
0030
0100
0000
0001
1000
0000
,
0001
0100
0010
2000
0000
3000
1000
0000
,
1000
0100
0010
0001
0000
0001
0010
0000
,
0001
1000
0010
0000
1000
0000
0001
0200
,
0000
0000
0300
0010
0000
1000
0001
0000
,
1000
0010
0100
0002
0000
0003
0001
0000
,
0001
0010
0100
1000
0000
1000
0100
0000
,
1000
0100
0001
0000
0001
0100
1000
0000
,
0001
0000
0010
0000
1000
0100
1000
0000
,
0010
0000
0001
2000
0000
3000
1000
0000
,
0001
0000
0100
0010
0100
0010
1000
0000
,
0001
0010
1000
0000
1000
0010
0001
0000
,
1000
0000
0100
0000
0001
0010
0001
0000
,
0100
0000
1000
0002
0000
0003
0001
2000
,
0000
3000
0010
0100
0010
0100
0001
0000
,
0200
0000
0301
0010
0001
0000
0001
1000
,
0000
1000
0000
0010
0000
0010
0000
0100
,
0002
0000
0103
0020
0000
0130
0001
0000
,
0010
0100
0010
0000
0100
1000
0001
0000
,
0020
0000
0031
0100
0001
0100
0001
1000
,
0000
1000
0000
0100
0000
0100
0000
0010
,
0002
0000
0013
0200
0000
0310
0001
0000
,
0100
0010
0100
0000
0010
1000
0001
0000
,
1000
0100
0001
0000
0100
0000
1000
0000
,
0100
0000
0000
0020
0000
0000
0130
0000
,
1000
0010
0001
0000
0010
0000
1000
0000
,
0010
0000
0100
0010
0000
0010
0100
0000
,
0001
0100
0001
0000
0010
0000
0010
0000
,
0100
1000
0010
0000
1000
0100
0010
0000
,
0001
0100
0001
0000
0100
0010
0100
0000
,
0001
0010
0100
1000
0100
0010
0001
0000
,
1000
0001
0100
0000
0001
1000
0100
0000
,
1000
0001
0010
0000
1000
1000
0010
0000
,
0001
1000
0010
0000
1000
0001
0010
0000
,
0001
1000
0100
0000
0001
0001
0100
0000
,
1000
0100
0010
0000
0100
1000
0010
0000
,
1000
0100
0010
0000
1000
0010
0100
0010
,
0001
0100
0010
0000
0100
0001
0010
0000
,
0001
0100
0010
0000
0001
0010
0100
0010
,
0200
0000
0301
0010
0001
0000
0001
1000
,
0000
1000
0000
0010
0000
0010
0000
0100
,
0002
0000
0103
0020
0000
0130
0001
0000
,
0010
0100
0010
0000
0100
1000
0001
0000
,
0020
0000
0031
0100
0001
0100
0001
1000
,
0000
1000
0000
0100
0000
0100
0000
0010
,
0002
0000
0013
0200
0000
0310
0001
0000
,
0100
0010
0100
0000
0010
1000
0001
0000
,
0020
0000
0030
0000
;
